Начать новую тему Ответить на тему
Статистика раздачи
Размер: 7.96 ГБ | Добавлен: 05 июн 2020, 22:45 | Скачали: 0
Сидеров: 0  [0 байт/сек]    Личеров: 0  [0 байт/сек]
Пред. тема | След. тема 

Автор
Сообщение

СообщениеДобавлено: 05 июн 2020, 22:45 

Ответить с цитатой 

Рихард Вагнер - Золото Рейна

Richard Wagner - Das Rheingold
Год выпуска: 2008
Лейбл: ArtHaus Musik
Страна-производитель: Германия
Жанр: Opera
Продолжительность: 02:46:16
Язык: Немецкий
Перевод: Не требуется
Субтитры: Английские, немецкие, французские, итальянские, испанские
Хор: Немецкого национального театра, Государственной капеллы в Веймаре
Оркестр: Государственной капеллы в Веймаре
Дирижер: Карл Сент-Клер (Karl St.Clair)
Режиссер/Хореограф: Майкл Шульц (Michael Schulz)
Исполнители:
Вотан, верховной бог - Марио Хофф (Mario Hoff)
Фрикка, его жена, богиня брачных уз - Кристина Хансманн (Christine Hansmann)
Доннер, бог грома - Александр Гюнтер (Alexander Gunther)
Фро, бог солнца, дождя и плодов - Жан-Ноэль Бриен (Jean-Noel Briend)
Фрейя, богиня юности и красоты - Мариэтта Цумбюльт (Marietta Zumbult)
Логе, полубог огня - Эрин Кейвс (Erin Caves)
братья нибелунги
Альберих - Томас Моэвес (Tomas Moves)
Миме - Фридер Аурих (Frieder Aurich)
братья великаны
Фазольт - Ренатус Мецар (Renatus Meszar)
Фафнер - Хидекацу Цумая (Hidekazu Tsumaya)
сестры девы Рейна (русалки)
Воглинда - Силона Мишель (Silona Michel)
Вельгунда - Сюзанна Гюнтер-Диссмайер (Susann Gunther-Dissmeier)
Флосхильда - Кристиана Бассек (Christiane Bassek)
Эрда, богиня земли - Надин Вайсманн (Nadine Weissmann)
Описание: Одноактная опера Рихарда Вагнера на либретто (по-немецки) композитора (Вагнер желал, чтобы эта опера считалась прологом к трилогии из трех следующих за ней опер; но, поскольку все четыре оперы обычно даются как цикл, мы, как и другие, пишущие о об этом цикле, рассматриваем его как "тетралогию").
Вагнеровский цикл создан на основе германо-скандинавской мифологии и эпоса, сохранив дух нордических легенд. При этом Вагнер основные линии заимствовал из скандинавской «Эдды», насыщенной мифами о богах, а имена, и то, что касается героической части, взял из германской традиции. Поэтому верховный бог Один называется здесь Вотан, бог грома Тор – Доннер, герой Сигурд – Зигфрид.
Мы видим здесь женскую стихию Рока, воплощаемую богиней земли Эрдой и ее дочерьми норнами. Над землей великий дух Вотан устанавливает свое мужское господство. Он делает это при помощи великанов Фазольта и Фафнера (стихийных титанических сил) воздвигающих призрачное здание Валгаллы. Вотан и другие асы Доннер, Фро, Фрика, Фрейя олицетворяют земную Сверхэлиту. Вечную - пока не разрушится мир. Но их правление, держащееся на силе и клятвах, скрепляющих договоры, подрывается от каждого неправого деяния. И вот, в подземном туманном Нибельгейме зарождается враждебная мужским богам власть «ночного войска нибелунгов» (гномов) и их повелителя – Альбериха, отрекшегося от любви ради золота, сковавшего кольцо могущества (Толкиен явно написал своего Горлума под впечатлением вагнеровских опер).
Под Альберихом Вагнер подразумевал международный финансовый капитал, могущественный уже в его время и столь активно пытающийся в последние годы навязать миру свою модель глобализации. Есть и еще один игрок – Логе, бог огня. Он коварен и непостоянен. Некогда Логе был другом нибелунгов, но перешел на сторону богов. Он обманывает всех – нибелунгов (отнимая у них власть), богов (втягивая их в свою ложь), великанов (передав им проклятое Альберихом кольцо). В Логе проглядывают черты богемного интеллектуала и скрытого революционера, прислуживающего финансовому капиталу и Элите, но презирающего и обманывающего тех и других (и, в свою очередь, ими презираемого).
Весь мир, раскрытый в «Золоте Рейна» основан на неправде и обречен на гибель. И только будущий герой (Зигфрид) способен ценой жизни искупить зло. Но это – сюжет последующих опер «Кольца Нибелунга».Релиз: skryabin
Качество видео: BDRip (720p)
Формат/Контейнер: MKV
Видео кодек: x264
Аудио кодек: DTS
Видео поток: AVC, 5207 Кбит/сек, 1280 x 720 (1.778), 29.970 fps
Аудио поток: DTS, 1510 Кбит/сек, 6 каналов, 48,0 КГц
Общее
Уникальный идентификатор : 185396584510121397934633725616560058635 (0x8B7A1557B4616154B2045B777218B10B)
Полное имя : Wagner-Das.Rheingold.2008.BDRip.720p.mkv
Формат : Matroska
Размер файла : 7,96 Гбайт
Продолжительность : 2 ч. 46 м.
Общий поток : 6853 Кбит/сек
Дата кодирования : UTC 2011-01-15 22:28:53
Программа кодирования : mkvmerge v3.4.0 ('Rapunzel') сборка от May 15 2010 09:38:20
Библиотека кодирования : libebml v0.8.0 + libmatroska v0.9.0
Видео
Идентификатор : 1
Формат : AVC
Формат/Информация : Advanced Video Codec
Профиль формата : High@L4.1
Параметр CABAC формата : Да
Параметр ReFrames формата : 8 кадров
Идентификатор кодека : V_MPEG4/ISO/AVC
Продолжительность : 2 ч. 46 м.
Битрейт : 5207 Кбит/сек
Номинальный битрейт : 3787 Кбит/сек
Ширина : 1280 пикс.
Высота : 720 пикс.
Соотношение сторон : 16:9
Частота кадров : 29,970 кадр/сек
Цветовое пространство : YUV
Подвыборка цветности : 4:2:0
Битовая глубина : 8 бит
Тип развёртки : Прогрессивная
Бит/(Пиксели*Кадры) : 0.189
Размер потока : 6,05 Гбайт (76%)
Заголовок : Wagner: Der Ring Des Nibelungen - Das Rheingold (2008) BDRip 720p
Библиотека кодирования : x264 core 75 r1251kMod e553a4c
Настройки программы : cabac=1 / ref=8 / deblock=1:-3:-3 / analyse=0x3:0x133 / me=umh / subme=9 / psy=1 / psy_rd=1.0:0.2 / mixed_ref=1 / me_range=16 / chroma_me=1 / trellis=2 / 8x8dct=1 / cqm=0 / deadzone=21,11 / chroma_qp_offset=-3 / threads=6 / nr=0 / decimate=1 / mbaff=0 / bframes=4 / b_pyramid=1 / b_adapt=2 / b_bias=0 / direct=3 / wpredb=1 / keyint=250 / keyint_min=25 / scenecut=40 / rc=2pass / mbtree=0 / bitrate=3787 / ratetol=1.0 / qcomp=0.60 / qpmin=10 / qpmax=51 / qpstep=4 / cplxblur=20.0 / qblur=0.5 / ip_ratio=1.40 / pb_ratio=1.30 / aq=1:1.00
Язык : German
Аудио
Идентификатор : 2
Формат : DTS
Формат/Информация : Digital Theater Systems
Идентификатор кодека : A_DTS
Продолжительность : 2 ч. 46 м.
Вид битрейта : Постоянный
Битрейт : 1510 Кбит/сек
Каналы : 6 каналов
Расположение каналов : Front: L C R, Side: L R, LFE
Частота : 48,0 КГц
Битовая глубина : 16 бит
Метод сжатия : С потерями
Размер потока : 1,75 Гбайт (22%)
Заголовок : DTS 5.1 ch, 1510 kbps
Язык : German
Текст #1
Идентификатор : 3
Формат : UTF-8
Идентификатор кодека : S_TEXT/UTF8
Идентификатор кодека/Информация : UTF-8 Plain Text
Язык : English
Текст #2
Идентификатор : 4
Формат : UTF-8
Идентификатор кодека : S_TEXT/UTF8
Идентификатор кодека/Информация : UTF-8 Plain Text
Язык : German
Текст #3
Идентификатор : 5
Формат : UTF-8
Идентификатор кодека : S_TEXT/UTF8
Идентификатор кодека/Информация : UTF-8 Plain Text
Язык : French
Текст #4
Идентификатор : 6
Формат : UTF-8
Идентификатор кодека : S_TEXT/UTF8
Идентификатор кодека/Информация : UTF-8 Plain Text
Язык : Italian
Текст #5
Идентификатор : 7
Формат : UTF-8
Идентификатор кодека : S_TEXT/UTF8
Идентификатор кодека/Информация : UTF-8 Plain Text
Язык : Spanish
Правила, инструкции, FAQ!!!
Торрент  Добавлен [05 июн 2020, 22:45] Скачать торрент Магнет ссылка
Скачать торрент
[ Размер 40.26 КБ / Просмотров 4 ]

Статус
Проверен 
 
Размер  7.96 ГБ
Приватный: Нет (DHT включён)
.torrent скачан  0
 


     Отправить личное сообщение
   
Страница 1 из 1
Показать сообщения за:  Поле сортировки  
Начать новую тему Ответить на тему


Сейчас этот форум просматривают: нет зарегистрированных пользователей и гости: 0


Вы не можете начинать темы
Вы не можете отвечать на сообщения
Вы не можете редактировать свои сообщения
Вы не можете удалять свои сообщения
Вы не можете добавлять вложения

Перейти:  
cron