Начать новую тему Ответить на тему
Статистика раздачи
Размер: 5.36 ГБ | Добавлен: 05 июн 2020, 23:17 | Скачали: 0
Сидеров: 0  [0 байт/сек]    Личеров: 0  [0 байт/сек]
Пред. тема | След. тема 

Автор
Сообщение

СообщениеДобавлено: 05 июн 2020, 23:17 

Ответить с цитатой 


Восточно-Германская студия DEFA представляет

РИХАРД ВАГНЕР
22 мая (May 22,) 1813 — 13 февраля (February 13,) 1883
— ЛЕТУЧИЙ ГОЛЛАНДЕЦ —
Оригинальная телеверсия,
восстановленная к 200-летию со дня рождения композитора


#777
Год записи/выхода на DVD: 1964/2013 @ IMDB
•••
Чтобы забыть о полной запретов и душащей её жизни,
дочь богатого судовладельца Сента
ищет спасения в своих фантазиях и мечтах.
В этом воображаемом мире ей является отважный и лихой капитан – Летучий Голландец,
который когда-то был проклят вечно скитаться по морям.
В своих маниакальных мечтах своей любовью к нему Сента избавляет его от проклятия.

•••
Постановка Херцем «Летучего Голландца» в Берлинском театре «Комише опер»
в 1962 году с участием Вальтера Фельзенштейна
и последующие спектакли в Лейпцигском оперном театре
и Большом театре в Москве имели огромный успех,
поэтому было предложено сделать кинематографическую версию.
Фильм, снятый на киностудии в Восточной Германии, включает в себя элементы
фильмов ужасов и фильмов о вампирах.
«Летучий Голландец» стал первой оперой Вагнера, снятой на киноплёнку.
В сценарии реальный и воображаемый миры чётко разделены.
Это было достигнуто путём визуального изменения
формата записи на 35-миллиметровую плёнку:
обычный формат использовался для отображения реальности,
а широкоэкранный формат - для отображения мира фантазий.
Музыкальное сопровождение фильма записано при помощи
новаторской 4-канальной магнитной технологии.
© Перевод Елены Рыбаковой
Лейбл/Страна: DEFA-Studio für Spielfilme / DDR
Жанр: Opera-Film
Продолжительность: 98 min.
Язык: Немецкий
Перевод/Субтитры: Отсутствует/Нет
•••
Качество видео: DVD9 [Thanks TheOnly2000!]
♫ Sample ♫
BONUS: Documentary
Формат/Контейнер: DVDVideo
Видео кодек: MPEG2
Аудио кодек: AC3
Видео поток: 720@1024x576, 16:9 - 2.35:1, VBR, 25,000 fps.
Аудио поток: Немецкий, 448 Kbps 5.0; 192 Kbps 2.0
•••
Режиссёр: ЙОАХИМ ХЕРЦ
Joachim Herz
Сценарий: ЙОАХИМ ХЕРЦ и ХАРОЛЬД ХОРН
Joachim Herz & Harald Horn
Костюмы: ГЕРХАРД КАДДАЦ
Gerhard Kaddatz
Senta - Anna Prucnal ♫ Gerda Hannemann
Der Holländer - Fred Düren ♫ Rainer Lüdecke
Daland - Gerd Ehlers ♫ Hans Krämer
Mary - Mathilde Danegger ♫ Katrin Wölzl
Erik - Herbert Graedtke ♫ Rolf Apreck
Steuermann - Hans-Peter Reinecke ♫ Karl-Friedrich Hölzke
CHOR der Leipziger Oper
Gewandhausorchester Leipzig
Dirigent: Rolf Reuter
Choreography: Ruth Berghaus
Chorus Master: Andreas Pieske
General
Complete name : D:\Der fliegende Hollander (1964)\VIDEO_TS\VTS_03_2.VOB
Format : MPEG-PS
File size : 1 024 MiB
Duration : 23mn 8s
Overall bit rate mode : Variable
Overall bit rate : 6 188 Kbps
Video
ID : 224 (0xE0)
Format : MPEG Video
Format version : Version 2
Format profile : Main@Main
Format settings, BVOP : Yes
Format settings, Matrix : Custom
Format settings, GOP : M=3, N=12
Duration : 23mn 8s
Bit rate mode : Variable
Bit rate : 5 424 Kbps
Maximum bit rate : 7 000 Kbps
Width : 720 pixels
Height : 576 pixels
Display aspect ratio : 16:9
Frame rate : 25.000 fps
Standard : PAL
Color space : YUV
Chroma subsampling : 4:2:0
Bit depth : 8 bits
Scan type : Interlaced
Scan order : Bottom Field First
Compression mode : Lossy
Bits/(Pixel*Frame) : 0.523
Time code of first frame : 10:24:36:00
Time code source : Group of pictures header
Stream size : 898 MiB (88%)
Color primaries : BT.601 PAL
Transfer characteristics : BT.470 System B, BT.470 System G
Matrix coefficients : BT.601
Audio #1
ID : 189 (0xBD)-128 (0x80)
Format : AC-3
Format/Info : Audio Coding 3
Mode extension : CM (complete main)
Format settings, Endianness : Big
Muxing mode : DVD-Video
Duration : 23mn 8s
Bit rate mode : Constant
Bit rate : 448 Kbps
Channel(s) : 5 channels
Channel positions : Front: L C R, Side: L R
Sampling rate : 48.0 KHz
Bit depth : 16 bits
Compression mode : Lossy
Delay relative to video : -480ms
Stream size : 74.1 MiB (7%)
Audio #2
ID : 189 (0xBD)-129 (0x81)
Format : AC-3
Format/Info : Audio Coding 3
Mode extension : CM (complete main)
Format settings, Endianness : Big
Muxing mode : DVD-Video
Duration : 23mn 8s
Bit rate mode : Constant
Bit rate : 192 Kbps
Channel(s) : 2 channels
Channel positions : Front: L R
Sampling rate : 48.0 KHz
Bit depth : 16 bits
Compression mode : Lossy
Delay relative to video : -448ms
Stream size : 31.8 MiB (3%)
Menu

DVDRip-AVC, РУССКИЕ СУБТИТРЫ[/spoiler]
Правила, инструкции, FAQ!!!
Торрент  Добавлен [05 июн 2020, 23:17] Скачать торрент Магнет ссылка
Скачать торрент
[ Размер 28.22 КБ / Просмотров 4 ]

Статус
Проверен 
 
Размер  5.36 ГБ
Приватный: Нет (DHT включён)
.torrent скачан  0
 


     Отправить личное сообщение
   
Страница 1 из 1
Показать сообщения за:  Поле сортировки  
Начать новую тему Ответить на тему


Сейчас этот форум просматривают: нет зарегистрированных пользователей и гости: 0


Вы не можете начинать темы
Вы не можете отвечать на сообщения
Вы не можете редактировать свои сообщения
Вы не можете удалять свои сообщения
Вы не можете добавлять вложения

Перейти:  
cron