Начать новую тему Ответить на тему
Статистика раздачи
Размер: 4.36 ГБ | Добавлен: 05 июн 2020, 22:19 | Скачали: 0
Сидеров: 0  [0 байт/сек]    Личеров: 0  [0 байт/сек]
Пред. тема | След. тема 

Автор
Сообщение

СообщениеДобавлено: 05 июн 2020, 22:19 

Ответить с цитатой 

Richard Strauss- "Elektra"
Рихард Штраус- "Электра"
либретто Гофмансталя по пьесе Софокла
Год выпуска: 2006
Лейбл: Deutsche Grammophon
Страна-производитель: Germany
Жанр: opera
Продолжительность: 1.33
Язык: German
Субтитры: Deutsch, English, Francais, Espano, Chinese
Режиссер: Brian Large
Исполнители: Richard Strauss
Richard Strauss
Elektra
Исполнители:
Klytamnestra/КЛИТЕМНЕСТРА, вдова Агамемнона (контральто) Mignon Dunn
Aegisth/ЭГИСТ, её возлюбленный (тенор) Robert Nagy
Orest/ОРЕСТ, её сын (баритон) Donald Mcintyre
её дочери:
Elektra/ЭЛЕКТРА (сопрано) Birgit Nilsson
Chrysothemis/ХРИЗОТЕМИДА (сопрано) Leonie Risanek
Der Pfleger des Orest/ВОСПИТАТЕЛЬ ОРЕСТА (бас) John Cheek
The New York Opera orchestra
Conductor James Levine
Время действия: после падения Трои.
Место действия: Микены.
Первое исполнение: Дрезден, 25 января 1909 года.
Описание:
«Электра» не только триллер, она также шок. (Критические отзывы после премьеры оперы достигли своего апогея в словах одного критика: «Эта опера смердит». - А.М.). В самом деле, когда она была впервые поставлена в Германии в 1909 году, некоторые критики полагали, что последнее слово (или, может быть, сказать: нота?) было написано с бесстыдной откровенностью и страстью. Что же произвело такой фурор? Это была известная греческая легенда, впервые литературно обработанная Гомером и позже увековеченная Софоклом. Но либреттист пересказал эту историю более или менее в категориях современной философии, тогда как Штраус сочинил партитуру столь откровенную и столь захватывающую, какую мог создать только современный мастер.
Должно быть, все помнят (из Гомера или Софокла или же Булфинша), что в то время, как царь Микен Агамемнон находился на Троянской войне, его жена Клитемнестра завела себе любовника - некоего Эгиста. По возвращении Агамемнона немедленно убивают. С тех пор в стране правили Эгист и Клитемнестра. Двое детей Агамемнона - Электра и Хризотемида - содержались во дворце почти как рабыни. А его сын Орест спасся бегством. Две сестры возносят молитвы о возвращении брата, чтобы он отомстил за отца. Электра вырастает в гневную мстительную женщину.
Опера начинается сценой у дворца, где женщины-служанки судачат о странном поведении Электры. Только одна из этих женщин испытывает некоторую симпатию к Электре, так как чувствует ее моральную силу и ее царское величие. Вскоре появляется сама Электра и взывает к духу умершего отца, Агамемнона. Через несколько мгновений у нее происходит разговор с сестрой, Хризотемидой, в котором старшая девушка пытается внушить младшей и более слабой свою силу духа. Когда появляется Клитемнестра, спрашивая, какие жертвы она должна принести за свои преступные мечты, Электра не предлагает ей никакого успокоения. С грозным. выражением лица она открыто заявляет Клитемнестре, что все ее помыслы и стремления направлены к тому, чтобы с помощью Ореста убить ее и Эгиста.
Неожиданно приходит известие (ложное) о том, что Орест умер. Клитемнестра сама сообщает об этом Электре. Теперь Электра пытается убедить свою младшую сестру присоединиться к ней, чтобы самим совершить акт возмездия, требуемый богами. Та из страха отказывается.
Оказывается, что ложную новость принесли два чужестранца. Один из них - это сам Opeст. Следует сцена, в которой брат и сестра узнают друг друга. Орест, хотя он настроен мстить менее решительно, чем Электра, знает, что ему нужно делать, и он энергично входит во дворец вместе со своим старшим спутником (своим воспитателем). Мгновение спустя из дворца доносится пронзительный предсмертный вопль Клитемнестры. Электра ликующе кричит испытывая безудержную радость мести. Входит Эгист. Он прослышал о смерти Ореста, и Электра с коварной приветливостью встречает ero и сообщает, что в доме у «хозяйки» два гонца с сообщением об этом. Она подводит eгo к дворцу, он входит - и там ero настигает та же судьба, что и Клитемнестру.
В высшем экстазе Электра начинает свой триумфальный танец. «Кто так счастлив, как мы, тому подобает только соблюдать молчание и танцевать», Она делает еще несколько напряженных движений и затем падает замертво.
Качество видео: DVD5 (сжатый)
Формат/Контейнер: DVDVideo
Видео кодек: MPEG2
Аудио кодек: DTS
Видео поток: NTSC 4:3 (720x480) VBR
Video
ID : 224 (0xE0)
Format : MPEG Video
Format version : Version 2
Format profile : Main@Main
Format settings, BVOP : Yes
Format settings, Matrix : Default
Duration : 3s 253ms
Bit rate mode : Variable
Bit rate : 2 684 Kbps
Width : 720 pixels
Height : 480 pixels
Display aspect ratio : 4:3
Frame rate : 29.970 fps
Standard : NTSC
Resolution : 8 bits
Colorimetry : 4:2:0
Bits/(Pixel*Frame) : 0.259
Stream size : 1.04 MiB (96%)
Аудио поток: Deutsch (LinearPCM, 2 ch), Deutsch (Dolby AC3, 6 ch)
Audio
ID : 128 (0x80)
Format : AC-3
Format/Info : Audio Coding 3
Duration : 6mn 1s
Bit rate mode : Constant
Bit rate : 224 Kbps
Channel(s) : 2 channels
Channel positions : L R
Sampling rate : 48.0 KHz
Stream size : 9.66 MiB (10%)
Правила, инструкции, FAQ!!!
Торрент  Добавлен [05 июн 2020, 22:19] Скачать торрент Магнет ссылка
Скачать торрент
[ Размер 25.64 КБ / Просмотров 9 ]

Статус
Проверен 
 
Размер  4.36 ГБ
Приватный: Нет (DHT включён)
.torrent скачан  0
 


     Отправить личное сообщение
   
Страница 1 из 1
Показать сообщения за:  Поле сортировки  
Начать новую тему Ответить на тему


Сейчас этот форум просматривают: нет зарегистрированных пользователей и гости: 0


Вы не можете начинать темы
Вы не можете отвечать на сообщения
Вы не можете редактировать свои сообщения
Вы не можете удалять свои сообщения
Вы не можете добавлять вложения

Перейти:  
cron