Начать новую тему Ответить на тему
Статистика раздачи
Размер: 12.91 ГБ | Добавлен: 05 июн 2020, 23:01 | Скачали: 0
Сидеров: 0  [0 байт/сек]    Личеров: 0  [0 байт/сек]
Пред. тема | След. тема 

Автор
Сообщение

СообщениеДобавлено: 05 июн 2020, 23:01 

Ответить с цитатой 

Richard Strauss - Capriccio (Renée Fleming, Angelika Kirchschlager, Michael Schade / Christoph Eschenbach) Wiener Staatsoper, 2013 / Штраус - Каприччио (Рене Флеминг, Ангелика Кирхшлагер, Михаэль Шаде / Кристоф Эшенбах) Венская Опера, 2013
Год выпуска: 2013
Лейбл: Unitel Classica
Страна-производитель: Австрия
Жанр: Opera
Продолжительность: 02:09:52 + 00:36:32
Язык: Немецкий
Перевод: отсутствует
Субтитры: отстутствуют
Исполнители:
Renée Fleming - графиня
Angelika Kirchschlager - Клерон
Michael Schade - Фламан
Markus Eiche - Оливье
Bo Skovhus - граф
Kurt Rydl - Ла Рош
Хор и оркестр Венской Оперы.
Дирижер: Кристоф Эшенбах
Описание:
Трансляция спектакля Венской Оперы от 27 июня 2013 года.
Доп. информация:
Видеозапись оперы с телеканала UNITEL CLASSICA. По техническим причинам пришлось разбить одноактную постановку на две части (во втором файле целиком сохранена последняя сцена) - записывал два раза и оба раза в записи случались микросбои, исключить которые проще всего было оставив в раздаче бессбойную часть каждого из вариантов. Совместить же без пережатия две записи в один файл не представлялось возможным из-за того, что писал разными прогами.

Качество: HDTVRip
Формат: MKV
Видео кодек: H.264
Аудио кодек: AC-3
Видео: 1920 x 1080i (16х9), 10.5Mbps, 25 fps, AVC
Аудио: 48000Hz 384kb/s, 5 channels, AC-3
General
Unique ID : 204483911681012574811285323238815794354 (0x99D62B3ABFC33150B38EFF26405384B2)
Complete name : I:\OPERA\Strauss_Capriccio_Wiener_Staatsoper_2013_01.mkv
Format : Matroska
File size : 10.1 GiB
Duration : 2h 9mn
Overall bit rate : 11.1 Mbps
Encoded date : UTC 2013-06-29 22:28:11
Writing application : mkvmerge v5.7.0 ('The Whirlwind') built on Jul 8 2012 20:08:51
Writing library : libebml v1.2.3 + libmatroska v1.3.0
Video
ID : 1
Format : AVC
Format/Info : Advanced Video Codec
Format profile : High@L4.0
Format settings, CABAC : Yes
Format settings, ReFrames : 4 frames
Codec ID : V_MPEG4/ISO/AVC
Duration : 2h 9mn
Bit rate : 10.5 Mbps
Width : 1 920 pixels
Height : 1 080 pixels
Display aspect ratio : 16:9
Frame rate : 50.000 fps
Original frame rate : 25.000 fps
Standard : Component
Color space : YUV
Chroma subsampling : 4:2:0
Bit depth : 8 bits
Scan type : Interlaced
Scan order : Top Field First
Bits/(Pixel*Frame) : 0.101
Stream size : 9.53 GiB (95%)
Language : German
Color primaries : BT.709-5, BT.1361, IEC 61966-2-4, SMPTE RP177
Transfer characteristics : BT.709-5, BT.1361
Matrix coefficients : BT.709-5, BT.1361, IEC 61966-2-4 709, SMPTE RP177
Audio
ID : 2
Format : AC-3
Format/Info : Audio Coding 3
Mode extension : CM (complete main)
Codec ID : A_AC3
Duration : 2h 9mn
Bit rate mode : Constant
Bit rate : 384 Kbps
Channel(s) : 5 channels
Channel positions : Front: L C R, Side: L R
Sampling rate : 48.0 KHz
Bit depth : 16 bits
Compression mode : Lossy
Delay relative to video : 12ms
Stream size : 357 MiB (3%)
Language : German


Правила, инструкции, FAQ!!!
Торрент  Добавлен [05 июн 2020, 23:01] Скачать торрент Магнет ссылка
Скачать торрент
[ Размер 65.24 КБ / Просмотров 3 ]

Статус
Проверен 
 
Размер  12.91 ГБ
Приватный: Нет (DHT включён)
.torrent скачан  0
 


     Отправить личное сообщение
   
Страница 1 из 1
Показать сообщения за:  Поле сортировки  
Начать новую тему Ответить на тему


Сейчас этот форум просматривают: нет зарегистрированных пользователей и гости: 0


Вы не можете начинать темы
Вы не можете отвечать на сообщения
Вы не можете редактировать свои сообщения
Вы не можете удалять свои сообщения
Вы не можете добавлять вложения

Перейти:  
cron