Начать новую тему Ответить на тему
Статистика раздачи
Размер: 1.54 ГБ | Добавлен: 26 июн 2020, 20:00 | Скачали: 0
Сидеров: 0  [0 байт/сек]    Личеров: 0  [0 байт/сек]
Пред. тема | След. тема 

Автор
Сообщение

СообщениеДобавлено: 26 июн 2020, 20:00 

Ответить с цитатой 


В 2001-м году братья Joel и Daniel в качестве ударника и басиста начали свои первые музыкальные шаги в самых разнообразных проектах, при этом всегда придерживаясь наиболее радикальных стилей музыки. Они не жалели времени на то, чтобы набраться необходимого опыта как в живых выступлениях, так и в мастерстве звукозаписи. В 2003-м году они впервые попробовали экспериментировать с аналоговым и цифровым электро-музыкальным оборудованием, чтобы в форме жесткой и бескомпромиссной электронной музыки дать свободный выход своим эмоциям.
#777По прошествии времени они наконец-то пришли к общему знаменателю, определившись со стилевым направлением, заложив его в название своего проекта S.A.M. (SYNTHETIC ADRENALINE MUSIC). Музыка S.A.M. призвана выражать чувства, испытываемые при притоке адреналина в кровь — как известно, адреналин способствует освобождению невиданных человеческих возможностей.
Первый трек нового проекта под названием «Demo Lition» был записанав 2004-м. Спустя довольно короткое время, в январе 2005-го года, увидела свет вторая композиция под названием «24 Stunden», которая потрясла все клубы в Гессене – родном городе музыкантов. А в середине года был опубликован первый демо-диск «Demo Lition», содержащий 5 композиций. Весь тираж этого диска был успешно распродан самими музыкантами в течение нескольких успешных живых выступлений S.A.M.
В конце 2006-го группа завершила работу над грядущим полноформатным альбомом «Synthetic Adrenaline Music» и подписала договор с лейблом ProNoize (подразделение Dark Dimension), который и реализовал этот альбом в 2007-м. S.A.M. сразу же был назван одной из топовых групп на лейбле (наравне с NOISUF-X и XOTOX), подтверждающей лидирующее место ProNoise в выпуске лучшей музыки для «промышленного» танцпола. На «Synthetic Adrenaline Music» слушателя ождают 18 брутальных танцевальных треков, многогранных и бескомпромиссных, объединяющих влияние индустриальных пионеров ESPLENDOR GEOMETRICO со звучанием 21-го века (NOISUF-X, SOMAN, COMBICHRIST). Тематика композиций обращается к насилию, сексу, извращениям и манипуляциям сознанием, связывая холодный и жесткий звуковой ландшафт из молотобойных басов и абразивных noise элементов с ультимативными сэмплами.


Жанр
: Rhythmic Noise/TBM Страна: Германия Аудио кодек: .flac Тип рипа: image+.cue Битрейт аудио: lossless Продолжительность: 217:01
#77701. Epic
02. Syntax Error
03. 24 Stunden
04. Chaos And Confusion
05. Hard Technology
06. Flter
07. Black Rubber Dance
08. Rorschachtest
09. Time Envelope
10. Enemy List
11. Synthetic Vision
12. Ascent
13. Sex Und Gewalt
14. Trapperfieber
15. Compactor
16. Therapie
17. Zodaic Killer (Live Edit)
18. 24 Stunden (Original Mix)
Exact Audio Copy V0.99 prebeta 4 from 23. January 2008
EAC extraction logfile from 10. March 2010, 0:21
Sam / Synthetic Adrenaline Music
Used drive : _NEC DVD_RW ND-3520A Adapter: 0 ID: 1
Read mode : Secure
Utilize accurate stream : Yes
Defeat audio cache : Yes
Make use of C2 pointers : No
Read offset correction : 48
Overread into Lead-In and Lead-Out : No
Fill up missing offset samples with silence : Yes
Delete leading and trailing silent blocks : No
Null samples used in CRC calculations : Yes
Used interface : Native Win32 interface for Win NT & 2000
Used output format : User Defined Encoder
Selected bitrate : 128 kBit/s
Quality : High
Add ID3 tag : No
Command line compressor : C:\Program Files\Exact Audio Copy\Flac\flac.exe
Additional command line options : -8 -V %s
TOC of the extracted CD
Track | Start | Length | Start sector | End sector
---------------------------------------------------------
1 | 0:00.00 | 3:15.40 | 0 | 14664
2 | 3:15.40 | 4:18.28 | 14665 | 34042
3 | 7:33.68 | 4:36.16 | 34043 | 54758
4 | 12:10.09 | 4:41.32 | 54759 | 75865
5 | 16:51.41 | 4:13.74 | 75866 | 94914
6 | 21:05.40 | 4:33.34 | 94915 | 115423
7 | 25:38.74 | 4:01.45 | 115424 | 133543
8 | 29:40.44 | 4:38.40 | 133544 | 154433
9 | 34:19.09 | 4:31.08 | 154434 | 174766
10 | 38:50.17 | 4:15.56 | 174767 | 193947
11 | 43:05.73 | 3:27.08 | 193948 | 209480
12 | 46:33.06 | 4:01.30 | 209481 | 227585
13 | 50:34.36 | 4:13.16 | 227586 | 246576
14 | 54:47.52 | 4:41.62 | 246577 | 267713
15 | 59:29.39 | 4:29.11 | 267714 | 287899
16 | 63:58.50 | 3:31.55 | 287900 | 303779
17 | 67:30.30 | 4:56.71 | 303780 | 326050
18 | 72:27.26 | 3:37.49 | 326051 | 342374
Range status and errors
Selected range
Filename C:\Program Files\Exact Audio Copy\Flac\Sam - Synthetic Adrenaline Music.wav
Peak level 98.8 %
Range quality 100.0 %
Test CRC 6DC600FE
Copy CRC 6DC600FE
Copy OK
No errors occurred
AccurateRip summary
Track 1 cannot be verified as accurate (confidence 2) [04A741CE], AccurateRip returned [6F087BBE]
Track 2 cannot be verified as accurate (confidence 2) [476E1371], AccurateRip returned [9BBE52B1]
Track 3 cannot be verified as accurate (confidence 2) [877572A9], AccurateRip returned [35A3B239]
Track 4 cannot be verified as accurate (confidence 2) [B3D479E7], AccurateRip returned [F2449527]
Track 5 cannot be verified as accurate (confidence 2) [F6C75B4A], AccurateRip returned [1B1025B2]
Track 6 cannot be verified as accurate (confidence 2) [C6ED1464], AccurateRip returned [971E7ADC]
Track 7 cannot be verified as accurate (confidence 2) [6715539F], AccurateRip returned [EA9DFC4F]
Track 8 cannot be verified as accurate (confidence 2) [F54B6005], AccurateRip returned [6178B51D]
Track 9 cannot be verified as accurate (confidence 2) [CF2D083D], AccurateRip returned [8F9FB7D5]
Track 10 cannot be verified as accurate (confidence 2) [4BC2B824], AccurateRip returned [0F48C704]
Track 11 cannot be verified as accurate (confidence 2) [C184CC28], AccurateRip returned [53D22B30]
Track 12 cannot be verified as accurate (confidence 2) [6211FC53], AccurateRip returned [20153E53]
Track 13 cannot be verified as accurate (confidence 2) [603B5786], AccurateRip returned [7EC94836]
Track 14 cannot be verified as accurate (confidence 2) [49A2E1FC], AccurateRip returned [132B3C44]
Track 15 cannot be verified as accurate (confidence 2) [F6679F75], AccurateRip returned [74FB8C1D]
Track 16 cannot be verified as accurate (confidence 2) [A2BEAD80], AccurateRip returned [8639CD30]
Track 17 cannot be verified as accurate (confidence 2) [B868B7B1], AccurateRip returned [497E9491]
Track 18 cannot be verified as accurate (confidence 2) [7E3A45A6], AccurateRip returned [34FE4DCE]
No tracks could be verified as accurate
You may have a different pressing from the one(s) in the database
End of status report
#77701. Awake
02. Endkampf
03. Am Of Justice
04. Burn
05. ISM Inc.
06. Mono Tone
07. Eating Glass
08. World Of Shit
09. Training
10. Buzz Chamber
11. Catatonic Dreams
12. Hardbeat Trauma
13. World Of Shit (Soman Remix)
14. Training (Reaper Remix)
15. Hardbeat Trauma (Modulate Remix)
16. Catatonic Dreams (C/A/T Remix)
17. Burn (Xotox Inferno Remix)
Exact Audio Copy V0.99 prebeta 4 from 23. January 2008
EAC extraction logfile from 10. March 2010, 0:56
Sam / Destruction Unit
Used drive : _NEC DVD_RW ND-3520A Adapter: 0 ID: 1
Read mode : Secure
Utilize accurate stream : Yes
Defeat audio cache : Yes
Make use of C2 pointers : No
Read offset correction : 48
Overread into Lead-In and Lead-Out : No
Fill up missing offset samples with silence : Yes
Delete leading and trailing silent blocks : No
Null samples used in CRC calculations : Yes
Used interface : Native Win32 interface for Win NT & 2000
Used output format : User Defined Encoder
Selected bitrate : 128 kBit/s
Quality : High
Add ID3 tag : No
Command line compressor : C:\Program Files\Exact Audio Copy\Flac\flac.exe
Additional command line options : -8 -V %s
TOC of the extracted CD
Track | Start | Length | Start sector | End sector
---------------------------------------------------------
1 | 0:00.00 | 2:10.41 | 0 | 9790
2 | 2:10.41 | 3:55.06 | 9791 | 27421
3 | 6:05.47 | 5:57.36 | 27422 | 54232
4 | 12:03.08 | 4:24.40 | 54233 | 74072
5 | 16:27.48 | 3:55.56 | 74073 | 91753
6 | 20:23.29 | 4:43.53 | 91754 | 113031
7 | 25:07.07 | 4:40.23 | 113032 | 134054
8 | 29:47.30 | 5:22.02 | 134055 | 158206
9 | 35:09.32 | 4:02.52 | 158207 | 176408
10 | 39:12.09 | 4:04.40 | 176409 | 194748
11 | 43:16.49 | 3:46.04 | 194749 | 211702
12 | 47:02.53 | 4:25.01 | 211703 | 231578
13 | 51:27.54 | 4:59.04 | 231579 | 254007
14 | 56:26.58 | 4:31.59 | 254008 | 274391
15 | 60:58.42 | 6:01.12 | 274392 | 301478
16 | 66:59.54 | 4:02.12 | 301479 | 319640
17 | 71:01.66 | 3:40.09 | 319641 | 336149
Range status and errors
Selected range
Filename C:\Program Files\Exact Audio Copy\Flac\Sam - Destruction Unit.wav
Peak level 94.9 %
Range quality 99.9 %
Test CRC F65C4C89
Copy CRC F65C4C89
Copy OK
No errors occurred
AccurateRip summary
Track 1 cannot be verified as accurate (confidence 2) [509FC5EC], AccurateRip returned [AD0FCE8E]
Track 2 cannot be verified as accurate (confidence 2) [E73ABF3F], AccurateRip returned [6AA0784D]
Track 3 cannot be verified as accurate (confidence 2) [AFD11BF6], AccurateRip returned [37F6CA4C]
Track 4 cannot be verified as accurate (confidence 2) [457734CF], AccurateRip returned [595011F1]
Track 5 cannot be verified as accurate (confidence 2) [597E7EEA], AccurateRip returned [42AF7CF8]
Track 6 cannot be verified as accurate (confidence 2) [704C3BC7], AccurateRip returned [64F91EC5]
Track 7 cannot be verified as accurate (confidence 2) [1B7DF0BD], AccurateRip returned [45DCDFAB]
Track 8 cannot be verified as accurate (confidence 2) [27EFB732], AccurateRip returned [8647967C]
Track 9 cannot be verified as accurate (confidence 2) [32675F11], AccurateRip returned [85C7CB89]
Track 10 cannot be verified as accurate (confidence 2) [1D6B5EF1], AccurateRip returned [993CF8D7]
Track 11 cannot be verified as accurate (confidence 2) [9FB27C93], AccurateRip returned [4F8167DD]
Track 12 cannot be verified as accurate (confidence 2) [1DD6D581], AccurateRip returned [BCA2B02F]
Track 13 cannot be verified as accurate (confidence 2) [85393781], AccurateRip returned [57F47C1D]
Track 14 cannot be verified as accurate (confidence 2) [931A0487], AccurateRip returned [A512DD81]
Track 15 cannot be verified as accurate (confidence 2) [E012629A], AccurateRip returned [C2C7BAF8]
Track 16 cannot be verified as accurate (confidence 2) [3D8A1A96], AccurateRip returned [9A6E98D8]
Track 17 cannot be verified as accurate (confidence 2) [D273506F], AccurateRip returned [36881125]
No tracks could be verified as accurate
You may have a different pressing from the one(s) in the database
End of status report
#77701. Warning
02. Halluzinogen
03. Bull Fucking Shit
04. Starting The Madness
05. Mad As Hell
06. Murder Inc.
07. Name And Number
08. Psychic Driving
09. Corporate Violate
10. Interoception
11. S - R
12. Mindfuck
13. MKSEARCH
14.Hidden Track
Exact Audio Copy V0.99 prebeta 5 from 4. May 2009
EAC extraction logfile from 17. September 2010, 23:38
SAM / Brainwasher
Used drive : TEAC DV-W524GS Adapter: 1 ID: 1
Read mode : Secure
Utilize accurate stream : Yes
Defeat audio cache : Yes
Make use of C2 pointers : No
Read offset correction : 6
Overread into Lead-In and Lead-Out : No
Fill up missing offset samples with silence : Yes
Delete leading and trailing silent blocks : No
Null samples used in CRC calculations : No
Used interface : Native Win32 interface for Win NT & 2000
Used output format : User Defined Encoder
Selected bitrate : 1024 kBit/s
Quality : High
Add ID3 tag : No
Command line compressor : C:\Program Files\Exact Audio Copy\FLAC\FLAC.EXE
Additional command line options : -8 -V -T "ARTIST=%a" -T "TITLE=%t" -T "ALBUM=%g" -T "DATE=%y" -T "TRACKNUMBER=%n" -T "GENRE=%m" -T "COMMENT=EAC FLAC -8" %s
TOC of the extracted CD
Track | Start | Length | Start sector | End sector
---------------------------------------------------------
1 | 0:00.00 | 3:53.45 | 0 | 17519
2 | 3:53.45 | 3:59.53 | 17520 | 35497
3 | 7:53.23 | 4:24.37 | 35498 | 55334
4 | 12:17.60 | 1:39.39 | 55335 | 62798
5 | 13:57.24 | 3:38.16 | 62799 | 79164
6 | 17:35.40 | 4:05.41 | 79165 | 97580
7 | 21:41.06 | 4:19.02 | 97581 | 117007
8 | 26:00.08 | 4:17.32 | 117008 | 136314
9 | 30:17.40 | 4:01.07 | 136315 | 154396
10 | 34:18.47 | 4:23.37 | 154397 | 174158
11 | 38:42.09 | 4:27.72 | 174159 | 194255
12 | 43:10.06 | 3:53.37 | 194256 | 211767
13 | 47:03.43 | 15:04.13 | 211768 | 279580
14 | 62:07.56 | 3:46.21 | 279581 | 296551
Range status and errors
Selected range
Filename J:\Мои документы\Downloads\music\SAM - Brainwasher\SAM - Brainwasher.wav
Peak level 98.9 %
Range quality 100.0 %
Copy CRC 1C124F0D
Copy OK
No errors occurred
AccurateRip summary
Track 1 not present in database
Track 2 not present in database
Track 3 not present in database
Track 4 not present in database
Track 5 not present in database
Track 6 not present in database
Track 7 not present in database
Track 8 not present in database
Track 9 not present in database
Track 10 not present in database
Track 11 not present in database
Track 12 not present in database
Track 13 not present in database
Track 14 not present in database
None of the tracks are present in the AccurateRip database
End of status report

Не забывайте комментировать, говорить "спасибо" и покупать лицензионные диски!
Эта-же раздача в mp3: https://rutracker.org/forum/viewtopic.php?t=2307326Особая благодарность пользователю S1nz3T1c за предоставленный Промыватель мозГГов
Правила, инструкции, FAQ!!!
Торрент  Добавлен [26 июн 2020, 20:00] Скачать торрент Магнет ссылка
Скачать торрент
[ Размер 17.17 КБ / Просмотров 4 ]

Статус
Проверен 
 
Размер  1.54 ГБ
Приватный: Нет (DHT включён)
.torrent скачан  0
 


     Отправить личное сообщение
   
Страница 1 из 1
Показать сообщения за:  Поле сортировки  
Начать новую тему Ответить на тему


Сейчас этот форум просматривают: нет зарегистрированных пользователей и гости: 0


Вы не можете начинать темы
Вы не можете отвечать на сообщения
Вы не можете редактировать свои сообщения
Вы не можете удалять свои сообщения
Вы не можете добавлять вложения

Перейти:  
cron