Начать новую тему Ответить на тему
Статистика раздачи
Размер: 331.73 МБ | Добавлен: 26 июн 2020, 17:41 | Скачали: 0
Сидеров: 0  [0 байт/сек]    Личеров: 0  [0 байт/сек]
Пред. тема | След. тема 

Автор
Сообщение

СообщениеДобавлено: 26 июн 2020, 17:41 

Ответить с цитатой 

Nachtmahr / Alle Lust Will Ewigkeit
Жанр: Rhythmic Noise, Industrial
Страна-производитель диска: Germany
Год издания диска: 2009
Издатель (лейбл): [Trisol] Music Group GmbH
Номер по каталогу: TRI 367 CD
Страна: Austria
Аудио кодек: FLAC (*.flac)
Тип рипа: tracks+.cue
Битрейт аудио: lossless
Продолжительность: 43:34
Источник (релизер): CD-R
Наличие сканов в содержимом раздачи: нет
Треклист:
1 Alle Lust Will Ewigkeit 3:57
2 Code:Red 3:57
3 Tanzdiktator 3:45
4 Klingen 4:22
5 Sklave 3:34
6 Vendetta 3:52
7 Alpha/Omega 3:48
8 Weil Ich's Kann! 4:11
9 Träume 3:54
10 War On The Dancefloor 3:53
11 Mörder 4:16
Код:
Exact Audio Copy V0.99 prebeta 5 from 4. May 2009
EAC extraction logfile from 31. December 2010, 0:21
Nachtmahr / Alle Lust will Ewigkeit
Used drive  : PIONEER DVD-RW  DVR-216D   Adapter: 0  ID: 0
Read mode               : Secure
Utilize accurate stream : Yes
Defeat audio cache      : Yes
Make use of C2 pointers : No
Read offset correction                      : 96
Overread into Lead-In and Lead-Out          : No
Fill up missing offset samples with silence : Yes
Delete leading and trailing silent blocks   : No
Null samples used in CRC calculations       : Yes
Used interface                              : Native Win32 interface for Win NT & 2000
Gap handling                                : Appended to previous track
Used output format              : User Defined Encoder
Selected bitrate                : 1024 kBit/s
Quality                         : High
Add ID3 tag                     : No
Command line compressor         : C:\Program Files (x86)\Exact Audio Copy\Flac\flac.exe
Additional command line options : -8 -V -T "ARTIST=%a" -T "TITLE=%t" -T "ALBUM=%g" -T "DATE=%y" -T "TRACKNUMBER=%n" -T "GENRE=%m" -T "COMMENT=EAC FLAC -8" %s
TOC of the extracted CD
     Track |   Start  |  Length  | Start sector | End sector
    ---------------------------------------------------------
        1  |  0:00.00 |  3:57.49 |         0    |    17823
        2  |  3:57.49 |  3:57.45 |     17824    |    35643
        3  |  7:55.19 |  3:45.19 |     35644    |    52537
        4  | 11:40.38 |  4:22.04 |     52538    |    72191
        5  | 16:02.42 |  3:34.26 |     72192    |    88267
        6  | 19:36.68 |  3:52.04 |     88268    |   105671
        7  | 23:28.72 |  3:48.69 |    105672    |   122840
        8  | 27:17.66 |  4:11.46 |    122841    |   141711
        9  | 31:29.37 |  3:54.59 |    141712    |   159320
       10  | 35:24.21 |  3:53.53 |    159321    |   176848
       11  | 39:17.74 |  4:16.26 |    176849    |   196074
Track  1
     Filename I:\Audio\TORRENTS\Nachtmahr - Alle Lust Will Ewigkeit-2009\tracks\ 01. Nachtmahr – Alle Lust will Ewigkeit.wav
     Pre-gap length  0:00:02.00
     Peak level 100.0 %
     Track quality 100.0 %
     Test CRC 122475B9
     Copy CRC 122475B9
     Cannot be verified as accurate (confidence 4)  [BE9A746C], AccurateRip returned [24EBD354]
     Copy OK
Track  2
     Filename I:\Audio\TORRENTS\Nachtmahr - Alle Lust Will Ewigkeit-2009\tracks\ 02. Nachtmahr – Code-Red.wav
     Peak level 100.0 %
     Track quality 100.0 %
     Test CRC A8431A3E
     Copy CRC A8431A3E
     Cannot be verified as accurate (confidence 4)  [1C065730], AccurateRip returned [F70DB315]
     Copy OK
Track  3
     Filename I:\Audio\TORRENTS\Nachtmahr - Alle Lust Will Ewigkeit-2009\tracks\ 03. Nachtmahr – Tanzdiktator.wav
     Peak level 100.0 %
     Track quality 100.0 %
     Test CRC 1E1353D3
     Copy CRC 1E1353D3
     Cannot be verified as accurate (confidence 4)  [918C803F], AccurateRip returned [7299A805]
     Copy OK
Track  4
     Filename I:\Audio\TORRENTS\Nachtmahr - Alle Lust Will Ewigkeit-2009\tracks\ 04. Nachtmahr – Klingen.wav
     Peak level 100.0 %
     Track quality 100.0 %
     Test CRC 9814B2C3
     Copy CRC 9814B2C3
     Cannot be verified as accurate (confidence 4)  [0E125BE8], AccurateRip returned [8D21D655]
     Copy OK
Track  5
     Filename I:\Audio\TORRENTS\Nachtmahr - Alle Lust Will Ewigkeit-2009\tracks\ 05. Nachtmahr – Sklave.wav
     Peak level 100.0 %
     Track quality 100.0 %
     Test CRC 7090081E
     Copy CRC 7090081E
     Cannot be verified as accurate (confidence 4)  [9C9BCE9D], AccurateRip returned [691E2706]
     Copy OK
Track  6
     Filename I:\Audio\TORRENTS\Nachtmahr - Alle Lust Will Ewigkeit-2009\tracks\ 06. Nachtmahr – Vendetta.wav
     Peak level 100.0 %
     Track quality 100.0 %
     Test CRC D0BCA61D
     Copy CRC D0BCA61D
     Cannot be verified as accurate (confidence 4)  [39FBCB5A], AccurateRip returned [434D78BB]
     Copy OK
Track  7
     Filename I:\Audio\TORRENTS\Nachtmahr - Alle Lust Will Ewigkeit-2009\tracks\ 07. Nachtmahr – Alpha , Omega.wav
     Peak level 100.0 %
     Track quality 100.0 %
     Test CRC 382489C3
     Copy CRC 382489C3
     Cannot be verified as accurate (confidence 4)  [D7CEB684], AccurateRip returned [4464F4C4]
     Copy OK
Track  8
     Filename I:\Audio\TORRENTS\Nachtmahr - Alle Lust Will Ewigkeit-2009\tracks\ 08. Nachtmahr – Weil ich's kann.wav
     Peak level 100.0 %
     Track quality 100.0 %
     Test CRC 5FEB2A6E
     Copy CRC 5FEB2A6E
     Cannot be verified as accurate (confidence 4)  [E5081DF9], AccurateRip returned [CBDD5732]
     Copy OK
Track  9
     Filename I:\Audio\TORRENTS\Nachtmahr - Alle Lust Will Ewigkeit-2009\tracks\ 09. Nachtmahr – Trдume.wav
     Peak level 100.0 %
     Track quality 99.9 %
     Test CRC 71D1F49D
     Copy CRC 71D1F49D
     Cannot be verified as accurate (confidence 4)  [6B3AD0E9], AccurateRip returned [39D832F8]
     Copy OK
Track 10
     Filename I:\Audio\TORRENTS\Nachtmahr - Alle Lust Will Ewigkeit-2009\tracks\ 10. Nachtmahr – War on the Dancefloor.wav
     Peak level 100.0 %
     Track quality 100.0 %
     Test CRC 46683F69
     Copy CRC 46683F69
     Cannot be verified as accurate (confidence 4)  [ADC35237], AccurateRip returned [119872E7]
     Copy OK
Track 11
     Filename I:\Audio\TORRENTS\Nachtmahr - Alle Lust Will Ewigkeit-2009\tracks\ 11. Nachtmahr – Mцrder.wav
     Peak level 100.0 %
     Track quality 99.9 %
     Test CRC A35B7649
     Copy CRC A35B7649
     Cannot be verified as accurate (confidence 4)  [C474907E], AccurateRip returned [57AB435F]
     Copy OK
No tracks could be verified as accurate
You may have a different pressing from the one(s) in the database
No errors occurred
End of status report
Код:
REM GENRE Industrial
REM DATE 2009
REM DISCID 990A360B
REM COMMENT "ExactAudioCopy v0.99pb5"
PERFORMER "Nachtmahr"
TITLE "Alle Lust will Ewigkeit"
FILE " 01. Nachtmahr – Alle Lust will Ewigkeit.wav" WAVE
  TRACK 01 AUDIO
    TITLE "Alle Lust will Ewigkeit"
    PERFORMER "Nachtmahr"
    INDEX 01 00:00:00
FILE " 02. Nachtmahr – Code-Red.wav" WAVE
  TRACK 02 AUDIO
    TITLE "Code:Red"
    PERFORMER "Nachtmahr"
    INDEX 01 00:00:00
FILE " 03. Nachtmahr – Tanzdiktator.wav" WAVE
  TRACK 03 AUDIO
    TITLE "Tanzdiktator"
    PERFORMER "Nachtmahr"
    INDEX 01 00:00:00
FILE " 04. Nachtmahr – Klingen.wav" WAVE
  TRACK 04 AUDIO
    TITLE "Klingen"
    PERFORMER "Nachtmahr"
    INDEX 01 00:00:00
FILE " 05. Nachtmahr – Sklave.wav" WAVE
  TRACK 05 AUDIO
    TITLE "Sklave"
    PERFORMER "Nachtmahr"
    INDEX 01 00:00:00
FILE " 06. Nachtmahr – Vendetta.wav" WAVE
  TRACK 06 AUDIO
    TITLE "Vendetta"
    PERFORMER "Nachtmahr"
    INDEX 01 00:00:00
FILE " 07. Nachtmahr – Alpha , Omega.wav" WAVE
  TRACK 07 AUDIO
    TITLE "Alpha / Omega"
    PERFORMER "Nachtmahr"
    INDEX 01 00:00:00
FILE " 08. Nachtmahr – Weil ich's kann.wav" WAVE
  TRACK 08 AUDIO
    TITLE "Weil ich's kann"
    PERFORMER "Nachtmahr"
    INDEX 01 00:00:00
FILE " 09. Nachtmahr – Trдume.wav" WAVE
  TRACK 09 AUDIO
    TITLE "Trдume"
    PERFORMER "Nachtmahr"
    INDEX 01 00:00:00
FILE " 10. Nachtmahr – War on the Dancefloor.wav" WAVE
  TRACK 10 AUDIO
    TITLE "War on the Dancefloor"
    PERFORMER "Nachtmahr"
    INDEX 01 00:00:00
FILE " 11. Nachtmahr – Mцrder.wav" WAVE
  TRACK 11 AUDIO
    TITLE "Mцrder"
    PERFORMER "Nachtmahr"
    INDEX 01 00:00:00
Код:
Started at: четверг, 30. 12. 2010. - 23:42.29
11 files found
01 -===- track 1 in drive PIONEER DVD-RW  DVR-216D
  Track ripped successfully
  Conclusion: this track is CDDA with probability 100%
  Tempfile successfully deleted.
02 -===- track 2 in drive PIONEER DVD-RW  DVR-216D
  Track ripped successfully
  Conclusion: this track is CDDA with probability 100%
  Tempfile successfully deleted.
03 -===- track 3 in drive PIONEER DVD-RW  DVR-216D
  Track ripped successfully
  Conclusion: this track is CDDA with probability 100%
  Tempfile successfully deleted.
04 -===- track 4 in drive PIONEER DVD-RW  DVR-216D
  Track ripped successfully
  Conclusion: this track is CDDA with probability 100%
  Tempfile successfully deleted.
05 -===- track 5 in drive PIONEER DVD-RW  DVR-216D
  Track ripped successfully
  Conclusion: this track is CDDA with probability 100%
  Tempfile successfully deleted.
06 -===- track 6 in drive PIONEER DVD-RW  DVR-216D
  Track ripped successfully
  Conclusion: this track is CDDA with probability 100%
  Tempfile successfully deleted.
07 -===- track 7 in drive PIONEER DVD-RW  DVR-216D
  Track ripped successfully
  Conclusion: this track is CDDA with probability 100%
  Tempfile successfully deleted.
08 -===- track 8 in drive PIONEER DVD-RW  DVR-216D
  Track ripped successfully
  Conclusion: this track is CDDA with probability 100%
  Tempfile successfully deleted.
09 -===- track 9 in drive PIONEER DVD-RW  DVR-216D
  Track ripped successfully
  Conclusion: this track is CDDA with probability 100%
  Tempfile successfully deleted.
10 -===- track 10 in drive PIONEER DVD-RW  DVR-216D
  Track ripped successfully
  Conclusion: this track is CDDA with probability 100%
  Tempfile successfully deleted.
11 -===- track 11 in drive PIONEER DVD-RW  DVR-216D
  Track ripped successfully
  Conclusion: this track is CDDA with probability 99%
  Tempfile successfully deleted.
Finished at: четверг, 30. 12. 2010. - 23:49.16 (operation time: 0:06.46)


Доп. информация: http://www.discogs.com/Nachtmahr-Alle-Lust-Will-Ewigkeit/release/1901007
http://www.myspace.com/nachtmahrprojekt
http://www.nachtmahr.at/
Written-By, Recorded By, Producer, Lyrics By, Mixed By - Thomas Rainer
Thomas Rainer
Правила, инструкции, FAQ!!!
Торрент  Добавлен [26 июн 2020, 17:41] Скачать торрент Магнет ссылка
Скачать торрент
[ Размер 14.99 КБ / Просмотров 5 ]

Статус
Проверен 
 
Размер  331.73 МБ
Приватный: Нет (DHT включён)
.torrent скачан  0
 


     Отправить личное сообщение
   
Страница 1 из 1
Показать сообщения за:  Поле сортировки  
Начать новую тему Ответить на тему


Сейчас этот форум просматривают: нет зарегистрированных пользователей и гости: 0


Вы не можете начинать темы
Вы не можете отвечать на сообщения
Вы не можете редактировать свои сообщения
Вы не можете удалять свои сообщения
Вы не можете добавлять вложения

Перейти:  
cron