Начать новую тему Ответить на тему
Статистика раздачи
Размер: 2.3 ГБ | Добавлен: 26 июн 2020, 17:56 | Скачали: 0
Сидеров: 0  [0 байт/сек]    Личеров: 0  [0 байт/сек]
Пред. тема | След. тема 

Автор
Сообщение

СообщениеДобавлено: 26 июн 2020, 17:56 

Ответить с цитатой 

Various Artists - Endzeit Bunkertracks [Act - IV]
Жанр: Rhythmic Noise, EBM, Electro, Industrial
Страна-производитель диска: Belgium
Год издания: 2009
Издатель (лейбл): Alfa Matrix
Номер по каталогу: AM1126FCD
Аудиокодек: FLAC (*.flac)
Тип рипа: tracks+.cue
Битрейт аудио: lossless
Продолжительность: 5:09:24
Источник (релизер): what.cd (Karmion)
Наличие сканов в содержимом раздачи: да
Треклист:
CD 1 - Evil:
01 - Faderhead - tzdv (4:06)
02 - Nachtmahr - I Believe In Blood (3:25)
03 - [ x ] - Rx - Sexualkiste Der Hölle (4:24)
04 - Alter Der Ruine - Relax And Ride It (Handlebar Mix by Memmaker) (4:44)
05 - AetherFX - Leaving Hope (4:08)
06 - The Synthetic Dream Foundation - Blood Divine (4:29)
07 - Cyclone B - Human Progress (4:56)
08 - Mesmer's Eyes - Judgement Day (5:23)
09 - Wynardtage - Tragic Hero (RMX by X-Fusion) (5:27)
10 - Virgins O.R Pigeons - Born In Sin (DJ Psycon Mix) (3:57)
11 - IC 434 - Back To Back (Endzeit Mix) (4:37)
12 - Uberbyte - Last Human (4:43)
13 - Angels On Acid - Now You Know (4:59)
14 - Alien Produkt - Virus (5:24)
15 - Kant Kino - We Are Kant Kino (3:41)
16 - Stahlnebel vs. Black Selket - Unsichtbar (4:16)
17 - Skorbut - Phantom Pain (5:03)
CD 2 - Torture:
01 - Komor Kommando - Triggerfinger (4:30)
02 - SAM - World Of Shit (5:20)
03 - Phosgore - Pain Tutorial (Advanced Agony Mix) (3:10)
04 - Siva Six - Deep Black Will (NOISUF-X Mix) (4:40)
05 - ReAdjust With Stahlneber Vs Black Selket - Supernatural Ability (4:47)
06 - Deathgression - Degenerated (3:53)
07 - Preemptive Strike 0.1 - Ichthyic Ascension (Acylum Mix) (4:44)
08 - Dunkelwerk - Harkers Verderben (Short Cut) (3:38)
09 - Kobold - Blowback (Untermenschen) (5:28)
10 - Fractured - Nothing (3:35)
11 - Hivepolitiks - Wake Up (3:56)
12 - @VX Feat. Mind.In.A.Box - Transformation (3:58)
13 - E-Thik - Schleichfahrt (5:45)
14 - Isis Signum Feat. Sara Noxx - Energy (Supreme Court Mix) (5:33)
15 - Diskonnekted - Adrenaline (XP8 Mix) (4:27)
16 - Detroit Diesel - When Darkness Falls (3:16)
17 - Menschdefekt With Stahlnebel Vs Black Selket - Stalingrad (4:15)
CD 3 - Damage:
01 - Acretongue - Voyeur (5:56)
02 - Psy'aviah Feat. Leæther Strip - Sweet Hard Revenge (Endzeit Mix) (4:53)
03 - Patenbrigade: Wolff - Stalinallee (Jugendklub Mix) (3:36)
04 - Industriegebiet - Sex Mit Einer Leiche (Soman Rmx) (5:07)
05 - Noisuf-X - Last Dance (4:39)
06 - Modulate - Hard And Dirty (SAM Mix) (3:42)
07 - Novastorm - Blow Job (4:02)
08 - Acylum - Schmerzpervers (4:18)
09 - Unter Null - Broken Heart Cliché (5:16)
10 - Schwarzblut - Muss Es Eine Trennung Geben (4:46)
11 - Plastic Noise Experience - Zu Nah (Suicide Commando Mix) (5:21)
12 - Angelspit - Girl Poison (I:Scintilla Mix) (4:04)
13 - Essence Of Mind - Nightmare (4:31)
14 - Zombie Girl - The Darkness (Komor Kommando Mix) (4:19)
15 - Punto Omega - Fabricantes De Miedo (4:04)
16 - FGFC820 - The Heart Of America (Mesmer's Eyes Mix) (5:45)
17 - Krystal System - I Love My Chains (Mesmer's Eyes Mix) (3:42)
CD 4 - Death:
01 - Memmaker - Death Comes (Rotersand Mix) (5:52)
02 - Ex.Es - Access To The Ex.Es (Pure Adrenaline Mix) (4:52)
03 - Shaun F - Drty Fckn Dsko (Hard Version) (4:35)
04 - Shaolyn - Face Down (3:40)
05 - Monolith - Attack Of The Ants (3:20)
06 - Schnarph! - Eine Tolle Predigt (3:39)
07 - C Drone-Defect - Mundus Vult Decipi (6:25)
08 - Afterparty - Manbaby (3:30)
09 - Heimataerde - Vater (Aura Lusus Mixtura) (3:34)
10 - Straftanz - Tanzt Kaputt, Was Euch Kaputt Macht! (Straftanz Original) (5:07)
11 - Diffuzion - Fire (EFF DST Rmx) (4:37)
12 - Cylab - Dragonfly Dream (4:33)
13 - L'ame Immortelle - Es Tut Mir Leid (Entschuldigung Mix By Grendel) (4:59)
14 - Leæther Strip - Cast Away 09 (Twenty Mix) (6:05)
15 - Neikka RPM Feat. Leæther Strip - Warped (Terror Mix) (3:42)
16 - Retractor - Annihilation (Preemptive Strike 0.1 Remix) (6:05)
17 - Dym - Government Stomp! (Overplayed Remix) (4:11)
Discogs.com
Код:
Exact Audio Copy V1.0 beta 3 from 29. August 2011
EAC extraction logfile from 13. April 2012, 20:43
Various Artists / Endzeit Bunkertracks - Act IV: Evil Session
Used drive  : ASUS    DRW-2014L1T   Adapter: 1  ID: 0
Read mode               : Secure
Utilize accurate stream : Yes
Defeat audio cache      : Yes
Make use of C2 pointers : No
Read offset correction                      : 6
Overread into Lead-In and Lead-Out          : No
Fill up missing offset samples with silence : Yes
Delete leading and trailing silent blocks   : No
Null samples used in CRC calculations       : Yes
Used interface                              : Native Win32 interface for Win NT & 2000
Gap handling                                : Appended to previous track
Used output format              : User Defined Encoder
Selected bitrate                : 128 kBit/s
Quality                         : High
Add ID3 tag                     : No
Command line compressor         : C:\Program Files\Exact Audio Copy\Flac\flac.exe
Additional command line options : -8 -V -T "ARTIST=%artist%" -T "TITLE=%title%" -T "ALBUM=%albumtitle%" -T "DATE=%year%" -T "TRACKNUMBER=%tracknr%" -T "GENRE=%genre%" -T "PERFORMER=%albuminterpret%" -T "COMPOSER=%composer%" %haslyrics%--tag-from-file=LYRICS="%lyricsfile%"%haslyrics% -T "ALBUMARTIST=%albumartist%" -T "DISCNUMBER=%cdnumber%" -T "TOTALDISCS=%totalcds%" -T "TOTALTRACKS=%numtracks%" -T "COMMENT=%comment%" %source% -o %dest%
TOC of the extracted CD
     Track |   Start  |  Length  | Start sector | End sector
    ---------------------------------------------------------
        1  |  0:00.00 |  4:05.74 |         0    |    18448
        2  |  4:05.74 |  3:24.51 |     18449    |    33799
        3  |  7:30.50 |  4:24.14 |     33800    |    53613
        4  | 11:54.64 |  4:43.72 |     53614    |    74910
        5  | 16:38.61 |  4:07.65 |     74911    |    93500
        6  | 20:46.51 |  4:28.63 |     93501    |   113663
        7  | 25:15.39 |  4:55.72 |    113664    |   135860
        8  | 30:11.36 |  5:23.13 |    135861    |   160098
        9  | 35:34.49 |  5:26.60 |    160099    |   184608
       10  | 41:01.34 |  3:57.35 |    184609    |   202418
       11  | 44:58.69 |  4:36.69 |    202419    |   223187
       12  | 49:35.63 |  4:42.38 |    223188    |   244375
       13  | 54:18.26 |  4:58.63 |    244376    |   266788
       14  | 59:17.14 |  5:23.62 |    266789    |   291075
       15  | 64:41.01 |  3:41.18 |    291076    |   307668
       16  | 68:22.19 |  4:15.56 |    307669    |   326849
       17  | 72:38.00 |  5:03.19 |    326850    |   349593
Track  1
     Filename G:\EAC Rip\01 - Faderhead - tzdv.wav
     Pre-gap length  0:00:02.00
     Peak level 99.9 %
     Extraction speed 4.3 X
     Track quality 99.9 %
     Test CRC E444ADEA
     Copy CRC E444ADEA
     Accurately ripped (confidence 6)  [C533CA8E]  (AR v1)
     Copy OK
Track  2
     Filename G:\EAC Rip\02 - Nachtmahr - I Believe In Blood.wav
     Pre-gap length  0:00:02.00
     Peak level 100.0 %
     Extraction speed 6.0 X
     Track quality 100.0 %
     Test CRC B1EC5F0E
     Copy CRC B1EC5F0E
     Accurately ripped (confidence 6)  [77065817]  (AR v1)
     Copy OK
Track  3
     Filename G:\EAC Rip\03 - [ x ] - Rx - Sexualkiste Der Hölle.wav
     Pre-gap length  0:00:02.00
     Peak level 94.7 %
     Extraction speed 6.7 X
     Track quality 100.0 %
     Test CRC A4F22036
     Copy CRC A4F22036
     Accurately ripped (confidence 6)  [B0CCE2B3]  (AR v1)
     Copy OK
Track  4
     Filename G:\EAC Rip\04 - Alter Der Ruine - Relax And Ride It (Handlebar Mix by Memmaker).wav
     Pre-gap length  0:00:02.00
     Peak level 100.0 %
     Extraction speed 7.2 X
     Track quality 100.0 %
     Test CRC 8C84B60E
     Copy CRC 8C84B60E
     Accurately ripped (confidence 6)  [607F97FD]  (AR v1)
     Copy OK
Track  5
     Filename G:\EAC Rip\05 - AetherFX - Leaving Hope.wav
     Pre-gap length  0:00:02.00
     Peak level 100.0 %
     Extraction speed 7.5 X
     Track quality 100.0 %
     Test CRC D9C53BDA
     Copy CRC D9C53BDA
     Accurately ripped (confidence 6)  [91EFBA88]  (AR v1)
     Copy OK
Track  6
     Filename G:\EAC Rip\06 - The Synthetic Dream Foundation - Blood Divine.wav
     Pre-gap length  0:00:02.00
     Peak level 100.0 %
     Extraction speed 8.0 X
     Track quality 100.0 %
     Test CRC 1A2AAA5F
     Copy CRC 1A2AAA5F
     Accurately ripped (confidence 6)  [4BDB2FBC]  (AR v1)
     Copy OK
Track  7
     Filename G:\EAC Rip\07 - Cyclone B - Human Progress.wav
     Pre-gap length  0:00:02.00
     Peak level 97.7 %
     Extraction speed 8.5 X
     Track quality 100.0 %
     Test CRC 663B16B0
     Copy CRC 663B16B0
     Accurately ripped (confidence 5)  [73DF9A7C]  (AR v1)
     Copy OK
Track  8
     Filename G:\EAC Rip\08 - Mesmer's Eyes - Judgement Day.wav
     Pre-gap length  0:00:02.00
     Peak level 97.7 %
     Extraction speed 9.1 X
     Track quality 100.0 %
     Test CRC C6C66E80
     Copy CRC C6C66E80
     Accurately ripped (confidence 6)  [35780B67]  (AR v1)
     Copy OK
Track  9
     Filename G:\EAC Rip\09 - Wynardtage - Tragic Hero (RMX by X-Fusion).wav
     Pre-gap length  0:00:02.00
     Peak level 97.9 %
     Extraction speed 9.4 X
     Track quality 100.0 %
     Test CRC FD1F9FE7
     Copy CRC FD1F9FE7
     Accurately ripped (confidence 6)  [17EE1878]  (AR v1)
     Copy OK
Track 10
     Filename G:\EAC Rip\10 - Virgins O.R Pigeons - Born In Sin (DJ Psycon Mix).wav
     Pre-gap length  0:00:02.00
     Peak level 100.0 %
     Extraction speed 9.5 X
     Track quality 100.0 %
     Test CRC DCC31738
     Copy CRC DCC31738
     Accurately ripped (confidence 6)  [28B57436]  (AR v1)
     Copy OK
Track 11
     Filename G:\EAC Rip\11 - IC 434 - Back To Back (Endzeit Mix).wav
     Pre-gap length  0:00:02.00
     Peak level 100.0 %
     Extraction speed 9.8 X
     Track quality 100.0 %
     Test CRC 58406D90
     Copy CRC 58406D90
     Accurately ripped (confidence 6)  [E42D23A6]  (AR v1)
     Copy OK
Track 12
     Filename G:\EAC Rip\12 - Uberbyte - Last Human.wav
     Pre-gap length  0:00:02.00
     Peak level 100.0 %
     Extraction speed 7.7 X
     Track quality 99.9 %
     Test CRC F005F8BC
     Copy CRC F005F8BC
     Accurately ripped (confidence 6)  [93DF470B]  (AR v1)
     Copy OK
Track 13
     Filename G:\EAC Rip\13 - Angels On Acid - Now You Know.wav
     Pre-gap length  0:00:02.00
     Peak level 100.0 %
     Extraction speed 10.7 X
     Track quality 100.0 %
     Test CRC 2198515B
     Copy CRC 2198515B
     Accurately ripped (confidence 6)  [F4A7586E]  (AR v1)
     Copy OK
Track 14
     Filename G:\EAC Rip\14 - Alien Produkt - Virus.wav
     Pre-gap length  0:00:02.00
     Peak level 97.2 %
     Extraction speed 11.1 X
     Track quality 100.0 %
     Test CRC 28D10D38
     Copy CRC 28D10D38
     Accurately ripped (confidence 6)  [4A0C06AE]  (AR v1)
     Copy OK
Track 15
     Filename G:\EAC Rip\15 - Kant Kino - We Are Kant Kino.wav
     Pre-gap length  0:00:02.00
     Peak level 100.0 %
     Extraction speed 10.8 X
     Track quality 100.0 %
     Test CRC 2D30073A
     Copy CRC 2D30073A
     Accurately ripped (confidence 6)  [095773B8]  (AR v1)
     Copy OK
Track 16
     Filename G:\EAC Rip\16 - Stahlnebel vs. Black Selket - Unsichtbar.wav
     Pre-gap length  0:00:02.00
     Peak level 98.0 %
     Extraction speed 11.2 X
     Track quality 100.0 %
     Test CRC 63EA5891
     Copy CRC 63EA5891
     Accurately ripped (confidence 6)  [536013DA]  (AR v1)
     Copy OK
Track 17
     Filename G:\EAC Rip\17 - Skorbut - Phantom Pain.wav
     Pre-gap length  0:00:02.00
     Peak level 98.0 %
     Extraction speed 11.7 X
     Track quality 100.0 %
     Test CRC 0CB85863
     Copy CRC 0CB85863
     Accurately ripped (confidence 6)  [E345B615]  (AR v1)
     Copy OK
All tracks accurately ripped
No errors occurred
End of status report
==== Log checksum 4E7074C3D0EFB25E976E54306F6BCE2964D00F902DD2626F966565EA7BCD246F ====
Код:
Exact Audio Copy V1.0 beta 3 from 29. August 2011
EAC extraction logfile from 13. April 2012, 21:58
Various / Various Artists - Endzeit Bunkertracks - Act IV - Torture Session
Used drive  : ASUS    DRW-2014L1T   Adapter: 1  ID: 0
Read mode               : Secure
Utilize accurate stream : Yes
Defeat audio cache      : Yes
Make use of C2 pointers : No
Read offset correction                      : 6
Overread into Lead-In and Lead-Out          : No
Fill up missing offset samples with silence : Yes
Delete leading and trailing silent blocks   : No
Null samples used in CRC calculations       : Yes
Used interface                              : Native Win32 interface for Win NT & 2000
Gap handling                                : Appended to previous track
Used output format              : User Defined Encoder
Selected bitrate                : 128 kBit/s
Quality                         : High
Add ID3 tag                     : No
Command line compressor         : C:\Program Files\Exact Audio Copy\Flac\flac.exe
Additional command line options : -8 -V -T "ARTIST=%artist%" -T "TITLE=%title%" -T "ALBUM=%albumtitle%" -T "DATE=%year%" -T "TRACKNUMBER=%tracknr%" -T "GENRE=%genre%" -T "PERFORMER=%albuminterpret%" -T "COMPOSER=%composer%" %haslyrics%--tag-from-file=LYRICS="%lyricsfile%"%haslyrics% -T "ALBUMARTIST=%albumartist%" -T "DISCNUMBER=%cdnumber%" -T "TOTALDISCS=%totalcds%" -T "TOTALTRACKS=%numtracks%" -T "COMMENT=%comment%" %source% -o %dest%
TOC of the extracted CD
     Track |   Start  |  Length  | Start sector | End sector
    ---------------------------------------------------------
        1  |  0:00.00 |  4:30.10 |         0    |    20259
        2  |  4:30.10 |  5:19.46 |     20260    |    44230
        3  |  9:49.56 |  3:10.01 |     44231    |    58481
        4  | 12:59.57 |  4:39.57 |     58482    |    79463
        5  | 17:39.39 |  4:47.01 |     79464    |   100989
        6  | 22:26.40 |  3:52.67 |    100990    |   118456
        7  | 26:19.32 |  4:43.71 |    118457    |   139752
        8  | 31:03.28 |  3:38.03 |    139753    |   156105
        9  | 34:41.31 |  5:28.18 |    156106    |   180723
       10  | 40:09.49 |  3:35.34 |    180724    |   196882
       11  | 43:45.08 |  3:56.02 |    196883    |   214584
       12  | 47:41.10 |  3:58.34 |    214585    |   232468
       13  | 51:39.44 |  5:44.38 |    232469    |   258306
       14  | 57:24.07 |  5:32.49 |    258307    |   283255
       15  | 62:56.56 |  4:26.47 |    283256    |   303252
       16  | 67:23.28 |  3:15.71 |    303253    |   317948
       17  | 70:39.24 |  4:14.59 |    317949    |   337057
Track  1
     Filename G:\EAC Rip\01 - Komor Kommando - Triggerfinger.wav
     Pre-gap length  0:00:02.00
     Peak level 100.0 %
     Extraction speed 5.7 X
     Track quality 100.0 %
     Test CRC 81D3198E
     Copy CRC 81D3198E
     Accurately ripped (confidence 6)  [479EF792]  (AR v1)
     Copy OK
Track  2
     Filename G:\EAC Rip\02 - SAM - World Of Shit.wav
     Pre-gap length  0:00:02.00
     Peak level 99.4 %
     Extraction speed 6.4 X
     Track quality 100.0 %
     Test CRC 40A922D0
     Copy CRC 40A922D0
     Accurately ripped (confidence 6)  [454DB535]  (AR v1)
     Copy OK
Track  3
     Filename G:\EAC Rip\03 - Phosgore - Pain Tutorial (Advanced Agony Mix).wav
     Pre-gap length  0:00:02.00
     Peak level 100.0 %
     Extraction speed 6.4 X
     Track quality 100.0 %
     Test CRC 6D646305
     Copy CRC 6D646305
     Accurately ripped (confidence 6)  [395CCB64]  (AR v1)
     Copy OK
Track  4
     Filename G:\EAC Rip\04 - Siva Six - Deep Black Will (NOISUF-X Mix).wav
     Pre-gap length  0:00:02.00
     Peak level 100.0 %
     Extraction speed 7.2 X
     Track quality 100.0 %
     Test CRC E7D939E6
     Copy CRC E7D939E6
     Accurately ripped (confidence 6)  [AB597122]  (AR v1)
     Copy OK
Track  5
     Filename G:\EAC Rip\05 - ReAdjust With Stahlneber Vs Black Selket - Supernatural Ability.wav
     Pre-gap length  0:00:02.00
     Peak level 90.4 %
     Extraction speed 7.6 X
     Track quality 100.0 %
     Test CRC 82630872
     Copy CRC 82630872
     Accurately ripped (confidence 5)  [432E0143]  (AR v1)
     Copy OK
Track  6
     Filename G:\EAC Rip\06 - Deathgression - Degenerated.wav
     Pre-gap length  0:00:02.00
     Peak level 100.0 %
     Extraction speed 7.8 X
     Track quality 100.0 %
     Test CRC 9653FDB8
     Copy CRC 9653FDB8
     Accurately ripped (confidence 6)  [B726EF80]  (AR v1)
     Copy OK
Track  7
     Filename G:\EAC Rip\07 - Preemptive Strike 0.1 - Ichthyic Ascension (Acylum Mix).wav
     Pre-gap length  0:00:02.00
     Peak level 99.4 %
     Extraction speed 8.5 X
     Track quality 100.0 %
     Test CRC 08C55E65
     Copy CRC 08C55E65
     Accurately ripped (confidence 6)  [E106B567]  (AR v1)
     Copy OK
Track  8
     Filename G:\EAC Rip\08 - Dunkelwerk - Harkers Verderben (Short Cut).wav
     Pre-gap length  0:00:02.00
     Peak level 100.0 %
     Extraction speed 8.5 X
     Track quality 100.0 %
     Test CRC DC117466
     Copy CRC DC117466
     Accurately ripped (confidence 6)  [8DCF4E7D]  (AR v1)
     Copy OK
Track  9
     Filename G:\EAC Rip\09 - Kobold - Blowback (Untermenschen).wav
     Pre-gap length  0:00:02.00
     Peak level 100.0 %
     Extraction speed 9.3 X
     Track quality 100.0 %
     Test CRC 68F5F72F
     Copy CRC 68F5F72F
     Accurately ripped (confidence 6)  [1DF5E9E5]  (AR v1)
     Copy OK
Track 10
     Filename G:\EAC Rip\10 - Fractured - Nothing.wav
     Pre-gap length  0:00:02.00
     Peak level 99.9 %
     Extraction speed 6.7 X
     Track quality 99.9 %
     Test CRC 9C4E8423
     Copy CRC 9C4E8423
     Accurately ripped (confidence 6)  [53C6D04D]  (AR v1)
     Copy OK
Track 11
     Filename G:\EAC Rip\11 - Hivepolitiks - Wake Up.wav
     Pre-gap length  0:00:02.00
     Peak level 100.0 %
     Extraction speed 7.1 X
     Track quality 99.9 %
     Test CRC F10F5471
     Copy CRC F10F5471
     Accurately ripped (confidence 6)  [FF64B45C]  (AR v1)
     Copy OK
Track 12
     Filename G:\EAC Rip\12 - @VX Feat. Mind.In.A.Box - Transformation.wav
     Pre-gap length  0:00:02.00
     Peak level 100.0 %
     Extraction speed 9.8 X
     Track quality 100.0 %
     Test CRC 189B129F
     Copy CRC 189B129F
     Accurately ripped (confidence 6)  [3CC02EC7]  (AR v1)
     Copy OK
Track 13
     Filename G:\EAC Rip\13 - E-Thik - Schleichfahrt.wav
     Pre-gap length  0:00:02.00
     Peak level 99.2 %
     Extraction speed 10.6 X
     Track quality 100.0 %
     Test CRC DF68C9AC
     Copy CRC DF68C9AC
     Accurately ripped (confidence 6)  [B30BFA31]  (AR v1)
     Copy OK
Track 14
     Filename G:\EAC Rip\14 - Isis Signum Feat. Sara Noxx - Energy (Supreme Court Mix).wav
     Pre-gap length  0:00:02.00
     Peak level 100.0 %
     Extraction speed 8.3 X
     Track quality 99.9 %
     Test CRC 728C9CD1
     Copy CRC 728C9CD1
     Accurately ripped (confidence 6)  [BF45F420]  (AR v1)
     Copy OK
Track 15
     Filename G:\EAC Rip\15 - Diskonnekted - Adrenaline (XP8 Mix).wav
     Pre-gap length  0:00:02.00
     Peak level 99.3 %
     Extraction speed 10.9 X
     Track quality 100.0 %
     Test CRC A86815E0
     Copy CRC A86815E0
     Accurately ripped (confidence 6)  [3DB0F1C4]  (AR v1)
     Copy OK
Track 16
     Filename G:\EAC Rip\16 - Detroit Diesel - When Darkness Falls.wav
     Pre-gap length  0:00:02.00
     Peak level 100.0 %
     Extraction speed 10.4 X
     Track quality 100.0 %
     Test CRC 05D30FD1
     Copy CRC 05D30FD1
     Accurately ripped (confidence 6)  [C3D88A68]  (AR v1)
     Copy OK
Track 17
     Filename G:\EAC Rip\17 - Menschdefekt With Stahlnebel Vs Black Selket - Stalingrad.wav
     Pre-gap length  0:00:02.00
     Peak level 99.3 %
     Extraction speed 11.2 X
     Track quality 100.0 %
     Test CRC 7B8CD0FE
     Copy CRC 7B8CD0FE
     Accurately ripped (confidence 6)  [CBB8A30E]  (AR v1)
     Copy OK
All tracks accurately ripped
No errors occurred
End of status report
==== Log checksum 325CB2AB5B5A9A8B75C106575AA4E2E5F25171EDA4E92794133DC5926A66C86C ====
Код:
Exact Audio Copy V1.0 beta 3 from 29. August 2011
EAC extraction logfile from 13. April 2012, 22:50
Various / Various - Various Artists - Endzeit Bunkertracks - Act IV - Damage Session
Used drive  : ASUS    DRW-2014L1T   Adapter: 1  ID: 0
Read mode               : Secure
Utilize accurate stream : Yes
Defeat audio cache      : Yes
Make use of C2 pointers : No
Read offset correction                      : 6
Overread into Lead-In and Lead-Out          : No
Fill up missing offset samples with silence : Yes
Delete leading and trailing silent blocks   : No
Null samples used in CRC calculations       : Yes
Used interface                              : Native Win32 interface for Win NT & 2000
Gap handling                                : Appended to previous track
Used output format              : User Defined Encoder
Selected bitrate                : 128 kBit/s
Quality                         : High
Add ID3 tag                     : No
Command line compressor         : C:\Program Files\Exact Audio Copy\Flac\flac.exe
Additional command line options : -8 -V -T "ARTIST=%artist%" -T "TITLE=%title%" -T "ALBUM=%albumtitle%" -T "DATE=%year%" -T "TRACKNUMBER=%tracknr%" -T "GENRE=%genre%" -T "PERFORMER=%albuminterpret%" -T "COMPOSER=%composer%" %haslyrics%--tag-from-file=LYRICS="%lyricsfile%"%haslyrics% -T "ALBUMARTIST=%albumartist%" -T "DISCNUMBER=%cdnumber%" -T "TOTALDISCS=%totalcds%" -T "TOTALTRACKS=%numtracks%" -T "COMMENT=%comment%" %source% -o %dest%
TOC of the extracted CD
     Track |   Start  |  Length  | Start sector | End sector
    ---------------------------------------------------------
        1  |  0:00.00 |  5:56.35 |         0    |    26734
        2  |  5:56.35 |  4:53.06 |     26735    |    48715
        3  | 10:49.41 |  3:35.57 |     48716    |    64897
        4  | 14:25.23 |  5:07.11 |     64898    |    87933
        5  | 19:32.34 |  4:39.14 |     87934    |   108872
        6  | 24:11.48 |  3:42.16 |    108873    |   125538
        7  | 27:53.64 |  4:01.72 |    125539    |   143685
        8  | 31:55.61 |  4:18.27 |    143686    |   163062
        9  | 36:14.13 |  5:15.56 |    163063    |   186743
       10  | 41:29.69 |  4:45.52 |    186744    |   208170
       11  | 46:15.46 |  5:20.46 |    208171    |   232216
       12  | 51:36.17 |  4:04.10 |    232217    |   250526
       13  | 55:40.27 |  4:31.07 |    250527    |   270858
       14  | 60:11.34 |  4:19.20 |    270859    |   290303
       15  | 64:30.54 |  4:03.45 |    290304    |   308573
       16  | 68:34.24 |  5:45.24 |    308574    |   334472
       17  | 74:19.48 |  3:42.11 |    334473    |   351133
Track  1
     Filename G:\EAC Rip\01 - Acretongue - Voyeur.wav
     Pre-gap length  0:00:02.00
     Peak level 100.0 %
     Extraction speed 6.0 X
     Track quality 100.0 %
     Test CRC 813AC668
     Copy CRC 813AC668
     Accurately ripped (confidence 6)  [E5BC8C6B]  (AR v1)
     Copy OK
Track  2
     Filename G:\EAC Rip\02 - Psy'aviah Feat. Leæther Strip - Sweet Hard Revenge (Endzeit Mix).wav
     Pre-gap length  0:00:02.00
     Peak level 100.0 %
     Extraction speed 6.5 X
     Track quality 100.0 %
     Test CRC 4E85D1AF
     Copy CRC 4E85D1AF
     Accurately ripped (confidence 6)  [29D44867]  (AR v1)
     Copy OK
Track  3
     Filename G:\EAC Rip\03 - Patenbrigade- Wolff - Stalinallee (Jugendklub Mix).wav
     Pre-gap length  0:00:02.00
     Peak level 100.0 %
     Extraction speed 5.0 X
     Track quality 99.9 %
     Test CRC F28C13BE
     Copy CRC F28C13BE
     Accurately ripped (confidence 6)  [D9D8ADCD]  (AR v1)
     Copy OK
Track  4
     Filename G:\EAC Rip\04 - Industriegebiet - Sex Mit Einer Leiche (Soman Rmx).wav
     Pre-gap length  0:00:02.00
     Peak level 97.0 %
     Extraction speed 7.5 X
     Track quality 100.0 %
     Test CRC 4DE9524B
     Copy CRC 4DE9524B
     Accurately ripped (confidence 6)  [462E7B82]  (AR v1)
     Copy OK
Track  5
     Filename G:\EAC Rip\05 - Noisuf-X - Last Dance.wav
     Pre-gap length  0:00:02.00
     Peak level 96.7 %
     Extraction speed 6.0 X
     Track quality 99.9 %
     Test CRC 58E67EDE
     Copy CRC 58E67EDE
     Accurately ripped (confidence 6)  [894C78B1]  (AR v1)
     Copy OK
Track  6
     Filename G:\EAC Rip\06 - Modulate - Hard And Dirty (SAM Mix).wav
     Pre-gap length  0:00:02.00
     Peak level 100.0 %
     Extraction speed 8.0 X
     Track quality 100.0 %
     Test CRC 90DD9400
     Copy CRC 90DD9400
     Accurately ripped (confidence 6)  [D901A285]  (AR v1)
     Copy OK
Track  7
     Filename G:\EAC Rip\07 - Novastorm - Blow Job.wav
     Pre-gap length  0:00:02.00
     Peak level 99.3 %
     Extraction speed 8.4 X
     Track quality 100.0 %
     Test CRC B453D83B
     Copy CRC B453D83B
     Accurately ripped (confidence 6)  [F9071B47]  (AR v1)
     Copy OK
Track  8
     Filename G:\EAC Rip\08 - Acylum - Schmerzpervers.wav
     Pre-gap length  0:00:02.00
     Peak level 100.0 %
     Extraction speed 8.8 X
     Track quality 100.0 %
     Test CRC 515B0AD7
     Copy CRC 515B0AD7
     Accurately ripped (confidence 6)  [1C7F86E8]  (AR v1)
     Copy OK
Track  9
     Filename G:\EAC Rip\09 - Unter Null - Broken Heart Cliché.wav
     Pre-gap length  0:00:02.00
     Peak level 100.0 %
     Extraction speed 7.2 X
     Track quality 99.9 %
     Test CRC 786585D0
     Copy CRC 786585D0
     Accurately ripped (confidence 6)  [128258EC]  (AR v1)
     Copy OK
Track 10
     Filename G:\EAC Rip\10 - Schwarzblut - Muss Es Eine Trennung Geben.wav
     Pre-gap length  0:00:02.00
     Peak level 99.3 %
     Extraction speed 9.7 X
     Track quality 100.0 %
     Test CRC 71BD0340
     Copy CRC 71BD0340
     Accurately ripped (confidence 5)  [A4BC2C12]  (AR v1)
     Copy OK
Track 11
     Filename G:\EAC Rip\11 - Plastic Noise Experience - Zu Nah (Suicide Commando Mix).wav
     Pre-gap length  0:00:02.00
     Peak level 100.0 %
     Extraction speed 10.0 X
     Track quality 100.0 %
     Test CRC 8D32DCB2
     Copy CRC 8D32DCB2
     Accurately ripped (confidence 6)  [67A55ED1]  (AR v1)
     Copy OK
Track 12
     Filename G:\EAC Rip\12 - Angelspit - Girl Poison (I-Scintilla Mix).wav
     Pre-gap length  0:00:02.00
     Peak level 100.0 %
     Extraction speed 10.1 X
     Track quality 100.0 %
     Test CRC E4A42E24
     Copy CRC E4A42E24
     Accurately ripped (confidence 6)  [8BC2D602]  (AR v1)
     Copy OK
Track 13
     Filename G:\EAC Rip\13 - Essence Of Mind - Nightmare.wav
     Pre-gap length  0:00:02.00
     Peak level 99.1 %
     Extraction speed 10.5 X
     Track quality 100.0 %
     Test CRC BCF59173
     Copy CRC BCF59173
     Accurately ripped (confidence 6)  [5A4F0A5A]  (AR v1)
     Copy OK
Track 14
     Filename G:\EAC Rip\14 - Zombie Girl - The Darkness (Komor Kommando Mix).wav
     Pre-gap length  0:00:02.00
     Peak level 95.6 %
     Extraction speed 8.6 X
     Track quality 99.9 %
     Test CRC 38ECFDD9
     Copy CRC 38ECFDD9
     Accurately ripped (confidence 6)  [806E692E]  (AR v1)
     Copy OK
Track 15
     Filename G:\EAC Rip\15 - Punto Omega - Fabricantes De Miedo.wav
     Pre-gap length  0:00:02.00
     Peak level 97.7 %
     Extraction speed 10.8 X
     Track quality 100.0 %
     Test CRC 9CEDA8D9
     Copy CRC 9CEDA8D9
     Accurately ripped (confidence 6)  [1D2A4297]  (AR v1)
     Copy OK
Track 16
     Filename G:\EAC Rip\16 - FGFC820 - The Heart Of America (Mesmer's Eyes Mix).wav
     Pre-gap length  0:00:02.00
     Peak level 97.7 %
     Extraction speed 11.6 X
     Track quality 100.0 %
     Test CRC AFBA9C89
     Copy CRC AFBA9C89
     Accurately ripped (confidence 6)  [B2255F89]  (AR v1)
     Copy OK
Track 17
     Filename G:\EAC Rip\17 - Krystal System - I Love My Chains (Mesmer's Eyes Mix).wav
     Pre-gap length  0:00:02.00
     Peak level 99.9 %
     Extraction speed 10.9 X
     Track quality 100.0 %
     Test CRC 8DDA96EA
     Copy CRC 8DDA96EA
     Accurately ripped (confidence 6)  [30086473]  (AR v1)
     Copy OK
All tracks accurately ripped
No errors occurred
End of status report
==== Log checksum 0F9C4B884DD62560AB627BD4A23BCA21FE521D158573B71C9BEC5C1638D82280 ====
Код:
Exact Audio Copy V1.0 beta 3 from 29. August 2011
EAC extraction logfile from 14. April 2012, 8:29
Various / Various - Various - Various Artists - Endzeit Bunkertracks - Act IV - Death Session
Used drive  : ASUS    DRW-2014L1T   Adapter: 1  ID: 0
Read mode               : Secure
Utilize accurate stream : Yes
Defeat audio cache      : Yes
Make use of C2 pointers : No
Read offset correction                      : 6
Overread into Lead-In and Lead-Out          : No
Fill up missing offset samples with silence : Yes
Delete leading and trailing silent blocks   : No
Null samples used in CRC calculations       : Yes
Used interface                              : Native Win32 interface for Win NT & 2000
Gap handling                                : Appended to previous track
Used output format              : User Defined Encoder
Selected bitrate                : 128 kBit/s
Quality                         : High
Add ID3 tag                     : No
Command line compressor         : C:\Program Files\Exact Audio Copy\Flac\flac.exe
Additional command line options : -8 -V -T "ARTIST=%artist%" -T "TITLE=%title%" -T "ALBUM=%albumtitle%" -T "DATE=%year%" -T "TRACKNUMBER=%tracknr%" -T "GENRE=%genre%" -T "PERFORMER=%albuminterpret%" -T "COMPOSER=%composer%" %haslyrics%--tag-from-file=LYRICS="%lyricsfile%"%haslyrics% -T "ALBUMARTIST=%albumartist%" -T "DISCNUMBER=%cdnumber%" -T "TOTALDISCS=%totalcds%" -T "TOTALTRACKS=%numtracks%" -T "COMMENT=%comment%" %source% -o %dest%
TOC of the extracted CD
     Track |   Start  |  Length  | Start sector | End sector
    ---------------------------------------------------------
        1  |  0:00.00 |  5:51.41 |         0    |    26365
        2  |  5:51.41 |  4:52.08 |     26366    |    48273
        3  | 10:43.49 |  4:34.59 |     48274    |    68882
        4  | 15:18.33 |  3:40.37 |     68883    |    85419
        5  | 18:58.70 |  3:19.72 |     85420    |   100416
        6  | 22:18.67 |  3:39.28 |    100417    |   116869
        7  | 25:58.20 |  6:24.46 |    116870    |   145715
        8  | 32:22.66 |  3:30.09 |    145716    |   161474
        9  | 35:53.00 |  3:33.48 |    161475    |   177497
       10  | 39:26.48 |  5:07.12 |    177498    |   200534
       11  | 44:33.60 |  4:37.09 |    200535    |   221318
       12  | 49:10.69 |  4:32.73 |    221319    |   241791
       13  | 53:43.67 |  4:59.12 |    241792    |   264228
       14  | 58:43.04 |  6:05.32 |    264229    |   291635
       15  | 64:48.36 |  3:42.17 |    291636    |   308302
       16  | 68:30.53 |  6:04.62 |    308303    |   335664
       17  | 74:35.40 |  4:11.20 |    335665    |   354509
Track  1
     Filename G:\EAC Rip\01 - Memmaker - Death Comes (Rotersand Mix).wav
     Pre-gap length  0:00:02.00
     Peak level 100.0 %
     Extraction speed 5.1 X
     Track quality 100.0 %
     Test CRC 67CCF4D4
     Copy CRC 67CCF4D4
     Accurately ripped (confidence 6)  [2867A104]  (AR v1)
     Copy OK
Track  2
     Filename G:\EAC Rip\02 - Ex.Es - Access To The Ex.Es (Pure Adrenaline Mix).wav
     Pre-gap length  0:00:02.00
     Peak level 100.0 %
     Extraction speed 5.6 X
     Track quality 100.0 %
     Test CRC 720AAFD7
     Copy CRC 720AAFD7
     Accurately ripped (confidence 6)  [586452CA]  (AR v1)
     Copy OK
Track  3
     Filename G:\EAC Rip\03 - Shaun F - Drty Fckn Dsko (Hard Version).wav
     Pre-gap length  0:00:02.00
     Peak level 97.8 %
     Extraction speed 6.0 X
     Track quality 100.0 %
     Test CRC 8C7038CF
     Copy CRC 8C7038CF
     Accurately ripped (confidence 6)  [8E8066D9]  (AR v1)
     Copy OK
Track  4
     Filename G:\EAC Rip\04 - Shaolyn - Face Down.wav
     Pre-gap length  0:00:02.00
     Peak level 99.6 %
     Extraction speed 6.1 X
     Track quality 100.0 %
     Test CRC F01AC207
     Copy CRC F01AC207
     Accurately ripped (confidence 6)  [7C7197A8]  (AR v1)
     Copy OK
Track  5
     Filename G:\EAC Rip\05 - Monolith - Attack Of The Ants.wav
     Pre-gap length  0:00:02.00
     Peak level 100.0 %
     Extraction speed 6.3 X
     Track quality 100.0 %
     Test CRC 1E1D9ACE
     Copy CRC 1E1D9ACE
     Accurately ripped (confidence 6)  [67884FD5]  (AR v1)
     Copy OK
Track  6
     Filename G:\EAC Rip\06 - Schnarph! - Eine Tolle Predigt.wav
     Pre-gap length  0:00:01.76
     Peak level 98.0 %
     Extraction speed 6.7 X
     Track quality 100.0 %
     Test CRC E886793A
     Copy CRC E886793A
     Accurately ripped (confidence 6)  [2ECFEA7C]  (AR v1)
     Copy OK
Track  7
     Filename G:\EAC Rip\07 - C Drone-Defect - Mundus Vult Decipi.wav
     Pre-gap length  0:00:02.00
     Peak level 100.0 %
     Extraction speed 6.1 X
     Track quality 100.0 %
     Test CRC F9C79612
     Copy CRC F9C79612
     Accurately ripped (confidence 6)  [6AD0B9BB]  (AR v1)
     Copy OK
Track  8
     Filename G:\EAC Rip\08 - Afterparty - Manbaby.wav
     Pre-gap length  0:00:02.00
     Peak level 90.4 %
     Extraction speed 5.1 X
     Track quality 99.9 %
     Test CRC 5F2460F4
     Copy CRC 5F2460F4
     Accurately ripped (confidence 6)  [B03D6EFC]  (AR v1)
     Copy OK
Track  9
     Filename G:\EAC Rip\09 - Heimataerde - Vater (Aura Lusus Mixtura).wav
     Pre-gap length  0:00:02.00
     Peak level 98.9 %
     Extraction speed 6.1 X
     Track quality 100.0 %
     Test CRC 04DA514B
     Copy CRC 04DA514B
     Accurately ripped (confidence 6)  [B126615A]  (AR v1)
     Copy OK
Track 10
     Filename G:\EAC Rip\10 - Straftanz - Tanzt Kaputt, Was Euch Kaputt Macht! (Straftanz Original).wav
     Pre-gap length  0:00:02.00
     Peak level 99.0 %
     Extraction speed 6.6 X
     Track quality 100.0 %
     Test CRC E7B3B52B
     Copy CRC E7B3B52B
     Accurately ripped (confidence 6)  [764C2827]  (AR v1)
     Copy OK
Track 11
     Filename G:\EAC Rip\11 - Diffuzion - Fire (EFF DST Rmx).wav
     Pre-gap length  0:00:02.00
     Peak level 99.3 %
     Extraction speed 6.8 X
     Track quality 100.0 %
     Test CRC 93F10B2D
     Copy CRC 93F10B2D
     Accurately ripped (confidence 6)  [5C62E0A6]  (AR v1)
     Copy OK
Track 12
     Filename G:\EAC Rip\12 - Cylab - Dragonfly Dream.wav
     Pre-gap length  0:00:02.00
     Peak level 100.0 %
     Extraction speed 7.0 X
     Track quality 100.0 %
     Test CRC 5AD4FDBF
     Copy CRC 5AD4FDBF
     Accurately ripped (confidence 6)  [C8822703]  (AR v1)
     Copy OK
Track 13
     Filename G:\EAC Rip\13 - L'ame Immortelle - Es Tut Mir Leid (Entschuldigung Mix By Grendel).wav
     Pre-gap length  0:00:02.00
     Peak level 100.0 %
     Extraction speed 6.5 X
     Track quality 99.9 %
     Test CRC E33F3A9D
     Copy CRC E33F3A9D
     Accurately ripped (confidence 6)  [4CE61067]  (AR v1)
     Copy OK
Track 14
     Filename G:\EAC Rip\14 - Leæther Strip - Cast Away 09 (Twenty Mix).wav
     Pre-gap length  0:00:02.00
     Peak level 100.0 %
     Extraction speed 7.7 X
     Track quality 100.0 %
     Test CRC D00E0C2F
     Copy CRC D00E0C2F
     Accurately ripped (confidence 6)  [D120BF9C]  (AR v1)
     Copy OK
Track 15
     Filename G:\EAC Rip\15 - Neikka RPM Feat. Leæther Strip - Warped (Terror Mix).wav
     Pre-gap length  0:00:02.00
     Peak level 100.0 %
     Extraction speed 4.6 X
     Track quality 99.8 %
     Test CRC 4A2F790C
     Copy CRC 4A2F790C
     Accurately ripped (confidence 6)  [7EEE5158]  (AR v1)
     Copy OK
Track 16
     Filename G:\EAC Rip\16 - Retractor - Annihilation (Preemptive Strike 0.1 Remix).wav
     Pre-gap length  0:00:02.00
     Peak level 98.8 %
     Extraction speed 6.2 X
     Track quality 100.0 %
     Test CRC 45C3979C
     Copy CRC 45C3979C
     Accurately ripped (confidence 6)  [64901BC5]  (AR v1)
     Copy OK
Track 17
     Filename G:\EAC Rip\17 - Dym - Government Stomp! (Overplayed Remix).wav
     Pre-gap length  0:00:02.00
     Peak level 100.0 %
     Extraction speed 7.9 X
     Track quality 100.0 %
     Test CRC 4B687765
     Copy CRC 4B687765
     Accurately ripped (confidence 5)  [45D2A0D3]  (AR v1)
     Copy OK
All tracks accurately ripped
No errors occurred
End of status report
==== Log checksum 0D8A7358EF02447D9F8FC5DA8231F04B2379917D8A032E48F13D897F2799E72B ====
Код:
REM GENRE Rhythmic Noise, EBM, Electro, Industrial
REM DATE 2009
REM DISCID DD123511
REM COMMENT "ExactAudioCopy v1.0b3"
PERFORMER "Various"
TITLE "Endzeit Bunkertracks [Act - IV]"
FILE "01 - Faderhead - TZDV.wav" WAVE
  TRACK 01 AUDIO
    TITLE "TZDV"
    PERFORMER "Faderhead"
    INDEX 01 00:00:00
  TRACK 02 AUDIO
    TITLE "I Believe In Blood"
    PERFORMER "Nachtmahr"
    INDEX 00 04:03:74
FILE "02 - Nachtmahr - I Believe In Blood.wav" WAVE
    INDEX 01 00:00:00
  TRACK 03 AUDIO
    TITLE "Die Sexualkiste Der Holle"
    PERFORMER "[X]-RX"
    INDEX 00 03:22:51
FILE "03 - [X]-RX - Sexualkiste Der Holle.wav" WAVE
    INDEX 01 00:00:00
  TRACK 04 AUDIO
    TITLE "Relax And Ride It (Handlebar Mix By Memmaker)"
    PERFORMER "Alter Der Ruine"
    INDEX 00 04:22:14
FILE "04 - Alter Der Ruine - Relax And Ride It (Handlebar Mix by Memmaker).wav" WAVE
    INDEX 01 00:00:00
  TRACK 05 AUDIO
    TITLE "Leaving Hope"
    PERFORMER "Aetherfx"
    INDEX 00 04:41:72
FILE "05 - AetherFX - Leaving Hope.wav" WAVE
    INDEX 01 00:00:00
  TRACK 06 AUDIO
    TITLE "Blood Divine"
    PERFORMER "The Synthetic Dream Foundation"
    INDEX 00 04:05:65
FILE "06 - The Synthetic Dream Foundation - Blood Divine.wav" WAVE
    INDEX 01 00:00:00
  TRACK 07 AUDIO
    TITLE "Human Progress"
    PERFORMER "Cyclone B"
    INDEX 00 04:26:63
FILE "07 - Cyclone B - Human Progress.wav" WAVE
    INDEX 01 00:00:00
  TRACK 08 AUDIO
    TITLE "Judgement Day"
    PERFORMER "Mesmer's Eyes"
    INDEX 00 04:53:72
FILE "08 - Mesmer's Eyes - Judgement Day.wav" WAVE
    INDEX 01 00:00:00
  TRACK 09 AUDIO
    TITLE "Tragic Hero (X-Fusion Mix)"
    PERFORMER "Wynardtage"
    INDEX 00 05:21:13
FILE "09 - Wynardtage - Tragic Hero (RMX by X-Fusion).wav" WAVE
    INDEX 01 00:00:00
  TRACK 10 AUDIO
    TITLE "Born In Sin (DJ Psycon Mix)"
    PERFORMER "Virgins O.R Pigeons"
    INDEX 00 05:24:60
FILE "10 - Virgins O.R Pigeons - Born In Sin (DJ Psycon Mix).wav" WAVE
    INDEX 01 00:00:00
  TRACK 11 AUDIO
    TITLE "Back To Back (Endzeit Mix)"
    PERFORMER "IC 434"
    INDEX 00 03:55:35
FILE "11 - IC 434 - Back To Back (Endzeit Mix).wav" WAVE
    INDEX 01 00:00:00
  TRACK 12 AUDIO
    TITLE "Last Human"
    PERFORMER "UberByte"
    INDEX 00 04:34:69
FILE "12 - Uberbyte - Last Human.wav" WAVE
    INDEX 01 00:00:00
  TRACK 13 AUDIO
    TITLE "Now You Know"
    PERFORMER "Angels On Acid"
    INDEX 00 04:40:38
FILE "13 - Angels On Acid - Now You Know.wav" WAVE
    INDEX 01 00:00:00
  TRACK 14 AUDIO
    TITLE "Virus"
    PERFORMER "Alien Produkt"
    INDEX 00 04:56:63
FILE "14 - Alien Produkt - Virus.wav" WAVE
    INDEX 01 00:00:00
  TRACK 15 AUDIO
    TITLE "We Are Kant Kino"
    PERFORMER "Kant Kino"
    INDEX 00 05:21:62
FILE "15 - Kant Kino - We Are Kant Kino.wav" WAVE
    INDEX 01 00:00:00
  TRACK 16 AUDIO
    TITLE "Unsichtbar"
    PERFORMER "Stahlnebel vs. Black Selket"
    INDEX 00 03:39:18
FILE "16 - Stahlnebel vs. Black Selket - Unsichtbar.wav" WAVE
    INDEX 01 00:00:00
  TRACK 17 AUDIO
    TITLE "Phantom Pain"
    PERFORMER "Skorbut"
    INDEX 00 04:13:56
FILE "17 - Skorbut - Phantom Pain.wav" WAVE
    INDEX 01 00:00:00
Код:
REM GENRE Rhythmic Noise, EBM, Electro, Industrial
REM DATE 2009
REM DISCID E7118E11
REM COMMENT "ExactAudioCopy v1.0b3"
PERFORMER Various
TITLE "Endzeit Bunkertracks [Act - IV]"
FILE "01 - Komor Kommando - Triggerfinger.wav" WAVE
  TRACK 01 AUDIO
    TITLE "Triggerfinger"
    PERFORMER "Komor Kommando"
    INDEX 01 00:00:00
  TRACK 02 AUDIO
    TITLE "World Of Shit"
    PERFORMER "SAM"
    INDEX 00 04:28:10
FILE "02 - SAM - World Of Shit.wav" WAVE
    INDEX 01 00:00:00
  TRACK 03 AUDIO
    TITLE "Pain Tutorial (Advanced Agony Mix)"
    PERFORMER "Phosgore"
    INDEX 00 05:17:46
FILE "03 - Phosgore - Pain Tutorial (Advanced Agony Mix).wav" WAVE
    INDEX 01 00:00:00
  TRACK 04 AUDIO
    TITLE "Deep Black Will (Noisuf-X Mix)"
    PERFORMER "Siva Six"
    INDEX 00 03:08:01
FILE "04 - Siva Six - Deep Black Will (NOISUF-X Mix).wav" WAVE
    INDEX 01 00:00:00
  TRACK 05 AUDIO
    TITLE "Supernatural Ability"
    PERFORMER "ReAdjust with Stahlnebel vs. Black Selket"
    INDEX 00 04:37:57
FILE "05 - ReAdjust With Stahlneber Vs Black Selket - Supernatural Ability.wav" WAVE
    INDEX 01 00:00:00
  TRACK 06 AUDIO
    TITLE "Degenerated"
    PERFORMER "Deathgression"
    INDEX 00 04:45:01
FILE "06 - Deathgression - Degenerated.wav" WAVE
    INDEX 01 00:00:00
  TRACK 07 AUDIO
    TITLE "Ichthyic Ascension (Acylum Mix)"
    PERFORMER "PreEmptive Strike 0.1"
    INDEX 00 03:50:67
FILE "07 - Preemptive Strike 0.1 - Ichthyic Ascension (Acylum Mix).wav" WAVE
    INDEX 01 00:00:00
  TRACK 08 AUDIO
    TITLE "Harkers Verderben (Short Cut)"
    PERFORMER "Dunkelwerk"
    INDEX 00 04:41:71
FILE "08 - Dunkelwerk - Harkers Verderben (Short Cut).wav" WAVE
    INDEX 01 00:00:00
  TRACK 09 AUDIO
    TITLE "Blowback (Untermenschen)"
    PERFORMER "Kobold"
    INDEX 00 03:36:03
FILE "09 - Kobold - Blowback (Untermenschen).wav" WAVE
    INDEX 01 00:00:00
  TRACK 10 AUDIO
    TITLE "Nothing"
    PERFORMER "Fractured"
    INDEX 00 05:26:18
FILE "10 - Fractured - Nothing.wav" WAVE
    INDEX 01 00:00:00
  TRACK 11 AUDIO
    TITLE "Wake Up"
    PERFORMER "Hivepolitiks"
    INDEX 00 03:33:34
FILE "11 - Hivepolitiks - Wake Up.wav" WAVE
    INDEX 01 00:00:00
  TRACK 12 AUDIO
    TITLE "Transformation"
    PERFORMER "@VX feat. Mind.In.A.Box"
    INDEX 00 03:54:02
FILE "12 - @VX Feat. Mind.In.A.Box - Transformation.wav" WAVE
    INDEX 01 00:00:00
  TRACK 13 AUDIO
    TITLE "Schleichfahrt"
    PERFORMER "E-Thik"
    INDEX 00 03:56:34
FILE "13 - E-Thik - Schleichfahrt.wav" WAVE
    INDEX 01 00:00:00
  TRACK 14 AUDIO
    TITLE "Energy (Supreme Court Mix)"
    PERFORMER "Isis Signum feat. Sara Noxx"
    INDEX 00 05:42:38
FILE "14 - Isis Signum Feat. Sara Noxx - Energy (Supreme Court Mix).wav" WAVE
    INDEX 01 00:00:00
  TRACK 15 AUDIO
    TITLE "Adrenaline (XP8 Mix)"
    PERFORMER "Diskonnekted"
    INDEX 00 05:30:49
FILE "15 - Diskonnekted - Adrenaline (XP8 Mix).wav" WAVE
    INDEX 01 00:00:00
  TRACK 16 AUDIO
    TITLE "When Darkness Falls"
    PERFORMER "Detroit Diesel"
    INDEX 00 04:24:47
FILE "16 - Detroit Diesel - When Darkness Falls.wav" WAVE
    INDEX 01 00:00:00
  TRACK 17 AUDIO
    TITLE "Stalingrad"
    PERFORMER "Menschdefekt with Stahlnebel vs. Black Selket"
    INDEX 00 03:13:71
FILE "17 - Menschdefekt With Stahlnebel Vs Black Selket - Stalingrad.wav" WAVE
    INDEX 01 00:00:00
Код:
REM GENRE Rhythmic Noise, EBM, Electro, Industrial
REM DATE 2009
REM DISCID 06124911
REM COMMENT "ExactAudioCopy v1.0b3"
PERFORMER Various
TITLE "Endzeit Bunkertracks [Act - IV]"
FILE "01 - Acretongue - Voyeur.wav" WAVE
  TRACK 01 AUDIO
    TITLE "Voyeur"
    PERFORMER "Acretongue"
    INDEX 01 00:00:00
  TRACK 02 AUDIO
    TITLE "Sweet Hard Revenge (Endzeit Mix)"
    PERFORMER "Psy'aviah Feat. Leather Strip"
    INDEX 00 05:54:35
FILE "02 - Psy'aviah Feat. Leather Strip - Sweet Hard Revenge (Endzeit Mix).wav" WAVE
    INDEX 01 00:00:00
  TRACK 03 AUDIO
    TITLE "Stalinallee (Jugendklub Mix)"
    PERFORMER "Patenbrigade: Wolff"
    INDEX 00 04:51:06
FILE "03 - Patenbrigade Wolff - Stalinallee (Jugendklub Mix).wav" WAVE
    INDEX 01 00:00:00
  TRACK 04 AUDIO
    TITLE "Sex Mit Einer Leiche (Soman Rmx)"
    PERFORMER "Industriegebiet"
    INDEX 00 03:33:57
FILE "04 - Industriegebiet - Sex Mit Einer Leiche (Soman Rmx).wav" WAVE
    INDEX 01 00:00:00
  TRACK 05 AUDIO
    TITLE "Last Dance"
    PERFORMER "Noisuf-X"
    INDEX 00 05:05:11
FILE "05 - Noisuf-X - Last Dance.wav" WAVE
    INDEX 01 00:00:00
  TRACK 06 AUDIO
    TITLE "Hard And Dirty (SAM Mix)"
    PERFORMER "Modulate"
    INDEX 00 04:37:14
FILE "06 - Modulate - Hard And Dirty (SAM Mix).wav" WAVE
    INDEX 01 00:00:00
  TRACK 07 AUDIO
    TITLE "Blow Job"
    PERFORMER "Novastorm"
    INDEX 00 03:40:16
FILE "07 - Novastorm - Blow Job.wav" WAVE
    INDEX 01 00:00:00
  TRACK 08 AUDIO
    TITLE "Schmerzpervers"
    PERFORMER "Acylum"
    INDEX 00 03:59:72
FILE "08 - Acylum - Schmerzpervers.wav" WAVE
    INDEX 01 00:00:00
  TRACK 09 AUDIO
    TITLE "Broken Heart Cliche"
    PERFORMER "Unter Null"
    INDEX 00 04:16:27
FILE "09 - Unter Null - Broken Heart Cliche.wav" WAVE
    INDEX 01 00:00:00
  TRACK 10 AUDIO
    TITLE "Muss Es Eine Trennung Geben"
    PERFORMER "Schwarzblut"
    INDEX 00 05:13:56
FILE "10 - Schwarzblut - Muss Es Eine Trennung Geben.wav" WAVE
    INDEX 01 00:00:00
  TRACK 11 AUDIO
    TITLE "Zu Nah (Suicide Commando Mix)"
    PERFORMER "Plastic Noise Experience"
    INDEX 00 04:43:52
FILE "11 - Plastic Noise Experience - Zu Nah (Suicide Commando Mix).wav" WAVE
    INDEX 01 00:00:00
  TRACK 12 AUDIO
    TITLE "Girl Poison (I-Scintilla Mix)"
    PERFORMER "Angelspit"
    INDEX 00 05:18:46
FILE "12 - Angelspit - Girl Poison (I-Scintilla Mix).wav" WAVE
    INDEX 01 00:00:00
  TRACK 13 AUDIO
    TITLE "Nightmare"
    PERFORMER "Essence Of Mind"
    INDEX 00 04:02:10
FILE "13 - Essence Of Mind - Nightmare.wav" WAVE
    INDEX 01 00:00:00
  TRACK 14 AUDIO
    TITLE "The Darkness (Komor Kommando Mix)"
    PERFORMER "Zombie Girl"
    INDEX 00 04:29:07
FILE "14 - Zombie Girl - The Darkness (Komor Kommando Mix).wav" WAVE
    INDEX 01 00:00:00
  TRACK 15 AUDIO
    TITLE "Fabricantes De Miedo"
    PERFORMER "Punto Omega"
    INDEX 00 04:17:20
FILE "15 - Punto Omega - Fabricantes De Miedo.wav" WAVE
    INDEX 01 00:00:00
  TRACK 16 AUDIO
    TITLE "The Heart Of America (Mesmer's Eyes Mix)"
    PERFORMER "FGFC820"
    INDEX 00 04:01:45
FILE "16 - FGFC820 - The Heart Of America (Mesmer's Eyes Mix).wav" WAVE
    INDEX 01 00:00:00
  TRACK 17 AUDIO
    TITLE "I Love My Chains (Mesmer's Eyes Mix)"
    PERFORMER "Krystal System"
    INDEX 00 05:43:24
FILE "17 - Krystal System - I Love My Chains (Mesmer's Eyes Mix).wav" WAVE
    INDEX 01 00:00:00
Код:
REM GENRE Rhythmic Noise, EBM, Electro, Industrial
REM DATE 2009
REM DISCID E6127611
REM COMMENT "ExactAudioCopy v1.0b3"
FILE "01 - Memmaker - Death Comes (Rotersand Mix).wav" WAVE
  TRACK 01 AUDIO
    TITLE "Death Comes (Rotersand Mix)"
    PERFORMER "Memmaker"
    INDEX 01 00:00:00
  TRACK 02 AUDIO
    TITLE "Access To The Ex.Es (Pure Adrenaline Mix)"
    PERFORMER "Ex.Es"
    INDEX 00 05:49:41
FILE "02 - Ex.Es - Access To The Ex.Es (Pure Adrenaline Mix).wav" WAVE
    INDEX 01 00:00:00
  TRACK 03 AUDIO
    TITLE "Drty Fckn Dsko (Hard Version)"
    PERFORMER "Shaun F"
    INDEX 00 04:50:08
FILE "03 - Shaun F - Drty Fckn Dsko (Hard Version).wav" WAVE
    INDEX 01 00:00:00
  TRACK 04 AUDIO
    TITLE "Face Down"
    PERFORMER "Shaolyn"
    INDEX 00 04:32:59
FILE "04 - Shaolyn - Face Down.wav" WAVE
    INDEX 01 00:00:00
  TRACK 05 AUDIO
    TITLE "Attack Of The Ants"
    PERFORMER "Monolith"
    INDEX 00 03:38:37
FILE "05 - Monolith - Attack Of The Ants.wav" WAVE
    INDEX 01 00:00:00
  TRACK 06 AUDIO
    TITLE "Eine Tolle Predigt"
    PERFORMER "Schnarph!"
    INDEX 00 03:18:15
FILE "06 - Schnarph! - Eine Tolle Predigt.wav" WAVE
    INDEX 01 00:00:00
  TRACK 07 AUDIO
    TITLE "Mundus Vult Decipi"
    PERFORMER "C Drone-Defect"
    INDEX 00 03:37:28
FILE "07 - C Drone-Defect - Mundus Vult Decipi.wav" WAVE
    INDEX 01 00:00:00
  TRACK 08 AUDIO
    TITLE "Manbaby"
    PERFORMER "Afterparty"
    INDEX 00 06:22:46
FILE "08 - Afterparty - Manbaby.wav" WAVE
    INDEX 01 00:00:00
  TRACK 09 AUDIO
    TITLE "Vater (Aura Lusus Mixtura)"
    PERFORMER "Heimataerde"
    INDEX 00 03:28:09
FILE "09 - Heimataerde - Vater (Aura Lusus Mixtura).wav" WAVE
    INDEX 01 00:00:00
  TRACK 10 AUDIO
    TITLE "Tanzt Kaputt, Was Euch Kaputt Macht! (Straftanz Original)"
    PERFORMER "Straftanz"
    INDEX 00 03:31:48
FILE "10 - Straftanz - Tanzt Kaputt, Was Euch Kaputt Macht! (Straftanz Original).wav" WAVE
    INDEX 01 00:00:00
  TRACK 11 AUDIO
    TITLE "Fire (EFF DST Rmx)"
    PERFORMER "Diffuzion"
    INDEX 00 05:05:12
FILE "11 - Diffuzion - Fire (EFF DST Rmx).wav" WAVE
    INDEX 01 00:00:00
  TRACK 12 AUDIO
    TITLE "Dragonfly Dream"
    PERFORMER "Cylab"
    INDEX 00 04:35:09
FILE "12 - Cylab - Dragonfly Dream.wav" WAVE
    INDEX 01 00:00:00
  TRACK 13 AUDIO
    TITLE "Es Tut Mir Leid (Entschuldigung Mix By Grendel)"
    PERFORMER "L'ame Immortelle"
    INDEX 00 04:30:73
FILE "13 - L'ame Immortelle - Es Tut Mir Leid (Entschuldigung Mix By Grendel).wav" WAVE
    INDEX 01 00:00:00
  TRACK 14 AUDIO
    TITLE "Cast Away 09 (Twenty Mix)"
    PERFORMER "Leaether Strip"
    INDEX 00 04:57:12
FILE "14 - Leaether Strip - Cast Away 09 (Twenty Mix).wav" WAVE
    INDEX 01 00:00:00
  TRACK 15 AUDIO
    TITLE "Warped (Terror Mix)"
    PERFORMER "Neikka RPM Feat. Leather Strip"
    INDEX 00 06:03:32
FILE "15 - Neikka RPM Feat. Leather Strip - Warped (Terror Mix).wav" WAVE
    INDEX 01 00:00:00
  TRACK 16 AUDIO
    TITLE "Annihilation (Preemptive Strike 0.1 Remix)"
    PERFORMER "Retractor"
    INDEX 00 03:40:17
FILE "16 - Retractor - Annihilation (Preemptive Strike 0.1 Remix).wav" WAVE
    INDEX 01 00:00:00
  TRACK 17 AUDIO
    TITLE "Government Stomp! (Overplayed Remix)"
    PERFORMER "Dym"
    INDEX 00 06:02:62
FILE "17 - Dym - Government Stomp! (Overplayed Remix).wav" WAVE
    INDEX 01 00:00:00
Правила, инструкции, FAQ!!!
Торрент  Добавлен [26 июн 2020, 17:56] Скачать торрент Магнет ссылка
Скачать торрент
[ Размер 376.4 КБ / Просмотров 11 ]

Статус
Проверен 
 
Размер  2.3 ГБ
Приватный: Нет (DHT включён)
.torrent скачан  0
 


     Отправить личное сообщение
   
Страница 1 из 1
Показать сообщения за:  Поле сортировки  
Начать новую тему Ответить на тему


Сейчас этот форум просматривают: нет зарегистрированных пользователей и гости: 0


Вы не можете начинать темы
Вы не можете отвечать на сообщения
Вы не можете редактировать свои сообщения
Вы не можете удалять свои сообщения
Вы не можете добавлять вложения

Перейти:  
cron