Начать новую тему Ответить на тему
Статистика раздачи
Размер: 1.1 ГБ | Добавлен: 26 июн 2020, 18:57 | Скачали: 0
Сидеров: 0  [0 байт/сек]    Личеров: 0  [0 байт/сек]
Пред. тема | След. тема 

Автор
Сообщение

СообщениеДобавлено: 26 июн 2020, 18:57 

Ответить с цитатой 

Machineries of Joy, Vol. 2
Жанр: Rhythmic Noise / EBM / Dark Electro / Synth / Industrial
Носитель: CD
Страна-производитель диска (релиза): Germany
Год издания: 2002
Издатель (лейбл): Out of Line
Аудиокодек: FLAC (*.flac)
Тип рипа: image+.cue
Битрейт аудио: lossless
Продолжительность: 02:35:10
Источник (релизер): Собственный диск
Наличие сканов в содержимом раздачи: нет
Треклист:
01. Tristesse De La Lune - Dein Licht
02. Angels & Agony - Stormhead
03. Negative Format - Static
04. God Module - Perception
05. BlutEngel - Waiting For You
06. Matrix - Culture Of Shame
07. Absurd Minds - Masterbuilder (Rough-Mix)
08. Haujobb - A Terrifying Truth (v0.1)
09. Culture Kultr - Nemesis
10. Assemblage 23 - Document (Schreibgeschtzt Mix)
11. Headscan - Bluten
12. Signal Aout 42 - Last Quest (Conviction-Mix - Single Version)
13. Stromkern - Re-Align (Cut.Rate.Box.RMX)
14. Tumor - Two Seconds (Silent Assault RMX)
15. V.S.B. - Atomic Erotic
16. Sleepwalk - Hacker State
Продолжительность - 01:15:52
Код:
Exact Audio Copy V1.3 from 2. September 2016
EAC extraction logfile from 9. November 2018, 16:22
Various / Machineries Of Joy Vol. 2
Used drive  : MATSHITADVD-RAM UJ8E2Q   Adapter: 1  ID: 0
Read mode               : Secure
Utilize accurate stream : Yes
Defeat audio cache      : Yes
Make use of C2 pointers : No
Read offset correction                      : 103
Overread into Lead-In and Lead-Out          : No
Fill up missing offset samples with silence : Yes
Delete leading and trailing silent blocks   : No
Null samples used in CRC calculations       : Yes
Used interface                              : Native Win32 interface for Win NT & 2000
Used output format              : User Defined Encoder
Selected bitrate                : 1024 kBit/s
Quality                         : High
Add ID3 tag                     : No
Command line compressor         : C:\Users\User\flac-1.3.2-win\flac-1.3.2-win\win64\flac.exe
Additional command line options :  -8 -V -T "TITLE=%title%" -T "ARTIST=%artist%" -T "ALBUMARTIST=%albumartist%" -T "ALBUM=%albumtitle%" -T "DATE=%year%" -T "TRACKNUMBER=%tracknr%" -T "TRACKTOTAL=%numtracks%" -T "GENRE=%genre%" -T "COMMENT=%comment%" -T "PERFORMER=%albuminterpret%" -T "COMPOSER=%composer%" %source% -o %dest%
TOC of the extracted CD
     Track |   Start  |  Length  | Start sector | End sector
    ---------------------------------------------------------
        1  |  0:00.00 |  4:20.15 |         0    |    19514
        2  |  4:20.15 |  5:20.18 |     19515    |    43532
        3  |  9:40.33 |  6:12.31 |     43533    |    71463
        4  | 15:52.64 |  4:59.00 |     71464    |    93888
        5  | 20:51.64 |  4:02.12 |     93889    |   112050
        6  | 24:54.01 |  3:50.32 |    112051    |   129332
        7  | 28:44.33 |  4:50.34 |    129333    |   151116
        8  | 33:34.67 |  5:55.22 |    151117    |   177763
        9  | 39:30.14 |  4:49.25 |    177764    |   199463
       10  | 44:19.39 |  4:48.38 |    199464    |   221101
       11  | 49:08.02 |  4:49.53 |    221102    |   242829
       12  | 53:57.55 |  3:41.58 |    242830    |   259462
       13  | 57:39.38 |  4:36.42 |    259463    |   280204
       14  | 62:16.05 |  5:14.09 |    280205    |   303763
       15  | 67:30.14 |  4:20.62 |    303764    |   323325
       16  | 71:51.01 |  4:01.72 |    323326    |   341472
Range status and errors
Selected range
     Filename C:\Users\User\Desktop\CD 1\Various - Machineries Of Joy Vol. 2.wav
     Peak level 99.9 %
     Extraction speed 4.6 X
     Range quality 100.0 %
     Test CRC AA8F90DE
     Copy CRC AA8F90DE
     Copy OK
No errors occurred
AccurateRip summary
Track  1  accurately ripped (confidence 3)  [730191AD]  (AR v2)
Track  2  accurately ripped (confidence 3)  [86C072E7]  (AR v2)
Track  3  accurately ripped (confidence 3)  [A64B5588]  (AR v2)
Track  4  accurately ripped (confidence 3)  [A61BE8CB]  (AR v2)
Track  5  accurately ripped (confidence 3)  [CDD1B945]  (AR v2)
Track  6  accurately ripped (confidence 3)  [B7DBEC54]  (AR v2)
Track  7  accurately ripped (confidence 3)  [5FD557D1]  (AR v2)
Track  8  accurately ripped (confidence 3)  [83D7ADA5]  (AR v2)
Track  9  accurately ripped (confidence 3)  [E8FB29F8]  (AR v2)
Track 10  accurately ripped (confidence 3)  [AC061D7F]  (AR v2)
Track 11  accurately ripped (confidence 3)  [D5ABF6D6]  (AR v2)
Track 12  accurately ripped (confidence 3)  [E5E2E9E6]  (AR v2)
Track 13  accurately ripped (confidence 3)  [3CA35210]  (AR v2)
Track 14  accurately ripped (confidence 3)  [390DDF9D]  (AR v2)
Track 15  accurately ripped (confidence 3)  [12699F62]  (AR v2)
Track 16  accurately ripped (confidence 3)  [DDE49B21]  (AR v2)
All tracks accurately ripped
End of status report
---- CUETools DB Plugin V2.1.6
[CTDB TOCID: grAjJ411D7mF8qfVf3nracZKz9k-] found
Submit result: already submitted
Track | CTDB Status
  1   | (10/10) Accurately ripped
  2   | (10/10) Accurately ripped
  3   | (10/10) Accurately ripped
  4   | (10/10) Accurately ripped
  5   | (10/10) Accurately ripped
  6   | (10/10) Accurately ripped
  7   | (10/10) Accurately ripped
  8   | (10/10) Accurately ripped
  9   | (10/10) Accurately ripped
 10   | (10/10) Accurately ripped
 11   | (10/10) Accurately ripped
 12   | (10/10) Accurately ripped
 13   | ( 9/10) Accurately ripped
 14   | (10/10) Accurately ripped
 15   | (10/10) Accurately ripped
 16   | (10/10) Accurately ripped
==== Log checksum 74A7C3E19019C2E541343885883F12B35486BA0D88E90A9586EB782F1625FB81 ====
Треклист:
01. Hocico - La Gloria Del Odio
02. Accessory - A Nation
03. Decoded Feedback - Phoenix
04. Terminal Choise - Be Like Me (Joy Edit)
05. Mortiis - Smell The Witch
06. In Strict Confidence - Engelsstaub
07. Cephalgy - Weies Fleisch
08. Amduscia - Profano Tu Cruz (Edit)
09. The Azoic - Lost
10. Solitary Experiments - The Essence Of Mind ([:SITD:] Mix)
11. Soman - Divine (Remix)
12. Chris Liebing - Gassenhauer
13. Dulce Liquido - Lamb's Creed
14. Stigmata - 08/10
15. KiEw - Sojifu
16. Terrorfakt - A.L.F.
Продолжительность - 01:19:18
Код:
Exact Audio Copy V1.3 from 2. September 2016
EAC extraction logfile from 9. November 2018, 14:11
Various Artists / Machineries of Joy, Volume 2
Used drive  : MATSHITADVD-RAM UJ8E2Q   Adapter: 1  ID: 0
Read mode               : Secure
Utilize accurate stream : Yes
Defeat audio cache      : Yes
Make use of C2 pointers : No
Read offset correction                      : 103
Overread into Lead-In and Lead-Out          : No
Fill up missing offset samples with silence : Yes
Delete leading and trailing silent blocks   : No
Null samples used in CRC calculations       : Yes
Used interface                              : Native Win32 interface for Win NT & 2000
Used output format              : User Defined Encoder
Selected bitrate                : 1024 kBit/s
Quality                         : High
Add ID3 tag                     : No
Command line compressor         : C:\Users\User\flac-1.3.2-win\flac-1.3.2-win\win64\flac.exe
Additional command line options :  -8 -V -T "TITLE=%title%" -T "ARTIST=%artist%" -T "ALBUMARTIST=%albumartist%" -T "ALBUM=%albumtitle%" -T "DATE=%year%" -T "TRACKNUMBER=%tracknr%" -T "TRACKTOTAL=%numtracks%" -T "GENRE=%genre%" -T "COMMENT=%comment%" -T "PERFORMER=%albuminterpret%" -T "COMPOSER=%composer%" %source% -o %dest%
TOC of the extracted CD
     Track |   Start  |  Length  | Start sector | End sector
    ---------------------------------------------------------
        1  |  0:00.00 |  5:18.19 |         0    |    23868
        2  |  5:18.19 |  4:50.34 |     23869    |    45652
        3  | 10:08.53 |  5:15.14 |     45653    |    69291
        4  | 15:23.67 |  3:37.56 |     69292    |    85622
        5  | 19:01.48 |  5:43.26 |     85623    |   111373
        6  | 24:44.74 |  4:53.06 |    111374    |   133354
        7  | 29:38.05 |  3:36.46 |    133355    |   149600
        8  | 33:14.51 |  5:20.62 |    149601    |   173662
        9  | 38:35.38 |  4:55.46 |    173663    |   195833
       10  | 43:31.09 |  5:40.69 |    195834    |   221402
       11  | 49:12.03 |  4:34.26 |    221403    |   241978
       12  | 53:46.29 |  8:24.36 |    241979    |   279814
       13  | 62:10.65 |  5:07.63 |    279815    |   302902
       14  | 67:18.53 |  4:15.74 |    302903    |   322101
       15  | 71:34.52 |  3:53.39 |    322102    |   339615
       16  | 75:28.16 |  3:50.14 |    339616    |   356879
Range status and errors
Selected range
     Filename C:\Users\User\Desktop\CD 2\Various Artists - Machineries of Joy, Volume 2.wav
     Peak level 99.8 %
     Extraction speed 4.6 X
     Range quality 100.0 %
     Test CRC DD33966D
     Copy CRC DD33966D
     Copy OK
No errors occurred
AccurateRip summary
Track  1  accurately ripped (confidence 3)  [246EA9BD]  (AR v2)
Track  2  accurately ripped (confidence 3)  [73F0B14D]  (AR v2)
Track  3  accurately ripped (confidence 3)  [819E56B4]  (AR v2)
Track  4  accurately ripped (confidence 3)  [7C24A2D4]  (AR v2)
Track  5  accurately ripped (confidence 3)  [0C0FCDD9]  (AR v2)
Track  6  accurately ripped (confidence 3)  [21029E3E]  (AR v2)
Track  7  accurately ripped (confidence 3)  [4B26C857]  (AR v2)
Track  8  accurately ripped (confidence 3)  [9A1FEAFB]  (AR v2)
Track  9  accurately ripped (confidence 3)  [B6D4A60D]  (AR v2)
Track 10  accurately ripped (confidence 3)  [00C25EB4]  (AR v2)
Track 11  accurately ripped (confidence 3)  [9BF924D7]  (AR v2)
Track 12  accurately ripped (confidence 3)  [C63ABA87]  (AR v2)
Track 13  accurately ripped (confidence 3)  [321BE7A5]  (AR v2)
Track 14  accurately ripped (confidence 3)  [5EE742AC]  (AR v2)
Track 15  accurately ripped (confidence 3)  [75D8AAF3]  (AR v2)
Track 16  accurately ripped (confidence 3)  [1D6A9EDC]  (AR v2)
All tracks accurately ripped
End of status report
---- CUETools DB Plugin V2.1.6
[CTDB TOCID: GyGrqaKPyfF0qHK0obXCxbQSVXs-] found
Submit result: GyGrqaKPyfF0qHK0obXCxbQSVXs- has been confirmed
Track | CTDB Status
  1   | (9/9) Accurately ripped
  2   | (9/9) Accurately ripped
  3   | (9/9) Accurately ripped
  4   | (9/9) Accurately ripped
  5   | (9/9) Accurately ripped
  6   | (9/9) Accurately ripped
  7   | (9/9) Accurately ripped
  8   | (9/9) Accurately ripped
  9   | (9/9) Accurately ripped
 10   | (9/9) Accurately ripped
 11   | (9/9) Accurately ripped
 12   | (9/9) Accurately ripped
 13   | (9/9) Accurately ripped
 14   | (9/9) Accurately ripped
 15   | (9/9) Accurately ripped
 16   | (9/9) Accurately ripped
==== Log checksum 2530ABA3BBF2728106C38F836A73C71B50DDEBD60FEBB3E2A742C143DCF4A0B3 ====
Правила, инструкции, FAQ!!!
Торрент  Добавлен [26 июн 2020, 18:57] Скачать торрент Магнет ссылка
Скачать торрент
[ Размер 11.89 КБ / Просмотров 11 ]

Статус
Проверен 
 
Размер  1.1 ГБ
Приватный: Нет (DHT включён)
.torrent скачан  0
 


     Отправить личное сообщение
   
Страница 1 из 1
Показать сообщения за:  Поле сортировки  
Начать новую тему Ответить на тему


Сейчас этот форум просматривают: нет зарегистрированных пользователей и гости: 0


Вы не можете начинать темы
Вы не можете отвечать на сообщения
Вы не можете редактировать свои сообщения
Вы не можете удалять свои сообщения
Вы не можете добавлять вложения

Перейти:  
cron