Начать новую тему Ответить на тему
Статистика раздачи
Размер: 249.7 МБ | Добавлен: 01 янв 2020, 23:01 | Скачали: 0
Сидеров: 0  [0 байт/сек]    Личеров: 0  [0 байт/сек]
Пред. тема | След. тема 

Автор
Сообщение

СообщениеДобавлено: 01 янв 2020, 23:01 

Ответить с цитатой 

Various Artists - Les Plus Belles Chansons Francaises - 1964
#777 Жанр: Retro
Год выпуска диска
: 1996
Производитель диска: France (Atlas)
Аудио кодек: APE
Тип рипа: image+.cue
Битрейт аудио: lossless
Продолжительность: 1h 10m
Трэклист:
01. Daniel Guichard / Amsterdam
02. Didier Barbelivien / Dиs que le printemps revient
03. Marie-Paule Belle / Il pleut sur Nantes
04. C. Jйrome / Biche Oh ma Biche
05. Marie Myriam / La plus belle pour aller danser
06. Yves Duteil / Nathalie
07. Fabienne Thibeault / Les parapluies de Cherbourg
08. Gerard Lenorman / Nous dormirons ensemble
09. Vincent Boutry / A prйsent tu peux t'en aller
10. Richard Anthony / Ma vie
11. Alice Dona / Laisse tomber les filles
12. Dave / Vous permettez Monsieur
13. Richard Gotainer / Vous les copains
14. Serge Lama / Et pourtant
Код:
Exact Audio Copy V0.99 prebeta 4 from 23. January 2008
EAC extraction logfile from 15. November 2008, 19:36
Artistes Variйs / Les Plus Belles Chansons Franзaises - 1964
Used drive  : HL-DT-STDVDRAM GSA-4163B   Adapter: 0  ID: 1
Read mode               : Secure
Utilize accurate stream : Yes
Defeat audio cache      : Yes
Make use of C2 pointers : No
Read offset correction                      : 667
Overread into Lead-In and Lead-Out          : No
Fill up missing offset samples with silence : Yes
Delete leading and trailing silent blocks   : No
Null samples used in CRC calculations       : Yes
Used interface                              : Native Win32 interface for Win NT & 2000
Used output format : Internal WAV Routines
Sample format      : 44.100 Hz; 16 Bit; Stereo
TOC of the extracted CD
     Track |   Start  |  Length  | Start sector | End sector
    ---------------------------------------------------------
        1  |  0:00.32 |  3:17.68 |        32    |    14874
        2  |  3:18.25 |  3:09.45 |     14875    |    29094
        3  |  6:27.70 |  4:32.27 |     29095    |    49521
        4  | 11:00.22 |  2:18.38 |     49522    |    59909
        5  | 13:18.60 |  2:45.40 |     59910    |    72324
        6  | 16:04.25 |  3:54.37 |     72325    |    89911
        7  | 19:58.62 |  4:27.55 |     89912    |   109991
        8  | 24:26.42 |  2:31.13 |    109992    |   121329
        9  | 26:57.55 |  2:41.52 |    121330    |   133456
       10  | 29:39.32 |  4:09.48 |    133457    |   152179
       11  | 33:49.05 |  2:08.10 |    152180    |   161789
       12  | 35:57.15 |  2:58.30 |    161790    |   175169
       13  | 38:55.45 |  2:12.47 |    175170    |   185116
       14  | 41:08.17 |  2:59.30 |    185117    |   198571
Range status and errors
Selected range
     Filename My Documents\My Music\Artistes Variйs - Les Plus Belles Chansons Franзaises - 1964.wav
     Peak level 100.0 %
     Range quality 100.0 %
     Copy CRC 23DECE2E
     Copy OK
No errors occurred
AccurateRip summary
Track  1  not present in database
Track  2  not present in database
Track  3  not present in database
Track  4  not present in database
Track  5  not present in database
Track  6  not present in database
Track  7  not present in database
Track  8  not present in database
Track  9  not present in database
Track 10  not present in database
Track 11  not present in database
Track 12  not present in database
Track 13  not present in database
Track 14  not present in database
None of the tracks are present in the AccurateRip database
End of status report
Правила, инструкции, FAQ!!!
Торрент  Добавлен [01 янв 2020, 23:01] Скачать торрент Магнет ссылка
Скачать торрент
[ Размер 39.97 КБ / Просмотров 5 ]

Статус
Проверен 
 
Размер  249.7 МБ
Приватный: Нет (DHT включён)
.torrent скачан  0
 


     Отправить личное сообщение
   
Страница 1 из 1
Показать сообщения за:  Поле сортировки  
Начать новую тему Ответить на тему


Сейчас этот форум просматривают: нет зарегистрированных пользователей и гости: 0


Вы не можете начинать темы
Вы не можете отвечать на сообщения
Вы не можете редактировать свои сообщения
Вы не можете удалять свои сообщения
Вы не можете добавлять вложения

Перейти:  
cron