Начать новую тему Ответить на тему
Статистика раздачи
Размер: 26.11 ГБ | Добавлен: 03 янв 2021, 08:54 | Скачали: 1
Сидеров: 6  [0 байт/сек]    Личеров: 2  [0 байт/сек]
Пред. тема | След. тема 

Автор
Сообщение

СообщениеДобавлено: 03 янв 2021, 08:54 

Ответить с цитатой 


Часть 1

Проекты:
Вячеслав Кукоба, группа Гуляночка, группа Дядя Боря, группа Экспресс, гурт Експрес, гурт Козятинські козаки
Жанр: Retro-Chanson, Folk, Foxtrot
Носитель: CD + Stream
Года выпуска: 2004-2012
Страна исполнителя: Украина
Аудио кодек: FLAC
Тип рипа: image+.cue/tracks
Битрейт аудио: lossless
Продолжительность: 56:48:10
Источник:
CD-рип - SVSSTUDIO
Stream-relies - Tidal
Наличие сканов в содержимом раздачи:
CD-rip - да
Stream-relies - нет
Источник: Tidal
#77701. Три гички з перцем
02. Булькотить горілка
03. Банька з кумою
04. Залетіла дівка
05. Гарбузи вродили
06. Холєра ясна
07. А ти бабоне кричи
08. Коньячок
09. Оковита
10. Сваха полюбила свата
11. Свадьбабуде всб неділю
12. Конопля
13. Ой яке весілля
14. Шинок і чарочка
Код:
foobar2000 1.3.19 / Замер динамического диапазона (DR) 1.1.1
Дата отчёта:  2020-12-19 15:44:17
--------------------------------------------------------------------------------
Анализ:   Вячеслав Кукоба / Три гички з перцем
--------------------------------------------------------------------------------
DR         Пики         RMS           Продолжительность трека
--------------------------------------------------------------------------------
DR7        0.00 дБ    -7.63 дБ      4:44 01-Три гички з перцем
DR7        0.00 дБ    -7.67 дБ      3:32 02-Булькотить горілка
DR7        0.00 дБ    -8.34 дБ      4:06 03-Банька з кумою
DR7        0.00 дБ    -7.66 дБ      3:14 04-Залетіла дівка
DR6       -1.02 дБ    -7.67 дБ      3:22 05-Гарбузи вродили
DR7        0.00 дБ    -7.30 дБ      3:10 06-Холєра ясна
DR7        0.00 дБ    -8.09 дБ      3:12 07-А ти бабоне кричи
DR6        0.00 дБ    -6.85 дБ      3:49 08-Коньячок
DR5       -0.39 дБ    -6.90 дБ      3:59 09-Оковита
DR7        0.00 дБ    -8.03 дБ      3:53 10-Сваха полюбила свата
DR8        0.00 дБ    -8.26 дБ      3:19 11-Свадьбабуде всб неділю
DR7        0.00 дБ    -8.34 дБ      2:55 12-Конопля
DR6        0.00 дБ    -6.77 дБ      3:33 13-Ой яке весілля
DR7        0.00 дБ    -7.73 дБ      3:01 14-Шинок і чарочка
--------------------------------------------------------------------------------
Количество треков: 14
Реальные значения DR: DR7
Частота:   44100 Гц
Каналов:   2
Разрядность:   16
Битрейт:   1076 кбит/с
Кодек:   FLAC
Код:
AUDIOCHECKER v2.0 beta (build 457) - by Dester - opdester@freemail.hu
~~~~~~~~~~~~~~~~~~~~~~~~~~~~~~~~~~
-=== DO NOT EDIT THIS FILE! ===-
Path: ...\2007 - Три гички з перцем
001 -=- 01 Три гички з перцем.flac -=- CDDA (100%)
002 -=- 02 Булькотить горілка.flac -=- CDDA (100%)
003 -=- 03 Банька з кумою.flac -=- CDDA (100%)
004 -=- 04 Залетіла дівка.flac -=- CDDA (100%)
005 -=- 05 Гарбузи вродили.flac -=- CDDA (100%)
006 -=- 06 Холєра ясна.flac -=- CDDA (100%)
007 -=- 07 А ти бабоне кричи.flac -=- CDDA (99%)
008 -=- 08 Коньячок.flac -=- CDDA (100%)
009 -=- 09 Оковита.flac -=- CDDA (100%)
010 -=- 10 Сваха полюбила свата.flac -=- CDDA (100%)
011 -=- 11 Свадьбабуде всб неділю.flac -=- CDDA (100%)
012 -=- 12 Конопля.flac -=- CDDA (100%)
013 -=- 13 Ой яке весілля.flac -=- CDDA (100%)
014 -=- 14 Шинок і чарочка.flac -=- CDDA (100%)
Summary 99,93% CDDA
241771108
Источник: Tidal
#77701. Біла гарячка
02. Весільний канкан
03. Весільний тарантас
04. Гоп-ца!
05. Гоп-ца-ца, Ч. 2
06. За затя!
07. Ми з кумою любим танці
08. На тім світі - наливай
09. Оженюсь
10. Ой прийшов на первачок
11. Ой, поїдем, куме, до канади
12. Під горілку
13. Погуляли на весіллі
14. Сало, як наркотик
15. Самогон у баба Параски
16. У шинку, милая
17. Чубчик
Код:
foobar2000 1.3.19 / Замер динамического диапазона (DR) 1.1.1
Дата отчёта:  2020-12-19 15:47:07
--------------------------------------------------------------------------------
Анализ:   Вячеслав Кукоба / Ми з кумою любим танці
--------------------------------------------------------------------------------
DR         Пики         RMS           Продолжительность трека
--------------------------------------------------------------------------------
DR6        0.00 дБ    -7.40 дБ      2:39 01-Біла гарячка
DR8        0.00 дБ    -8.27 дБ      2:55 02-Весільний канкан
DR6       -0.16 дБ    -6.93 дБ      3:21 03-Весільний тарантас
DR7        0.00 дБ    -8.14 дБ      3:02 04-Гоп-ца!
DR6        0.00 дБ    -7.35 дБ      3:24 05-Гоп-ца-ца, Ч. 2
DR6        0.00 дБ    -6.90 дБ      2:52 06-За затя!
DR6        0.00 дБ    -6.81 дБ      3:36 07-Ми з кумою любим танці
DR5        0.00 дБ    -6.36 дБ      3:33 08-На тім світі - наливай
DR5        0.00 дБ    -6.86 дБ      3:15 09-Оженюсь
DR6        0.00 дБ    -7.24 дБ      3:39 10-Ой прийшов на первачок
DR7        0.00 дБ    -8.11 дБ      3:17 11-Ой, поїдем, куме, до канади
DR6        0.00 дБ    -7.35 дБ      2:49 12-Під горілку
DR7        0.00 дБ    -7.82 дБ      3:26 13-Погуляли на весіллі
DR6        0.00 дБ    -7.20 дБ      3:03 14-Сало, як наркотик
DR6        0.00 дБ    -7.29 дБ      3:25 15-Самогон у баба Параски
DR6        0.00 дБ    -6.75 дБ      3:06 16-У шинку, милая
DR7        0.00 дБ    -7.40 дБ      3:25 17-Чубчик
--------------------------------------------------------------------------------
Количество треков: 17
Реальные значения DR: DR6
Частота:   44100 Гц
Каналов:   2
Разрядность:   16
Битрейт:   1088 кбит/с
Кодек:   FLAC
Код:
AUDIOCHECKER v2.0 beta (build 457) - by Dester - opdester@freemail.hu
~~~~~~~~~~~~~~~~~~~~~~~~~~~~~~~~~~
-=== DO NOT EDIT THIS FILE! ===-
Path: ...\2019 - Ми з кумою любим танці
001 -=- 01 Біла гарячка.flac -=- CDDA (100%)
002 -=- 02 Весільний канкан.flac -=- CDDA (100%)
003 -=- 03 Весільний тарантас.flac -=- CDDA (100%)
004 -=- 04 Гоп-ца!.flac -=- CDDA (99%)
005 -=- 05 Гоп-ца-ца, Ч. 2.flac -=- CDDA (99%)
006 -=- 06 За затя!.flac -=- CDDA (100%)
007 -=- 07 Ми з кумою любим танці.flac -=- CDDA (100%)
008 -=- 08 На тім світі - наливай.flac -=- CDDA (100%)
009 -=- 09 Оженюсь.flac -=- CDDA (100%)
010 -=- 10 Ой прийшов на первачок.flac -=- CDDA (100%)
011 -=- 11 Ой, поїдем, куме, до канади.flac -=- CDDA (100%)
012 -=- 12 Під горілку.flac -=- CDDA (100%)
013 -=- 13 Погуляли на весіллі.flac -=- CDDA (99%)
014 -=- 14 Сало, як наркотик.flac -=- CDDA (100%)
015 -=- 15 Самогон у баба Параски.flac -=- CDDA (100%)
016 -=- 16 У шинку, милая.flac -=- CDDA (100%)
017 -=- 17 Чубчик.flac -=- CDDA (100%)
Summary 99,82% CDDA
245875588
Источник: Tidal
#77701. Самогон
02. На весіллі гуляв
03. Ой, моя теща
04. Поїду в Америку
05. Свати
06. Сині морди
07. Багата наречена
08. Гадом буду - не забуду
09. Весілля тракториста
10. Кабанчик
11. Тамада
12. Медовуха
Код:
foobar2000 1.3.19 / Замер динамического диапазона (DR) 1.1.1
Дата отчёта:  2020-12-19 15:50:19
--------------------------------------------------------------------------------
Анализ:   В'ячеслав Кукоба / Весілля від дядька Кукоби Ч. 1
--------------------------------------------------------------------------------
DR         Пики         RMS           Продолжительность трека
--------------------------------------------------------------------------------
DR6       -1.16 дБ    -8.55 дБ      4:02 01-Самогон
DR6       -1.16 дБ    -8.42 дБ      3:29 02-На весіллі гуляв
DR7       -1.16 дБ    -8.39 дБ      3:28 03-Ой, моя теща
DR6       -1.16 дБ    -8.02 дБ      3:30 04-Поїду в Америку
DR6       -1.16 дБ    -8.57 дБ      3:05 05-Свати
DR5       -1.16 дБ    -7.99 дБ      4:04 06-Сині морди
DR7       -1.16 дБ    -8.78 дБ      3:11 07-Багата наречена
DR7       -1.16 дБ    -9.48 дБ      4:39 08-Гадом буду - не забуду
DR5       -1.16 дБ    -7.87 дБ      3:33 09-Весілля тракториста
DR6       -1.16 дБ    -7.86 дБ      3:20 10-Кабанчик
DR7       -1.16 дБ    -8.78 дБ      2:57 11-Тамада
DR6       -1.16 дБ    -8.55 дБ      3:58 12-Медовуха
--------------------------------------------------------------------------------
Количество треков: 12
Реальные значения DR: DR6
Частота:   44100 Гц
Каналов:   2
Разрядность:   16
Битрейт:   1078 кбит/с
Кодек:   FLAC
Код:
AUDIOCHECKER v2.0 beta (build 457) - by Dester - opdester@freemail.hu
~~~~~~~~~~~~~~~~~~~~~~~~~~~~~~~~~~
-=== DO NOT EDIT THIS FILE! ===-
Path: ...\Часть 1
001 -=- 01 Самогон.flac -=- CDDA (100%)
002 -=- 02 На весіллі гуляв.flac -=- CDDA (100%)
003 -=- 03 Ой, моя теща.flac -=- CDDA (100%)
004 -=- 04 Поїду в Америку.flac -=- CDDA (100%)
005 -=- 05 Свати.flac -=- CDDA (100%)
006 -=- 06 Сині морди.flac -=- CDDA (100%)
007 -=- 07 Багата наречена.flac -=- CDDA (100%)
008 -=- 08 Гадом буду - не забуду.flac -=- CDDA (100%)
009 -=- 09 Весілля тракториста.flac -=- CDDA (100%)
010 -=- 10 Кабанчик.flac -=- CDDA (100%)
011 -=- 11 Тамада.flac -=- CDDA (100%)
012 -=- 12 Медовуха.flac -=- CDDA (100%)
Summary 100,00% CDDA
71372772
Источник: Tidal
#77701. На весіллі у дядька Кукоби
02. Бурячиха
03. Грузин і україночка
04. Танці до упаду
05. П'янички
06. Тракторист
07. Хлопець колобок
08. Ти чувак і я чувак
09. Танго про манго
10. Я на ліво, ти на право
11. Дівчина калина
12. На танцях
Код:
foobar2000 1.3.19 / Замер динамического диапазона (DR) 1.1.1
Дата отчёта:  2020-12-19 15:53:08
--------------------------------------------------------------------------------
Анализ:   В'ячеслав Кукоба / Весілля від дядька Кукоби, Ч. 2
--------------------------------------------------------------------------------
DR         Пики         RMS           Продолжительность трека
--------------------------------------------------------------------------------
DR7       -0.30 дБ    -8.36 дБ      3:15 01-На весіллі у дядька Кукоби
DR6       -0.30 дБ    -7.21 дБ      3:34 02-Бурячиха
DR7       -0.30 дБ    -8.21 дБ      3:22 03-Грузин і україночка
DR7       -0.30 дБ    -7.94 дБ      3:04 04-Танці до упаду
DR7       -0.30 дБ    -8.45 дБ      3:05 05-П'янички
DR8       -0.30 дБ    -9.46 дБ      3:13 06-Тракторист
DR7       -0.30 дБ    -8.38 дБ      3:23 07-Хлопець колобок
DR8       -0.30 дБ    -8.74 дБ      3:16 08-Ти чувак і я чувак
DR9       -0.30 дБ   -10.60 дБ      3:17 09-Танго про манго
DR6       -1.08 дБ    -8.28 дБ      3:14 10-Я на ліво, ти на право
DR8       -0.30 дБ    -9.31 дБ      3:29 11-Дівчина калина
DR8       -0.30 дБ    -8.36 дБ      3:18 12-На танцях
--------------------------------------------------------------------------------
Количество треков: 12
Реальные значения DR: DR7
Частота:   44100 Гц
Каналов:   2
Разрядность:   16
Битрейт:   999 кбит/с
Кодек:   FLAC
Код:
AUDIOCHECKER v2.0 beta (build 457) - by Dester - opdester@freemail.hu
~~~~~~~~~~~~~~~~~~~~~~~~~~~~~~~~~~
-=== DO NOT EDIT THIS FILE! ===-
Path: ...\Часть 2
001 -=- 01 На весіллі у дядька Кукоби.flac -=- CDDA (100%)
002 -=- 02 Бурячиха.flac -=- CDDA (100%)
003 -=- 03 Грузин і україночка.flac -=- CDDA (100%)
004 -=- 04 Танці до упаду.flac -=- CDDA (100%)
005 -=- 05 П'янички.flac -=- CDDA (100%)
006 -=- 06 Тракторист.flac -=- CDDA (100%)
007 -=- 07 Хлопець колобок.flac -=- CDDA (100%)
008 -=- 08 Ти чувак і я чувак.flac -=- CDDA (100%)
009 -=- 09 Танго про манго.flac -=- CDDA (100%)
010 -=- 10 Я на ліво, ти на право.flac -=- CDDA (100%)
011 -=- 11 Дівчина калина.flac -=- CDDA (100%)
012 -=- 12 На танцях.flac -=- CDDA (100%)
Summary 100,00% CDDA
143765044
Источник: Tidal
#77701. В'ячеслав Кукоба - Гуляє весілля у дядька Кукоби
02. В'ячеслав Кукоба - Лягав-гав-гав
03. В'ячеслав Кукоба, Віктор Кавун - Два кума
04. Раїса Поштар - Ти до мене не ходи
05. В'ячеслав Кукоба - Сало "ай-лав-ю"
06. Віктор Кавун - Нащо, ой дурень, оженився
07. В'ячеслав Кукоба - Весільні чоботи
08. Раїса Поштар - Україночка співає
09. В'ячеслав Кукоба - Знайду дівку другу
10. Віктор Кавун - Петлюрівська гармошка
11. Раїса Поштар - Моя родина
12. Віктор Кавун - Солоха
13. Віктор Кавун - Спасибі мамо, спасибі, тато
14. Раїса Поштар - Зозуле
15. В'ячеслав Кукоба - Весілля та бійка
16. В'ячеслав Кукоба - Будем пити - не тужити
Код:
foobar2000 1.3.19 / Замер динамического диапазона (DR) 1.1.1
Дата отчёта:  2020-12-19 15:55:38
--------------------------------------------------------------------------------
Анализ:   Віктор Кавун / Весілля від дядька Кукоби Ч. 3 (1-4)
          В'ячеслав Кукоба, Віктор Кавун / Весілля від дядька Кукоби Ч. 3 (5)
          В'ячеслав Кукоба / Весілля від дядька Кукоби Ч. 3 (6-12)
          Раїса Поштар / Весілля від дядька Кукоби Ч. 3 (13-16)
--------------------------------------------------------------------------------
DR         Пики         RMS           Продолжительность трека
--------------------------------------------------------------------------------
DR8        0.00 дБ    -8.69 дБ      3:40 06-Нащо, ой дурень, оженився
DR8        0.00 дБ    -9.60 дБ      3:56 10-Петлюрівська гармошка
DR7        0.00 дБ    -8.37 дБ      3:37 12-Солоха
DR9        0.00 дБ   -10.44 дБ      3:27 13-Спасибі мамо, спасибі, тато
DR7        0.00 дБ    -8.62 дБ      2:55 03-Два кума
DR7        0.00 дБ    -8.27 дБ      4:36 01-Гуляє весілля у дядька Кукоби
DR8        0.00 дБ    -9.16 дБ      2:57 02-Лягав-гав-гав
DR7        0.00 дБ    -8.19 дБ      4:00 05-Сало "ай-лав-ю"
DR9        0.00 дБ   -10.04 дБ      2:55 07-Весільні чоботи
DR10       0.00 дБ   -10.98 дБ      3:36 09-Знайду дівку другу
DR10       0.00 дБ   -10.85 дБ      4:17 15-Весілля та бійка
DR9        0.00 дБ    -9.63 дБ      2:53 16-Будем пити - не тужити
DR9        0.00 дБ   -10.04 дБ      3:32 04-Ти до мене не ходи
DR9        0.00 дБ   -10.71 дБ      3:58 08-Україночка співає
DR6        0.00 дБ    -7.26 дБ      3:36 11-Моя родина
DR9        0.00 дБ   -10.66 дБ      3:36 14-Зозуле
--------------------------------------------------------------------------------
Количество треков: 16
Реальные значения DR: DR8
Частота:   44100 Гц
Каналов:   2
Разрядность:   16
Битрейт:   1035 кбит/с
Кодек:   FLAC
Код:
AUDIOCHECKER v2.0 beta (build 457) - by Dester - opdester@freemail.hu
~~~~~~~~~~~~~~~~~~~~~~~~~~~~~~~~~~
-=== DO NOT EDIT THIS FILE! ===-
Path: ...\Часть 3
001 -=- 01 Гуляє весілля у дядька Кукоби.flac -=- CDDA (100%)
002 -=- 02 Лягав-гав-гав.flac -=- CDDA (100%)
003 -=- 03 Два кума.flac -=- CDDA (100%)
004 -=- 04 Ти до мене не ходи.flac -=- CDDA (100%)
005 -=- 05 Сало -ай-лав-ю-.flac -=- CDDA (100%)
006 -=- 06 Нащо, ой дурень, оженився.flac -=- CDDA (99%)
007 -=- 07 Весільні чоботи.flac -=- CDDA (100%)
008 -=- 08 Україночка співає.flac -=- CDDA (100%)
009 -=- 09 Знайду дівку другу.flac -=- CDDA (100%)
010 -=- 10 Петлюрівська гармошка.flac -=- CDDA (100%)
011 -=- 11 Моя родина.flac -=- CDDA (100%)
012 -=- 12 Солоха.flac -=- CDDA (100%)
013 -=- 13 Спасибі мамо, спасибі, тато.flac -=- CDDA (100%)
014 -=- 14 Зозуле.flac -=- CDDA (100%)
015 -=- 15 Весілля та бійка.flac -=- CDDA (100%)
016 -=- 16 Будем пити - не тужити.flac -=- CDDA (100%)
Summary 99,94% CDDA
121507732
Источник: Tidal
#77701. В'ячеслав Кукоба - А мені все по цимбалам
02. Інна Книжник - Дядьку Яша, я не ваша
03. В'ячеслав Кукоба - Я кохаю, мамо
04. Борис Сичевський - Буги вуги
05. В'ячеслав Кукоба - Мамо, хочеться гуляти
06. Інна Книжник - А жених у мене молодий
07. В'ячеслав Кукоба - А під пиво рибка
08. Володимир Іжицький - Полісяночка
09. В'ячеслав Кукоба - Старенький клуб
10. Інна Книжник - Краще б ви хлопці не ходили
11. В'ячеслав Кукоба - Тракторист - 3
12. В'ячеслав Кукоба - Чого мене ковбасить
13. Інна Книжник - Триндички
14. В'ячеслав Кукоба - Медовуху наливай
Код:
foobar2000 1.3.19 / Замер динамического диапазона (DR) 1.1.1
Дата отчёта:  2020-12-19 15:57:25
--------------------------------------------------------------------------------
Анализ:   Борис Сичевський / Весілля від дядька Кукоби Ч. 4 (1)
          Володимир Іжицький / Весілля від дядька Кукоби Ч. 4 (2)
          В'ячеслав Кукоба / Весілля від дядька Кукоби Ч. 4 (3-10)
          Інна Книжник / Весілля від дядька Кукоби Ч. 4 (11-14)
--------------------------------------------------------------------------------
DR         Пики         RMS           Продолжительность трека
--------------------------------------------------------------------------------
DR7        0.00 дБ    -7.89 дБ      3:25 04-Буги вуги
DR7        0.00 дБ    -8.54 дБ      2:53 08-Полісяночка
DR7        0.00 дБ    -8.28 дБ      3:43 01-А мені все по цимбалам
DR8        0.00 дБ    -8.61 дБ      4:09 03-Я кохаю, мамо
DR7        0.00 дБ    -8.14 дБ      3:42 05-Мамо, хочеться гуляти
DR7        0.00 дБ    -7.91 дБ      3:28 07-А під пиво рибка
DR7        0.00 дБ    -7.95 дБ      3:07 09-Старенький клуб
DR7        0.00 дБ    -7.48 дБ      3:40 11-Тракторист - 3
DR7        0.00 дБ    -7.97 дБ      3:18 12-Чого мене ковбасить
DR6        0.00 дБ    -6.93 дБ      3:37 14-Медовуху наливай
DR7        0.00 дБ    -7.77 дБ      3:33 02-Дядьку Яша, я не ваша
DR7        0.00 дБ    -8.32 дБ      2:57 06-А жених у мене молодий
DR7        0.00 дБ    -7.87 дБ      3:37 10-Краще б ви хлопці не ходили
DR7        0.00 дБ    -7.71 дБ      3:19 13-Триндички
--------------------------------------------------------------------------------
Количество треков: 14
Реальные значения DR: DR7
Частота:   44100 Гц
Каналов:   2
Разрядность:   16
Битрейт:   1083 кбит/с
Кодек:   FLAC
Код:
AUDIOCHECKER v2.0 beta (build 457) - by Dester - opdester@freemail.hu
~~~~~~~~~~~~~~~~~~~~~~~~~~~~~~~~~~
-=== DO NOT EDIT THIS FILE! ===-
Path: ...\Часть 4
001 -=- 01 А мені все по цимбалам.flac -=- CDDA (100%)
002 -=- 02 Дядьку Яша, я не ваша.flac -=- CDDA (100%)
003 -=- 03 Я кохаю, мамо.flac -=- CDDA (100%)
004 -=- 04 Буги вуги.flac -=- CDDA (99%)
005 -=- 05 Мамо, хочеться гуляти.flac -=- CDDA (99%)
006 -=- 06 А жених у мене молодий.flac -=- CDDA (99%)
007 -=- 07 А під пиво рибка.flac -=- CDDA (99%)
008 -=- 08 Полісяночка.flac -=- CDDA (99%)
009 -=- 09 Старенький клуб.flac -=- CDDA (100%)
010 -=- 10 Краще б ви хлопці не ходили.flac -=- CDDA (100%)
011 -=- 11 Тракторист - 3.flac -=- CDDA (99%)
012 -=- 12 Чого мене ковбасить.flac -=- CDDA (99%)
013 -=- 13 Триндички.flac -=- CDDA (99%)
014 -=- 14 Медовуху наливай.flac -=- CDDA (99%)
Summary 99,36% CDDA
222481268
Источник: Tidal
#77701. Гнали, та й гонимо
02. Сваха
03. У корчмі
04. Женишок
05. У пивному барі
06. За здоров'я молодих келих піднімай!
07. Ой, весілля
08. Моя теща добре серце має
09. А весілля, та й гуде
10. Первачок наливай
11. Де ти, наречена
12. Катерина
13. Гарна пара
14. Гей, хлопці, шикі-дим
15. Дай, кумонька, мені
16. Кожній тварі по парі
17. А він мене так
18. Полька грає
19. У Солохи
20. Нащо, люба, губи дмеш
21. Ой, виходь за мене
Код:
foobar2000 1.3.19 / Замер динамического диапазона (DR) 1.1.1
Дата отчёта:  2020-12-19 15:59:17
--------------------------------------------------------------------------------
Анализ:   В'ячеслав Кукоба / Гарна пара
--------------------------------------------------------------------------------
DR         Пики         RMS           Продолжительность трека
--------------------------------------------------------------------------------
DR8        0.00 дБ    -8.71 дБ      2:55 01-Гнали, та й гонимо
DR8        0.00 дБ    -8.47 дБ      3:12 02-Сваха
DR8        0.00 дБ    -8.54 дБ      3:25 03-У корчмі
DR7        0.00 дБ    -7.97 дБ      3:21 04-Женишок
DR7        0.00 дБ    -8.08 дБ      3:01 05-У пивному барі
DR6        0.00 дБ    -6.84 дБ      3:30 06-За здоров'я молодих келих піднімай!
DR6        0.00 дБ    -7.17 дБ      3:44 07-Ой, весілля
DR7        0.00 дБ    -8.26 дБ      3:38 08-Моя теща добре серце має
DR6        0.00 дБ    -7.41 дБ      3:18 09-А весілля, та й гуде
DR7        0.00 дБ    -7.83 дБ      3:19 10-Первачок наливай
DR6        0.00 дБ    -7.39 дБ      3:06 11-Де ти, наречена
DR8        0.00 дБ    -8.22 дБ      3:02 12-Катерина
DR7        0.00 дБ    -7.76 дБ      3:17 13-Гарна пара
DR7        0.00 дБ    -7.64 дБ      3:37 14-Гей, хлопці, шикі-дим
DR7        0.00 дБ    -7.67 дБ      3:16 15-Дай, кумонька, мені
DR7        0.00 дБ    -7.48 дБ      3:53 16-Кожній тварі по парі
DR7        0.00 дБ    -7.87 дБ      3:48 17-А він мене так
DR6        0.00 дБ    -6.84 дБ      3:42 18-Полька грає
DR6        0.00 дБ    -6.71 дБ      3:31 19-У Солохи
DR7        0.00 дБ    -8.20 дБ      3:04 20-Нащо, люба, губи дмеш
DR5        0.00 дБ    -7.08 дБ      3:37 21-Ой, виходь за мене
--------------------------------------------------------------------------------
Количество треков: 21
Реальные значения DR: DR7
Частота:   44100 Гц
Каналов:   2
Разрядность:   16
Битрейт:   1084 кбит/с
Кодек:   FLAC
Код:
AUDIOCHECKER v2.0 beta (build 457) - by Dester - opdester@freemail.hu
~~~~~~~~~~~~~~~~~~~~~~~~~~~~~~~~~~
-=== DO NOT EDIT THIS FILE! ===-
Path: ...\2020 - Гарна пара
001 -=- 01 Гнали, та й гонимо.flac -=- CDDA (100%)
002 -=- 02 Сваха.flac -=- CDDA (100%)
003 -=- 03 У корчмі.flac -=- CDDA (99%)
004 -=- 04 Женишок.flac -=- CDDA (100%)
005 -=- 05 У пивному барі.flac -=- CDDA (100%)
006 -=- 06 За здоров'я молодих келих піднімай!.flac -=- CDDA (99%)
007 -=- 07 Ой, весілля.flac -=- CDDA (99%)
008 -=- 08 Моя теща добре серце має.flac -=- CDDA (99%)
009 -=- 09 А весілля, та й гуде.flac -=- CDDA (100%)
010 -=- 10 Первачок наливай.flac -=- CDDA (100%)
011 -=- 11 Де ти, наречена.flac -=- CDDA (100%)
012 -=- 12 Катерина.flac -=- CDDA (99%)
013 -=- 13 Гарна пара.flac -=- CDDA (100%)
014 -=- 14 Гей, хлопці, шикі-дим.flac -=- CDDA (100%)
015 -=- 15 Дай, кумонька, мені.flac -=- CDDA (100%)
016 -=- 16 Кожній тварі по парі.flac -=- CDDA (100%)
017 -=- 17 А він мене так.flac -=- CDDA (100%)
018 -=- 18 Полька грає.flac -=- CDDA (100%)
019 -=- 19 У Солохи.flac -=- CDDA (100%)
020 -=- 20 Нащо, люба, губи дмеш.flac -=- CDDA (99%)
021 -=- 21 Ой, виходь за мене.flac -=- CDDA (100%)
Summary 99,71% CDDA
258820532
Источник: Tidal
#77701. Козацьке весілля
02. Вінницька теща
03. Вінницькі козаки
04. Два кума на весіллі
05. А мені все по цимбалам
06. Я кохаю, мамо
07. Мамо, хочеться гуляти
08. А під пиво рибка
09. Старенький клуб
10. Тракторист - 3
11. Чого мене ковбасить
12. Медовуху наливай
13. Напилася молода
14. Весілля
15. Гоп-стоп, наливай
16. З ранку до ночі заливаєм очі
17. Ой, що робити
18. Гоп ца дрі ца
19. Булочка
20. Нежонатий молодий
Код:
foobar2000 1.3.19 / Замер динамического диапазона (DR) 1.1.1
Дата отчёта:  2020-12-19 16:02:04
--------------------------------------------------------------------------------
Анализ:   В'ячеслав Кукоба / Гоп-ца, Дрин-ца
--------------------------------------------------------------------------------
DR         Пики         RMS           Продолжительность трека
--------------------------------------------------------------------------------
DR7        0.00 дБ    -7.75 дБ      2:47 01-Козацьке весілля
DR7        0.00 дБ    -8.28 дБ      2:49 02-Вінницька теща
DR7        0.00 дБ    -8.38 дБ      3:16 03-Вінницькі козаки
DR6       -0.10 дБ    -7.06 дБ      3:28 04-Два кума на весіллі
DR7        0.00 дБ    -8.28 дБ      3:43 05-А мені все по цимбалам
DR8        0.00 дБ    -8.61 дБ      4:09 06-Я кохаю, мамо
DR7        0.00 дБ    -8.14 дБ      3:42 07-Мамо, хочеться гуляти
DR7        0.00 дБ    -7.91 дБ      3:28 08-А під пиво рибка
DR7        0.00 дБ    -7.95 дБ      3:07 09-Старенький клуб
DR7        0.00 дБ    -7.48 дБ      3:40 10-Тракторист - 3
DR7        0.00 дБ    -7.97 дБ      3:18 11-Чого мене ковбасить
DR6        0.00 дБ    -6.93 дБ      3:37 12-Медовуху наливай
DR6        0.00 дБ    -7.46 дБ      3:36 13-Напилася молода
DR7        0.00 дБ    -7.88 дБ      3:37 14-Весілля
DR6        0.00 дБ    -7.53 дБ      3:25 15-Гоп-стоп, наливай
DR7        0.00 дБ    -7.74 дБ      3:18 16-З ранку до ночі заливаєм очі
DR7        0.00 дБ    -7.73 дБ      3:12 17-Ой, що робити
DR7        0.00 дБ    -7.48 дБ      3:00 18-Гоп ца дрі ца
DR6        0.00 дБ    -7.72 дБ      3:30 19-Булочка
DR7        0.00 дБ    -7.45 дБ      3:46 20-Нежонатий молодий
--------------------------------------------------------------------------------
Количество треков: 20
Реальные значения DR: DR7
Частота:   44100 Гц
Каналов:   2
Разрядность:   16
Битрейт:   1069 кбит/с
Кодек:   FLAC
Код:
AUDIOCHECKER v2.0 beta (build 457) - by Dester - opdester@freemail.hu
~~~~~~~~~~~~~~~~~~~~~~~~~~~~~~~~~~
-=== DO NOT EDIT THIS FILE! ===-
Path: ...\2020 - Гоп-ца, Дрин-ца
001 -=- 01 Козацьке весілля.flac -=- CDDA (100%)
002 -=- 02 Вінницька теща.flac -=- CDDA (100%)
003 -=- 03 Вінницькі козаки.flac -=- CDDA (99%)
004 -=- 04 Два кума на весіллі.flac -=- CDDA (100%)
005 -=- 05 А мені все по цимбалам.flac -=- CDDA (100%)
006 -=- 06 Я кохаю, мамо.flac -=- CDDA (100%)
007 -=- 07 Мамо, хочеться гуляти.flac -=- CDDA (99%)
008 -=- 08 А під пиво рибка.flac -=- CDDA (99%)
009 -=- 09 Старенький клуб.flac -=- CDDA (100%)
010 -=- 10 Тракторист - 3.flac -=- CDDA (99%)
011 -=- 11 Чого мене ковбасить.flac -=- CDDA (99%)
012 -=- 12 Медовуху наливай.flac -=- CDDA (99%)
013 -=- 13 Напилася молода.flac -=- CDDA (100%)
014 -=- 14 Весілля.flac -=- CDDA (100%)
015 -=- 15 Гоп-стоп, наливай.flac -=- CDDA (100%)
016 -=- 16 З ранку до ночі заливаєм очі.flac -=- CDDA (99%)
017 -=- 17 Ой, що робити.flac -=- CDDA (99%)
018 -=- 18 Гоп ца дрі ца.flac -=- CDDA (99%)
019 -=- 19 Булочка.flac -=- CDDA (100%)
020 -=- 20 Нежонатий молодий.flac -=- CDDA (100%)
Summary 99,55% CDDA
176662276
Источник: Tidal
#77701. В'ячеслав Кукоба - Тракторист
02. В'ячеслав Кукоба - А мені все по цимбалам
03. В'ячеслав Кукоба - Гадом буду - не забуду
04. В'ячеслав Кукоба - Весілля тракториста
05. В'ячеслав Кукоба - Джип
06. В'ячеслав Кукоба - З ранку до ночі заливаєм очі
07. В'ячеслав Кукоба - Чого мене ковбасить
08. В'ячеслав Кукоба - А він мене так
09. В'ячеслав Кукоба - П'янички
10. В'ячеслав Кукоба - А тепер тебе я буду бити
11. Гурт Експрес - Отакої ой
12. гурт Козятинські козаки - А я люблю сало
13. Гурт Експрес - Вареник
14. Гурт Експрес - Ой дай, та не лай
15. В'ячеслав Кукоба - Тракторист - 3
Код:
foobar2000 1.3.19 / Замер динамического диапазона (DR) 1.1.1
Дата отчёта:  2020-12-19 16:03:30
--------------------------------------------------------------------------------
Анализ:   В'ячеслав Кукоба / Трахторист (1-11)
          Гурт Експрес / Трахторист (12-14)
          гурт Козятинські козаки / Трахторист (15)
--------------------------------------------------------------------------------
DR         Пики         RMS           Продолжительность трека
--------------------------------------------------------------------------------
DR8       -0.30 дБ    -9.46 дБ      3:13 01-Тракторист
DR7        0.00 дБ    -8.28 дБ      3:43 02-А мені все по цимбалам
DR7       -1.16 дБ    -9.48 дБ      4:39 03-Гадом буду - не забуду
DR5       -1.16 дБ    -7.87 дБ      3:33 04-Весілля тракториста
DR8        0.00 дБ    -8.39 дБ      3:40 05-Джип
DR7        0.00 дБ    -7.74 дБ      3:18 06-З ранку до ночі заливаєм очі
DR7        0.00 дБ    -7.97 дБ      3:18 07-Чого мене ковбасить
DR7        0.00 дБ    -7.87 дБ      3:48 08-А він мене так
DR7       -0.30 дБ    -8.45 дБ      3:05 09-П'янички
DR9        0.00 дБ    -9.57 дБ      3:49 10-А тепер тебе я буду бити
DR7        0.00 дБ    -7.48 дБ      3:40 15-Тракторист - 3
DR6        0.00 дБ    -6.94 дБ      3:11 11-Отакої ой
DR7        0.00 дБ    -7.65 дБ      2:49 13-Вареник
DR7        0.00 дБ    -8.21 дБ      4:08 14-Ой дай, та не лай
DR7        0.00 дБ    -7.92 дБ      3:39 12-А я люблю сало
--------------------------------------------------------------------------------
Количество треков: 15
Реальные значения DR: DR7
Частота:   44100 Гц
Каналов:   2
Разрядность:   16
Битрейт:   1074 кбит/с
Кодек:   FLAC
Код:
AUDIOCHECKER v2.0 beta (build 457) - by Dester - opdester@freemail.hu
~~~~~~~~~~~~~~~~~~~~~~~~~~~~~~~~~~
-=== DO NOT EDIT THIS FILE! ===-
Path: ...\2020 - Трахторист
001 -=- 01 Тракторист.flac -=- CDDA (100%)
002 -=- 02 А мені все по цимбалам.flac -=- CDDA (100%)
003 -=- 03 Гадом буду - не забуду.flac -=- CDDA (100%)
004 -=- 04 Весілля тракториста.flac -=- CDDA (100%)
005 -=- 05 Джип.flac -=- CDDA (100%)
006 -=- 06 З ранку до ночі заливаєм очі.flac -=- CDDA (99%)
007 -=- 07 Чого мене ковбасить.flac -=- CDDA (99%)
008 -=- 08 А він мене так.flac -=- CDDA (100%)
009 -=- 09 П'янички.flac -=- CDDA (100%)
010 -=- 10 А тепер тебе я буду бити.flac -=- CDDA (100%)
011 -=- 11 Отакої ой.flac -=- CDDA (100%)
012 -=- 12 А я люблю сало.flac -=- CDDA (100%)
013 -=- 13 Вареник.flac -=- CDDA (100%)
014 -=- 14 Ой дай, та не лай.flac -=- CDDA (100%)
015 -=- 15 Тракторист - 3.flac -=- CDDA (99%)
Summary 99,80% CDDA
248820404
Источник: Tidal
#77701. В'ячеслав Кукоба - Гірко молодим
02. В'ячеслав Кукоба - Голова болить
03. В'ячеслав Кукоба - Галушки
04. В'ячеслав Кукоба - Чорнобровонька
05. В'ячеслав Кукоба - Прийди до мене
06. В'ячеслав Кукоба - Ой гоп, таки-так
07. В'ячеслав Кукоба - А тепер тебе я буду бити
08. Борис Сичевський - Ґандзя скрізь передова
09. В'ячеслав Кукоба - Джип
10. В'ячеслав Кукоба - Курочка ряба
11. Інна Книжник - Ти мене не питай
12. В'ячеслав Кукоба - Сорочку вишила
13. Інна Книжник - Закохалась кумонька
14. В'ячеслав Кукоба - П'Янка
Код:
foobar2000 1.3.19 / Замер динамического диапазона (DR) 1.1.1
Дата отчёта:  2020-12-19 16:04:55
--------------------------------------------------------------------------------
Анализ:   Борис Сичевський / Україна гуляє (1)
          В'ячеслав Кукоба / Україна гуляє (2-12)
          Інна Книжник / Україна гуляє (13-14)
--------------------------------------------------------------------------------
DR         Пики         RMS           Продолжительность трека
--------------------------------------------------------------------------------
DR6        0.00 дБ    -7.86 дБ      4:06 08-Ґандзя скрізь передова
DR6        0.00 дБ    -7.55 дБ      3:11 01-Гірко молодим
DR6        0.00 дБ    -7.18 дБ      3:50 02-Голова болить
DR7        0.00 дБ    -7.60 дБ      3:50 03-Галушки
DR8        0.00 дБ    -8.69 дБ      3:11 04-Чорнобровонька
DR8        0.00 дБ    -9.08 дБ      2:51 05-Прийди до мене
DR7        0.00 дБ    -7.57 дБ      3:15 06-Ой гоп, таки-так
DR9        0.00 дБ    -9.57 дБ      3:49 07-А тепер тебе я буду бити
DR8        0.00 дБ    -8.39 дБ      3:40 09-Джип
DR8        0.00 дБ    -9.24 дБ      3:17 10-Курочка ряба
DR8        0.00 дБ    -8.73 дБ      3:24 12-Сорочку вишила
DR7        0.00 дБ    -7.70 дБ      3:01 14-П'Янка
DR7        0.00 дБ    -9.66 дБ      3:46 11-Ти мене не питай
DR8        0.00 дБ    -8.42 дБ      3:34 13-Закохалась кумонька
--------------------------------------------------------------------------------
Количество треков: 14
Реальные значения DR: DR7
Частота:   44100 Гц
Каналов:   2
Разрядность:   16
Битрейт:   1072 кбит/с
Кодек:   FLAC
Код:
AUDIOCHECKER v2.0 beta (build 457) - by Dester - opdester@freemail.hu
~~~~~~~~~~~~~~~~~~~~~~~~~~~~~~~~~~
-=== DO NOT EDIT THIS FILE! ===-
Path: ...\2020 - Україна гуляє
001 -=- 01 Гірко молодим.flac -=- CDDA (100%)
002 -=- 02 Голова болить.flac -=- CDDA (100%)
003 -=- 03 Галушки.flac -=- CDDA (100%)
004 -=- 04 Чорнобровонька.flac -=- CDDA (100%)
005 -=- 05 Прийди до мене.flac -=- CDDA (100%)
006 -=- 06 Ой гоп, таки-так.flac -=- CDDA (99%)
007 -=- 07 А тепер тебе я буду бити.flac -=- CDDA (100%)
008 -=- 08 Ґандзя скрізь передова.flac -=- CDDA (99%)
009 -=- 09 Джип.flac -=- CDDA (100%)
010 -=- 10 Курочка ряба.flac -=- CDDA (100%)
011 -=- 11 Ти мене не питай.flac -=- CDDA (100%)
012 -=- 12 Сорочку вишила.flac -=- CDDA (100%)
013 -=- 13 Закохалась кумонька.flac -=- CDDA (99%)
014 -=- 14 П'Янка.flac -=- CDDA (100%)
Summary 99,79% CDDA
227165636
Источник: Tidal
#77701. В'ячеслав Кукоба - Гоп-ца дрі-ца
02. Інна Книжник - От села до села
03. В'ячеслав Кукоба - Ой, весілля як гуде
04. Інна Книжник - Верба
05. В'ячеслав Кукоба - На весіллі у кумів
06. Борис Сичевський - Вип'єм за любов!
07. В'ячеслав Кукоба - Теребеньки
08. Володимир Іжицький - Грайте, музики
09. Інна Книжник - Полюбила козаченька
10. В'ячеслав Кукоба - Оселедець
11. Інна Книжник - Солодка ягода
12. В'ячеслав Кукоба - Бражка
13. В'ячеслав Кукоба - Ой, підемо у шинок
Код:
foobar2000 1.3.19 / Замер динамического диапазона (DR) 1.1.1
Дата отчёта:  2020-12-19 16:06:08
--------------------------------------------------------------------------------
Анализ:   Борис Сичевський / Україна танцює (1)
          Володимир Іжицький / Україна танцює (2)
          В'ячеслав Кукоба / Україна танцює (3-9)
          Інна Книжник / Україна танцює (10-13)
--------------------------------------------------------------------------------
DR         Пики         RMS           Продолжительность трека
--------------------------------------------------------------------------------
DR6        0.00 дБ    -7.15 дБ      3:16 06-Вип'єм за любов!
DR6        0.00 дБ    -6.95 дБ      3:18 08-Грайте, музики
DR6        0.00 дБ    -7.08 дБ      3:27 01-Гоп-ца дрі-ца
DR5        0.00 дБ    -5.97 дБ      3:42 03-Ой, весілля як гуде
DR7        0.00 дБ    -7.73 дБ      3:43 05-На весіллі у кумів
DR6        0.00 дБ    -7.58 дБ      3:13 07-Теребеньки
DR6        0.00 дБ    -7.35 дБ      3:02 10-Оселедець
DR6        0.00 дБ    -7.03 дБ      3:01 12-Бражка
DR7        0.00 дБ    -7.70 дБ      3:00 13-Ой, підемо у шинок
DR6        0.00 дБ    -7.30 дБ      2:33 02-От села до села
DR7        0.00 дБ    -7.71 дБ      3:28 04-Верба
DR6        0.00 дБ    -7.42 дБ      3:33 09-Полюбила козаченька
DR7        0.00 дБ    -8.01 дБ      3:23 11-Солодка ягода
--------------------------------------------------------------------------------
Количество треков: 13
Реальные значения DR: DR6
Частота:   44100 Гц
Каналов:   2
Разрядность:   16
Битрейт:   1044 кбит/с
Кодек:   FLAC
Код:
AUDIOCHECKER v2.0 beta (build 457) - by Dester - opdester@freemail.hu
~~~~~~~~~~~~~~~~~~~~~~~~~~~~~~~~~~
-=== DO NOT EDIT THIS FILE! ===-
Path: ...\2020 - Україна танцює
001 -=- 01 Гоп-ца дрі-ца.flac -=- CDDA (100%)
002 -=- 02 От села до села.flac -=- CDDA (100%)
003 -=- 03 Ой, весілля як гуде.flac -=- CDDA (100%)
004 -=- 04 Верба.flac -=- CDDA (100%)
005 -=- 05 На весіллі у кумів.flac -=- CDDA (99%)
006 -=- 06 Вип'єм за любов!.flac -=- CDDA (100%)
007 -=- 07 Теребеньки.flac -=- CDDA (100%)
008 -=- 08 Грайте, музики.flac -=- CDDA (100%)
009 -=- 09 Полюбила козаченька.flac -=- CDDA (100%)
010 -=- 10 Оселедець.flac -=- CDDA (100%)
011 -=- 11 Солодка ягода.flac -=- CDDA (100%)
012 -=- 12 Бражка.flac -=- CDDA (100%)
013 -=- 13 Ой, підемо у шинок.flac -=- CDDA (100%)
Summary 99,92% CDDA
225415684
Источник: SVSSTUDIO
#77701. На Еврейской свадьбе
02. Вздумал Мойша наш жениться
03. Бабушка здорова
04. Здравствуйте, почтение Вам Наше
05. Скрипка
06. У нас на Брайтоне
07. Попурри на Еврейские мотивы
08. Одесские куплеты
09. Хава Нагила
10. Наш дядя Боря, такой ревнивый
11. Люблю я Зяму
12. Школа бальных танцев
13. Гуляночку сегодня заказал
14. Аицын-паровоз
Код:
Exact Audio Copy V1.0 beta 3 from 29. August 2011
Отчёт EAC об извлечении, выполненном 5. января 2013, 0:27
Группа «Гуляночка» / Погуляем по-еврейски 3
Дисковод: TEAC    DV-W520GM   Adapter: 4  ID: 0
Режим чтения                 : Достоверность
Использование точного потока : Да
Отключение кэша аудио        : Да
Использование указателей C2  : Нет
Коррекция смещения при чтении                     : 6
Способность читать области Lead-in и Lead-out     : Нет
Заполнение пропущенных сэмплов тишиной            : Да
Удаление блоков с тишиной в начале и конце        : Нет
При вычислениях CRC использовались нулевые сэмплы : Да
Интерфейс                                         : Встроенный Win32-интерфейс для Win NT/2000
Выходной формат : Внутренние WAV-операции
Формат сэмплов  : 44.100 Гц; 16 бит; стерео
TOC извлечённого CD
     Трек |   Старт  | Длительность | Начальный сектор | Конечный сектор
    ---------------------------------------------------------------------
       1  |  0:00.00 |    3:47.63   |           0      |      17087
       2  |  3:47.63 |    4:48.69   |       17088      |      38756
       3  |  8:36.57 |    2:59.23   |       38757      |      52204
       4  | 11:36.05 |    4:07.32   |       52205      |      70761
       5  | 15:43.37 |    2:58.38   |       70762      |      84149
       6  | 18:42.00 |    3:38.38   |       84150      |     100537
       7  | 22:20.38 |    3:22.08   |      100538      |     115695
       8  | 25:42.46 |    3:25.45   |      115696      |     131115
       9  | 29:08.16 |    3:06.68   |      131116      |     145133
      10  | 32:15.09 |    3:13.02   |      145134      |     159610
      11  | 35:28.11 |    3:40.37   |      159611      |     176147
      12  | 39:08.48 |    3:06.00   |      176148      |     190097
      13  | 42:14.48 |    3:23.08   |      190098      |     205330
      14  | 45:37.56 |    3:05.39   |      205331      |     219244
Характеристики диапазона извлечения и сообщения об ошибках
Выбранный диапазон
     Имя файла S:\CHANSON (А-М)\Кукоба Вячеслав\2009 - Группа «Гуляночка» - Погуляем по-еврейски 3\Группа «Гуляночка» - Погуляем по-еврейски 3.wav
     Пиковый уровень 100.0 %
     Скорость извлечения 6.9 X
     Качество диапазона 99.9 %
     CRC теста 0268183F
     CRC копии 0268183F
     Копирование... OK
Ошибок не произошло
AccurateRip: сводка
Трек  1  отсутствует в базе данных
Трек  2  отсутствует в базе данных
Трек  3  отсутствует в базе данных
Трек  4  отсутствует в базе данных
Трек  5  отсутствует в базе данных
Трек  6  отсутствует в базе данных
Трек  7  отсутствует в базе данных
Трек  8  отсутствует в базе данных
Трек  9  отсутствует в базе данных
Трек 10  отсутствует в базе данных
Трек 11  отсутствует в базе данных
Трек 12  отсутствует в базе данных
Трек 13  отсутствует в базе данных
Трек 14  отсутствует в базе данных
Ни одного трека нет в базе AccurateRip
Конец отчёта
==== Контрольная сумма отчёта 4FCA6F6670F024553C0D11FAD8AAEE1F4D98339D4287367276D8D373769C3B6A ====
Код:
REM GENRE Chanson
REM DATE 2009
REM DISCID BC0B6B0E
REM COMMENT "ExactAudioCopy v1.0b3"
PERFORMER "Группа «Гуляночка»"
TITLE "Погуляем по-еврейски 3"
FILE "Группа «Гуляночка» - Погуляем по-еврейски 3.flac" WAVE
  TRACK 01 AUDIO
    TITLE "На Еврейской свадьбе"
    PERFORMER "Группа «Гуляночка»"
    FLAGS DCP
    INDEX 01 00:00:00
  TRACK 02 AUDIO
    TITLE "Вздумал Мойша наш жениться"
    PERFORMER "Группа «Гуляночка»"
    FLAGS DCP
    INDEX 01 03:47:63
  TRACK 03 AUDIO
    TITLE "Бабушка здорова"
    PERFORMER "Группа «Гуляночка»"
    FLAGS DCP
    INDEX 01 08:36:57
  TRACK 04 AUDIO
    TITLE "Здравствуйте, почтение Вам Наше"
    PERFORMER "Группа «Гуляночка»"
    FLAGS DCP
    INDEX 01 11:36:05
  TRACK 05 AUDIO
    TITLE "Скрипка"
    PERFORMER "Группа «Гуляночка»"
    FLAGS DCP
    INDEX 01 15:43:37
  TRACK 06 AUDIO
    TITLE "У нас на Брайтоне"
    PERFORMER "Группа «Гуляночка»"
    FLAGS DCP
    INDEX 01 18:42:00
  TRACK 07 AUDIO
    TITLE "Попурри на Еврейские мотивы"
    PERFORMER "Группа «Гуляночка»"
    FLAGS DCP
    INDEX 01 22:20:38
  TRACK 08 AUDIO
    TITLE "Одесские куплеты"
    PERFORMER "Группа «Гуляночка»"
    FLAGS DCP
    INDEX 01 25:42:46
  TRACK 09 AUDIO
    TITLE "Хава Нагила"
    PERFORMER "Группа «Гуляночка»"
    FLAGS DCP
    INDEX 01 29:08:16
  TRACK 10 AUDIO
    TITLE "Наш дядя Боря, такой ревнивый"
    PERFORMER "Группа «Гуляночка»"
    FLAGS DCP
    INDEX 01 32:15:09
  TRACK 11 AUDIO
    TITLE "Люблю я Зяму"
    PERFORMER "Группа «Гуляночка»"
    FLAGS DCP
    INDEX 01 35:28:11
  TRACK 12 AUDIO
    TITLE "Школа бальных танцев"
    PERFORMER "Группа «Гуляночка»"
    FLAGS DCP
    INDEX 01 39:08:48
  TRACK 13 AUDIO
    TITLE "Гуляночку сегодня заказал"
    PERFORMER "Группа «Гуляночка»"
    FLAGS DCP
    INDEX 01 42:14:48
  TRACK 14 AUDIO
    TITLE "Аицын-паровоз"
    PERFORMER "Группа «Гуляночка»"
    FLAGS DCP
    INDEX 01 45:37:56
Источник: SVSSTUDIO
#77701. Галина Львовна
02. Виновата ли я
03. Теща моя
04. Милый мой дидочек
05. Жил на свете Хаим
06. Любовь атакует
07. Ивушки
08. 7-40
09. Рыжая
10. Школо Соломона Пляра
11. На пятерочку
12. Цыганочка с выходом
13. Полька
14. Люблю цыгана Яна
15. Расцвела сирень
16. Мясоедовская
Код:
Exact Audio Copy V1.0 beta 1 from 15. November 2010
Отчёт EAC об извлечении, выполненном 14. апреля 2011, 20:20
Гуляночка / Ресторанный хит
Дисковод: ASUS    DRW-1814BLT   Adapter: 2  ID: 1
Режим чтения                 : Достоверность
Использование точного потока : Да
Отключение кэша аудио        : Да
Использование указателей C2  : Нет
Коррекция смещения при чтении                     : 6
Способность читать области Lead-in и Lead-out     : Нет
Заполнение пропущенных сэмплов тишиной            : Да
Удаление блоков с тишиной в начале и конце        : Нет
При вычислениях CRC использовались нулевые сэмплы : Да
Интерфейс                                         : Встроенный Win32-интерфейс для Win NT/2000
Выходной формат          : Пользовательский кодировщик
Выбранный битрейт        : 1024 kBit/s
Качество                 : Высокий
Добавление ID3-тэга      : Нет
Утилита сжатия           : C:\Program Files\Exact Audio Copy\Flac\flac.exe
Дополнительные параметры : -8 -V -T "ARTIST=%a" -T "TITLE=%t" -T "ALBUM=%g" -T "DATE=%y" -T "TRACKNUMBER=%n" -T "GENRE=%m" -T "COMMENT=EAC FLAC -8" %s
TOC извлечённого CD
     Трек |   Старт  | Длительность | Начальный сектор | Конечный сектор
    ---------------------------------------------------------------------
       1  |  0:00.00 |    4:01.54   |           0      |      18128
       2  |  4:01.54 |    2:54.61   |       18129      |      31239
       3  |  6:56.40 |    2:58.50   |       31240      |      44639
       4  |  9:55.15 |    4:11.47   |       44640      |      63511
       5  | 14:06.62 |    2:54.72   |       63512      |      76633
       6  | 17:01.59 |    4:42.33   |       76634      |      97816
       7  | 21:44.17 |    3:49.66   |       97817      |     115057
       8  | 25:34.08 |    3:17.07   |      115058      |     129839
       9  | 28:51.15 |    4:14.54   |      129840      |     148943
      10  | 33:05.69 |    3:05.36   |      148944      |     162854
      11  | 36:11.30 |    3:28.05   |      162855      |     178459
      12  | 39:39.35 |    2:52.16   |      178460      |     191375
      13  | 42:31.51 |    3:15.06   |      191376      |     206006
      14  | 45:46.57 |    4:25.28   |      206007      |     225909
      15  | 50:12.10 |    3:46.72   |      225910      |     242931
      16  | 53:59.07 |    3:39.52   |      242932      |     259408
Характеристики диапазона извлечения и сообщения об ошибках
Выбранный диапазон
     Имя файла D:\Раздачи на torrents.ru\Ресторанный хит - 2009(lossless)\VA - Ресторанный хит.wav
     Пиковый уровень 100.0 %
0.4 X
     Качество диапазона 99.9 %
     CRC теста D14F9F47
     CRC копии D14F9F47
     Копирование... OK
Ошибок не произошло
AccurateRip: сводка
Трек  1  нет в базе данных
Трек  2  нет в базе данных
Трек  3  нет в базе данных
Трек  4  нет в базе данных
Трек  5  нет в базе данных
Трек  6  нет в базе данных
Трек  7  нет в базе данных
Трек  8  нет в базе данных
Трек  9  нет в базе данных
Трек 10  нет в базе данных
Трек 11  нет в базе данных
Трек 12  нет в базе данных
Трек 13  нет в базе данных
Трек 14  нет в базе данных
Трек 15  нет в базе данных
Трек 16  нет в базе данных
Ни одного трека нет в базе AccurateRip
Конец отчёта
Код:
REM GENRE шансон
REM DATE 2009
REM DISCID D80D8210
REM COMMENT "ExactAudioCopy v1.0b1"
PERFORMER "Гуляночка"
TITLE "Ресторанный хит "
FILE "VA - Ресторанный хит.flac" WAVE
  TRACK 01 AUDIO
    TITLE "Галина Львовна"
    PERFORMER "Гуляночка"
    FLAGS DCP
    INDEX 01 00:00:00
  TRACK 02 AUDIO
    TITLE "Виновата ли я"
    PERFORMER "Гуляночка"
    FLAGS DCP
    INDEX 00 03:59:54
    INDEX 01 04:01:54
  TRACK 03 AUDIO
    TITLE "Теща моя"
    PERFORMER "Гуляночка"
    FLAGS DCP
    INDEX 00 06:54:40
    INDEX 01 06:56:40
  TRACK 04 AUDIO
    TITLE "Милый мой дедочек"
    PERFORMER "Гуляночка"
    FLAGS DCP
    INDEX 00 09:53:15
    INDEX 01 09:55:15
  TRACK 05 AUDIO
    TITLE "Жил на свете Хайм"
    PERFORMER "Гуляночка"
    FLAGS DCP
    INDEX 00 14:04:62
    INDEX 01 14:06:62
  TRACK 06 AUDIO
    TITLE "Любовь атакует"
    PERFORMER "Гуляночка"
    FLAGS DCP
    INDEX 00 16:59:59
    INDEX 01 17:01:59
  TRACK 07 AUDIO
    TITLE "Ивушки"
    PERFORMER "Гуляночка"
    FLAGS DCP
    INDEX 00 21:42:17
    INDEX 01 21:44:17
  TRACK 08 AUDIO
    TITLE "7-40"
    PERFORMER "Гуляночка"
    FLAGS DCP
    INDEX 00 25:32:08
    INDEX 01 25:34:08
  TRACK 09 AUDIO
    TITLE "Рыжая"
    PERFORMER "Гуляночка"
    FLAGS DCP
    INDEX 00 28:49:15
    INDEX 01 28:51:15
  TRACK 10 AUDIO
    TITLE "Школа Соломона Пляра"
    PERFORMER "Гуляночка"
    FLAGS DCP
    INDEX 00 33:03:69
    INDEX 01 33:05:69
  TRACK 11 AUDIO
    TITLE "На пятерочку"
    PERFORMER "Гуляночка"
    FLAGS DCP
    INDEX 00 36:09:30
    INDEX 01 36:11:30
  TRACK 12 AUDIO
    TITLE "Цыганочка с выходом"
    PERFORMER "Гуляночка"
    FLAGS DCP
    INDEX 00 39:37:35
    INDEX 01 39:39:35
  TRACK 13 AUDIO
    TITLE "Полька"
    PERFORMER "Гуляночка"
    FLAGS DCP
    INDEX 00 42:29:52
    INDEX 01 42:31:51
  TRACK 14 AUDIO
    TITLE "Люблю цыгана Яна"
    PERFORMER "Гуляночка"
    FLAGS DCP
    INDEX 00 45:44:57
    INDEX 01 45:46:57
  TRACK 15 AUDIO
    TITLE "Расцвела сирень"
    PERFORMER "Гуляночка"
    FLAGS DCP
    INDEX 00 50:10:10
    INDEX 01 50:12:10
  TRACK 16 AUDIO
    TITLE "Мясоедовская"
    PERFORMER "Гуляночка"
    FLAGS DCP
    INDEX 00 53:57:07
    INDEX 01 53:59:07
Источник: SVSSTUDIO
#77701. На море качка
02. Девочка в платье из ситца
03. Гдеты,теща?
04. Сигарета
05. Песни Дуни из Одессы
06. У бегемота нету талии
07. Лютики
08. Дым кольцами
09. Ресторанчики
10. Дай на маленькую
11. Пара гнедых
12. Сенокос
13. Полька
14. Серая юбка
15. Ах,Одесса
16. Гуляночка в баре
Код:
Exact Audio Copy V0.99 prebeta 5 from 4. May 2009
Отчёт EAC об извлечении, выполненном 14. декабря 2010, 15:29
Гуляночка / Ресторанный хит 2
Дисковод: ASUS    DRW-1814BLT   Adapter: 2  ID: 1
Режим чтения                 : Достоверность
Использование точного потока : Да
Отключение кэша аудио        : Да
Использование указателей C2  : Нет
Коррекция смещения при чтении                     : 6
Способность читать области Lead-in и Lead-out     : Нет
Заполнение пропущенных сэмплов тишиной            : Да
Удаление блоков с тишиной в начале и конце        : Нет
При вычислениях CRC использовались нулевые сэмплы : Да
Интерфейс                                         : Встроенный Win32-интерфейс для Win NT/2000
Выходной формат          : Пользовательский кодировщик
Выбранный битрейт        : 1024 kBit/s
Качество                 : Высокий
Добавление ID3-тэга      : Нет
Утилита сжатия           : C:\Program Files\Exact Audio Copy\FLAC\FLAC.EXE
Дополнительные параметры : -8 -V -T "ARTIST=%a" -T "TITLE=%t" -T "ALBUM=%g" -T "DATE=%y" -T "TRACKNUMBER=%n" -T "GENRE=%m" -T "COMMENT=%e" %s -o %d
TOC извлечённого CD
     Трек |   Старт  | Длительность | Начальный сектор | Конечный сектор
    ---------------------------------------------------------------------
       1  |  0:00.00 |    3:14.51   |           0      |      14600
       2  |  3:14.51 |    3:14.66   |       14601      |      29216
       3  |  6:29.42 |    3:17.67   |       29217      |      44058
       4  |  9:47.34 |    4:10.09   |       44059      |      62817
       5  | 13:57.43 |    2:42.17   |       62818      |      74984
       6  | 16:39.60 |    4:35.07   |       74985      |      95616
       7  | 21:14.67 |    3:42.48   |       95617      |     112314
       8  | 24:57.40 |    3:36.40   |      112315      |     128554
       9  | 28:34.05 |    3:11.54   |      128555      |     142933
      10  | 31:45.59 |    3:32.00   |      142934      |     158833
      11  | 35:17.59 |    4:23.00   |      158834      |     178558
      12  | 39:40.59 |    3:42.58   |      178559      |     195266
      13  | 43:23.42 |    3:30.65   |      195267      |     211081
      14  | 46:54.32 |    3:50.45   |      211082      |     228376
      15  | 50:45.02 |    3:37.45   |      228377      |     244696
      16  | 54:22.47 |    3:30.22   |      244697      |     260468
Характеристики диапазона извлечения и сообщения об ошибках
Выбранный диапазон
     Имя файла D:\Раздачи на torrents.ru\Ресторанный хит 2\Гуляночка - Ресторанный хит 2.wav
     Пиковый уровень 100.0 %
     Качество диапазона 100.0 %
     CRC теста F449938B
     CRC копии F449938B
     Копирование... OK
Ошибок не произошло
AccurateRip: сводка
Трек  1  нет в базе данных
Трек  2  нет в базе данных
Трек  3  нет в базе данных
Трек  4  нет в базе данных
Трек  5  нет в базе данных
Трек  6  нет в базе данных
Трек  7  нет в базе данных
Трек  8  нет в базе данных
Трек  9  нет в базе данных
Трек 10  нет в базе данных
Трек 11  нет в базе данных
Трек 12  нет в базе данных
Трек 13  нет в базе данных
Трек 14  нет в базе данных
Трек 15  нет в базе данных
Трек 16  нет в базе данных
Ни одного трека нет в базе AccurateRip
Конец отчёта
Код:
REM GENRE шансон
REM DATE 2009
REM DISCID E90D9010
REM COMMENT "ExactAudioCopy v0.99pb5"
PERFORMER "Гуляночка"
TITLE "Ресторанный хит 2"
FILE "Гуляночка - Ресторанный хит 2.flac" WAVE
  TRACK 01 AUDIO
    TITLE "На море качка"
    PERFORMER "Гуляночка"
    FLAGS DCP
    INDEX 01 00:00:00
  TRACK 02 AUDIO
    TITLE "Девочка в платье из ситца"
    PERFORMER "Гуляночка"
    FLAGS DCP
    INDEX 00 03:12:51
    INDEX 01 03:14:51
  TRACK 03 AUDIO
    TITLE "Гдеты,теща?"
    PERFORMER "Гуляночка"
    FLAGS DCP
    INDEX 00 06:27:42
    INDEX 01 06:29:42
  TRACK 04 AUDIO
    TITLE "Сигарета"
    PERFORMER "Гуляночка"
    FLAGS DCP
    INDEX 00 09:45:34
    INDEX 01 09:47:34
  TRACK 05 AUDIO
    TITLE "Песни Дуни из Одессы"
    PERFORMER "Гуляночка"
    FLAGS DCP
    INDEX 00 13:55:43
    INDEX 01 13:57:43
  TRACK 06 AUDIO
    TITLE "У бегемота нету талии"
    PERFORMER "Гуляночка"
    FLAGS DCP
    INDEX 00 16:37:60
    INDEX 01 16:39:60
  TRACK 07 AUDIO
    TITLE "Лютики"
    PERFORMER "Гуляночка"
    FLAGS DCP
    INDEX 00 21:12:67
    INDEX 01 21:14:67
  TRACK 08 AUDIO
    TITLE "Дым кольцами"
    PERFORMER "Гуляночка"
    FLAGS DCP
    INDEX 00 24:55:40
    INDEX 01 24:57:40
  TRACK 09 AUDIO
    TITLE "Ресторанчики"
    PERFORMER "Гуляночка"
    FLAGS DCP
    INDEX 00 28:32:05
    INDEX 01 28:34:05
  TRACK 10 AUDIO
    TITLE "Дай на маленькую"
    PERFORMER "Гуляночка"
    FLAGS DCP
    INDEX 00 31:43:59
    INDEX 01 31:45:59
  TRACK 11 AUDIO
    TITLE "Пара гнедых"
    PERFORMER "Гуляночка"
    FLAGS DCP
    INDEX 00 35:15:59
    INDEX 01 35:17:59
  TRACK 12 AUDIO
    TITLE "Сенокос"
    PERFORMER "Гуляночка"
    FLAGS DCP
    INDEX 00 39:38:59
    INDEX 01 39:40:59
  TRACK 13 AUDIO
    TITLE "Полька"
    PERFORMER "Гуляночка"
    FLAGS DCP
    INDEX 00 43:21:42
    INDEX 01 43:23:42
  TRACK 14 AUDIO
    TITLE "Серая юбка"
    PERFORMER "Гуляночка"
    FLAGS DCP
    INDEX 00 46:52:32
    INDEX 01 46:54:32
  TRACK 15 AUDIO
    TITLE "Ах,Одесса"
    PERFORMER "Гуляночка"
    FLAGS DCP
    INDEX 00 50:43:03
    INDEX 01 50:45:02
  TRACK 16 AUDIO
    TITLE "Гуляночка в баре"
    PERFORMER "Гуляночка"
    FLAGS DCP
    INDEX 00 54:20:47
    INDEX 01 54:22:47
Источник: SVSSTUDIO
#77701. Сладкая истома [0:03:15.66]
02. Поспели вишни [0:03:13.74]
03. Кадриль [0:02:51.65]
04. Колечко [0:03:17.06]
05. Расцвела сирень [0:03:00.04]
06. Ивушки [0:04:12.35]
07. Тещин чемоданчик [0:04:12.33]
08. Наташка [0:03:20.06]
09. Полька «Пулеметчица» [0:04:04.46]
10. На последнюю пятерочку [0:03:27.43]
11. Парамэла [0:03:26.34]
12. Поют цыгане [0:02:59.26]
Код:
Exact Audio Copy V1.0 beta 3 from 29. August 2011
Отчёт EAC об извлечении, выполненном 5. января 2013, 16:13
Группа «Дядя Боря» / Свадьба на хуторе Михайловском
Дисковод: TEAC    DV-W520GM   Adapter: 4  ID: 0
Режим чтения                 : Достоверность
Использование точного потока : Да
Отключение кэша аудио        : Да
Использование указателей C2  : Нет
Коррекция смещения при чтении                     : 6
Способность читать области Lead-in и Lead-out     : Нет
Заполнение пропущенных сэмплов тишиной            : Да
Удаление блоков с тишиной в начале и конце        : Нет
При вычислениях CRC использовались нулевые сэмплы : Да
Интерфейс                                         : Встроенный Win32-интерфейс для Win NT/2000
Выходной формат : Внутренние WAV-операции
Формат сэмплов  : 44.100 Гц; 16 бит; стерео
TOC извлечённого CD
     Трек |   Старт  | Длительность | Начальный сектор | Конечный сектор
    ---------------------------------------------------------------------
       1  |  0:00.00 |    3:15.66   |           0      |      14690
       2  |  3:15.66 |    3:13.74   |       14691      |      29239
       3  |  6:29.65 |    2:51.65   |       29240      |      42129
       4  |  9:21.55 |    3:17.06   |       42130      |      56910
       5  | 12:38.61 |    3:00.04   |       56911      |      70414
       6  | 15:38.65 |    4:12.35   |       70415      |      89349
       7  | 19:51.25 |    4:12.33   |       89350      |     108282
       8  | 24:03.58 |    3:20.06   |      108283      |     123288
       9  | 27:23.64 |    4:04.46   |      123289      |     141634
      10  | 31:28.35 |    3:27.43   |      141635      |     157202
      11  | 34:56.03 |    3:26.34   |      157203      |     172686
      12  | 38:22.37 |    2:59.26   |      172687      |     186137
Характеристики диапазона извлечения и сообщения об ошибках
Выбранный диапазон
     Имя файла S:\CHANSON (А-М)\Кукоба Вячеслав\2005 - Группа «Дядя Боря» - Свадьба на хуторе Михайловском\Группа «Дядя Боря» - Свадьба на хуторе Михайловском.wav
     Пиковый уровень 100.0 %
     Скорость извлечения 7.3 X
     Качество диапазона 100.0 %
     CRC теста D5444E1A
     CRC копии D5444E1A
     Копирование... OK
Ошибок не произошло
AccurateRip: сводка
Трек  1  отсутствует в базе данных
Трек  2  отсутствует в базе данных
Трек  3  отсутствует в базе данных
Трек  4  отсутствует в базе данных
Трек  5  отсутствует в базе данных
Трек  6  отсутствует в базе данных
Трек  7  отсутствует в базе данных
Трек  8  отсутствует в базе данных
Трек  9  отсутствует в базе данных
Трек 10  отсутствует в базе данных
Трек 11  отсутствует в базе данных
Трек 12  отсутствует в базе данных
Ни одного трека нет в базе AccurateRip
Конец отчёта
==== Контрольная сумма отчёта D40B42D167D22BE78EF5B78F67D86EF25C13DD819CE6278CB4D75F5891CF5B87 ====
Код:
REM GENRE Chanson
REM DATE 2005
REM DISCID A209B10C
REM COMMENT "ExactAudioCopy v1.0b3"
PERFORMER "Группа «Дядя Боря»"
TITLE "Свадьба на хуторе Михайловском"
FILE "Группа «Дядя Боря» - Свадьба на хуторе Михайловском.flac" WAVE
  TRACK 01 AUDIO
    TITLE "Сладкая истома"
    PERFORMER "Группа «Дядя Боря»"
    INDEX 01 00:00:00
  TRACK 02 AUDIO
    TITLE "Поспели вишни"
    PERFORMER "Группа «Дядя Боря»"
    INDEX 01 03:15:66
  TRACK 03 AUDIO
    TITLE "Кадриль"
    PERFORMER "Группа «Дядя Боря»"
    INDEX 01 06:29:65
  TRACK 04 AUDIO
    TITLE "Колечко"
    PERFORMER "Группа «Дядя Боря»"
    INDEX 01 09:21:55
  TRACK 05 AUDIO
    TITLE "Расцвела сирень"
    PERFORMER "Группа «Дядя Боря»"
    INDEX 01 12:38:61
  TRACK 06 AUDIO
    TITLE "Ивушки"
    PERFORMER "Группа «Дядя Боря»"
    INDEX 01 15:38:65
  TRACK 07 AUDIO
    TITLE "Тещин чемоданчик"
    PERFORMER "Группа «Дядя Боря»"
    INDEX 01 19:51:25
  TRACK 08 AUDIO
    TITLE "Наташка"
    PERFORMER "Группа «Дядя Боря»"
    INDEX 01 24:03:58
  TRACK 09 AUDIO
    TITLE "Полька «Пулеметчица»"
    PERFORMER "Группа «Дядя Боря»"
    INDEX 01 27:23:64
  TRACK 10 AUDIO
    TITLE "На последнюю пятерочку"
    PERFORMER "Группа «Дядя Боря»"
    INDEX 01 31:28:35
  TRACK 11 AUDIO
    TITLE "Парамэла"
    PERFORMER "Группа «Дядя Боря»"
    INDEX 01 34:56:03
  TRACK 12 AUDIO
    TITLE "Поют цыгане"
    PERFORMER "Группа «Дядя Боря»"
    INDEX 01 38:22:37
Источник: Tidal
#77701. Одесса пенится
02. Рахиля
03. Чубчик
04. Хочу мужа
05. Катенька
06. Щёточки
07. Оксана
08. Тётушка
09. Одесский кабачок
10. Раз и сняли
11. Восьмиклинка
12. Как нам хорошо
13. Софка
14. Алёша жарил на баяне
Код:
foobar2000 1.3.19 / Замер динамического диапазона (DR) 1.1.1
Дата отчёта:  2020-03-27 18:43:02
--------------------------------------------------------------------------------
Анализ:   Группа Экспресс / Одесса мама
--------------------------------------------------------------------------------
DR         Пики         RMS           Продолжительность трека
--------------------------------------------------------------------------------
DR6        0.00 дБ    -6.89 дБ      3:26 01-Одесса пенится
DR6        0.00 дБ    -7.20 дБ      3:27 02-Рахиля
DR6        0.00 дБ    -6.89 дБ      3:33 03-Чубчик
DR6        0.00 дБ    -6.92 дБ      3:19 04-Хочу мужа
DR6        0.00 дБ    -6.96 дБ      3:56 05-Катенька
DR7        0.00 дБ    -8.24 дБ      3:21 06-Щеточки
DR6       -0.20 дБ    -7.99 дБ      3:39 07-Оксана
DR5        0.00 дБ    -6.27 дБ      3:31 08-Тётушка
DR6        0.00 дБ    -6.36 дБ      3:36 09-Одесский кабачок
DR6        0.00 дБ    -7.27 дБ      3:31 10-Раз и сняли
DR7        0.00 дБ    -8.42 дБ      3:27 11-Восьмиклинка
DR6        0.00 дБ    -6.96 дБ      3:32 12-Как нам хорошо
DR5        0.00 дБ    -6.12 дБ      3:18 13-Софка
DR5        0.00 дБ    -5.97 дБ      3:11 14-Алёша жарил на баяне
--------------------------------------------------------------------------------
Количество треков: 14
Реальные значения DR: DR6
Частота:   44100 Гц
Каналов:   2
Разрядность:   16
Битрейт:   1099 кбит/с
Кодек:   FLAC
Код:
AUDIOCHECKER v2.0 beta (build 457) - by Dester - opdester@freemail.hu
~~~~~~~~~~~~~~~~~~~~~~~~~~~~~~~~~~
-=== DO NOT EDIT THIS FILE! ===-
Path: ...\Одесса мама
01 -=- 01 Одесса пенится.flac -=- CDDA (99%)
02 -=- 02 Рахиля.flac -=- CDDA (100%)
03 -=- 03 Чубчик.flac -=- CDDA (99%)
04 -=- 04 Хочу мужа.flac -=- CDDA (100%)
05 -=- 05 Катенька.flac -=- CDDA (100%)
06 -=- 06 Щеточки.flac -=- CDDA (100%)
07 -=- 07 Оксана.flac -=- CDDA (100%)
08 -=- 08 Тётушка.flac -=- CDDA (100%)
09 -=- 09 Одесский кабачок.flac -=- CDDA (99%)
10 -=- 10 Раз и сняли.flac -=- CDDA (99%)
11 -=- 11 Восьмиклинка.flac -=- CDDA (100%)
12 -=- 12 Как нам хорошо.flac -=- CDDA (100%)
13 -=- 13 Софка.flac -=- CDDA (100%)
14 -=- 14 Алёша жарил на баяне.flac -=- CDDA (100%)
Summary 99,71% CDDA
164269956
Источник: SVSSTUDIO
#77701. Ромашка белая
02. Галина Львовна
03. Лимончики
04. Бабушка здорова
05. Тёща
06. Скажу тебе, что ты красивая
07. Бедная я
08. 7.40
09. Одесса
10. Перепетуля
11. Улица
12. Полька
13. Ну, где же ты, любовь моя
14. Сигарета
15. Курочка
16. Пастух
Код:
Exact Audio Copy V1.0 beta 3 from 29. August 2011
Отчёт EAC об извлечении, выполненном 5. января 2013, 21:01
Группа «Экспресс» / Лучшие песни
Дисковод: TEAC    DV-W520GM   Adapter: 4  ID: 0
Режим чтения                 : Достоверность
Использование точного потока : Да
Отключение кэша аудио        : Да
Использование указателей C2  : Нет
Коррекция смещения при чтении                     : 6
Способность читать области Lead-in и Lead-out     : Нет
Заполнение пропущенных сэмплов тишиной            : Да
Удаление блоков с тишиной в начале и конце        : Нет
При вычислениях CRC использовались нулевые сэмплы : Да
Интерфейс                                         : Встроенный Win32-интерфейс для Win NT/2000
Выходной формат : Внутренние WAV-операции
Формат сэмплов  : 44.100 Гц; 16 бит; стерео
TOC извлечённого CD
     Трек |   Старт  | Длительность | Начальный сектор | Конечный сектор
    ---------------------------------------------------------------------
       1  |  0:00.00 |    3:52.02   |           0      |      17401
       2  |  3:52.02 |    4:14.30   |       17402      |      36481
       3  |  8:06.32 |    3:03.02   |       36482      |      50208
       4  | 11:09.34 |    3:18.03   |       50209      |      65061
       5  | 14:27.37 |    2:29.24   |       65062      |      76260
       6  | 16:56.61 |    3:54.57   |       76261      |      93867
       7  | 20:51.43 |    3:02.01   |       93868      |     107518
       8  | 23:53.44 |    3:39.23   |      107519      |     123966
       9  | 27:32.67 |    2:56.02   |      123967      |     137168
      10  | 30:28.69 |    3:53.39   |      137169      |     154682
      11  | 34:22.33 |    4:10.02   |      154683      |     173434
      12  | 38:32.35 |    2:51.74   |      173435      |     186333
      13  | 41:24.34 |    4:31.63   |      186334      |     206721
      14  | 45:56.22 |    3:48.03   |      206722      |     223824
      15  | 49:44.25 |    3:20.69   |      223825      |     238893
      16  | 53:05.19 |    2:48.60   |      238894      |     251553
Характеристики диапазона извлечения и сообщения об ошибках
Выбранный диапазон
     Имя файла S:\CHANSON (А-М)\Кукоба Вячеслав\2004 - Группа «Экспресс» - Лучшие песни\Группа «Экспресс» - Лучшие песни.wav
     Пиковый уровень 100.0 %
     Скорость извлечения 7.3 X
     Качество диапазона 100.0 %
     CRC теста E055CEEB
     CRC копии E055CEEB
     Копирование... OK
Ошибок не произошло
AccurateRip: сводка
Трек  1  отсутствует в базе данных
Трек  2  отсутствует в базе данных
Трек  3  отсутствует в базе данных
Трек  4  отсутствует в базе данных
Трек  5  отсутствует в базе данных
Трек  6  отсутствует в базе данных
Трек  7  отсутствует в базе данных
Трек  8  отсутствует в базе данных
Трек  9  отсутствует в базе данных
Трек 10  отсутствует в базе данных
Трек 11  отсутствует в базе данных
Трек 12  отсутствует в базе данных
Трек 13  отсутствует в базе данных
Трек 14  отсутствует в базе данных
Трек 15  отсутствует в базе данных
Трек 16  отсутствует в базе данных
Ни одного трека нет в базе AccurateRip
Конец отчёта
==== Контрольная сумма отчёта CA8301A80EE24E6A4FB8B6460102CD5DFBAA30551376FCC934BFB577CB358392 ====
Код:
REM GENRE Chanson
REM DATE 2004
REM DISCID EE0D1A10
REM COMMENT "ExactAudioCopy v1.0b3"
PERFORMER "Группа «Экспресс»"
TITLE "Лучшие песни"
FILE "Группа «Экспресс» - Лучшие песни.flac" WAVE
  TRACK 01 AUDIO
    TITLE "Ромашка белая"
    PERFORMER "Группа «Экспресс»"
    FLAGS DCP
    INDEX 01 00:00:00
  TRACK 02 AUDIO
    TITLE "Галина Львовна"
    PERFORMER "Группа «Экспресс»"
    FLAGS DCP
    INDEX 01 03:52:02
  TRACK 03 AUDIO
    TITLE "Лимончики"
    PERFORMER "Группа «Экспресс»"
    FLAGS DCP
    INDEX 01 08:06:32
  TRACK 04 AUDIO
    TITLE "Бабушка здорова"
    PERFORMER "Группа «Экспресс»"
    FLAGS DCP
    INDEX 01 11:09:34
  TRACK 05 AUDIO
    TITLE "Тёща"
    PERFORMER "Группа «Экспресс»"
    FLAGS DCP
    INDEX 01 14:27:37
  TRACK 06 AUDIO
    TITLE "Скажу тебе, что ты красивая"
    PERFORMER "Группа «Экспресс»"
    FLAGS DCP
    INDEX 01 16:56:61
  TRACK 07 AUDIO
    TITLE "Бедная я"
    PERFORMER "Группа «Экспресс»"
    FLAGS DCP
    INDEX 01 20:51:43
  TRACK 08 AUDIO
    TITLE "7.40"
    PERFORMER "Группа «Экспресс»"
    FLAGS DCP
    INDEX 01 23:53:44
  TRACK 09 AUDIO
    TITLE "Одесса"
    PERFORMER "Группа «Экспресс»"
    FLAGS DCP
    INDEX 01 27:32:67
  TRACK 10 AUDIO
    TITLE "Перепетуля"
    PERFORMER "Группа «Экспресс»"
    FLAGS DCP
    INDEX 01 30:28:69
  TRACK 11 AUDIO
    TITLE "Улица"
    PERFORMER "Группа «Экспресс»"
    FLAGS DCP
    INDEX 01 34:22:33
  TRACK 12 AUDIO
    TITLE "Полька"
    PERFORMER "Группа «Экспресс»"
    FLAGS DCP
    INDEX 01 38:32:35
  TRACK 13 AUDIO
    TITLE "Ну, где же ты, любовь моя"
    PERFORMER "Группа «Экспресс»"
    FLAGS DCP
    INDEX 01 41:24:34
  TRACK 14 AUDIO
    TITLE "Сигарета"
    PERFORMER "Группа «Экспресс»"
    FLAGS DCP
    INDEX 01 45:56:22
  TRACK 15 AUDIO
    TITLE "Курочка"
    PERFORMER "Группа «Экспресс»"
    FLAGS DCP
    INDEX 01 49:44:25
  TRACK 16 AUDIO
    TITLE "Пастух"
    PERFORMER "Группа «Экспресс»"
    FLAGS DCP
    INDEX 01 53:05:19
Источник: SVSSTUDIO
#77701. Мама, я летчика люблю
02. На последнюю пятерочку
03. Утки
04. Свадьба с цыганами
05. Люблю еврея Зяму
06. Одесса - мама, Киев - папа
07. Я знаю, шо сказать
08. Колечко
09. Тумбалалайка
10. Бирюзовые колечки
11. Девочка в платье из ситца
12. Наташка
Код:
Exact Audio Copy V1.0 beta 3 from 29. August 2011
Отчёт EAC об извлечении, выполненном 29. июня 2013, 11:38
Группа «Экспресс» / Погуляем по-одесски
Дисковод: TEAC    DV-W520GM   Adapter: 0  ID: 0
Режим чтения                 : Достоверность
Использование точного потока : Да
Отключение кэша аудио        : Да
Использование указателей C2  : Нет
Коррекция смещения при чтении                     : 6
Способность читать области Lead-in и Lead-out     : Нет
Заполнение пропущенных сэмплов тишиной            : Да
Удаление блоков с тишиной в начале и конце        : Нет
При вычислениях CRC использовались нулевые сэмплы : Да
Интерфейс                                         : Встроенный Win32-интерфейс для Win NT/2000
Выходной формат : Внутренние WAV-операции
Формат сэмплов  : 44.100 Гц; 16 бит; стерео
TOC извлечённого CD
     Трек |   Старт  | Длительность | Начальный сектор | Конечный сектор
    ---------------------------------------------------------------------
       1  |  0:00.00 |    3:20.10   |           0      |      15009
       2  |  3:20.10 |    3:27.43   |       15010      |      30577
       3  |  6:47.53 |    3:12.44   |       30578      |      45021
       4  | 10:00.22 |    3:01.54   |       45022      |      58650
       5  | 13:02.01 |    2:56.62   |       58651      |      71912
       6  | 15:58.63 |    3:15.67   |       71913      |      86604
       7  | 19:14.55 |    3:04.13   |       86605      |     100417
       8  | 22:18.68 |    3:17.06   |      100418      |     115198
       9  | 25:35.74 |    3:15.49   |      115199      |     129872
      10  | 28:51.48 |    3:59.40   |      129873      |     147837
      11  | 32:51.13 |    3:37.32   |      147838      |     164144
      12  | 36:28.45 |    3:18.06   |      164145      |     179000
Характеристики диапазона извлечения и сообщения об ошибках
Выбранный диапазон
     Имя файла S:\CHANSON (А-М)\Кукоба Вячеслав\2005 - Группа «Экспресс» - Погуляем по-одесски\Группа «Экспресс» - Погуляем по-одесски.wav
     Пиковый уровень 97.7 %
     Скорость извлечения 6.7 X
     Качество диапазона 100.0 %
     CRC теста DB0A797D
     CRC копии DB0A797D
     Копирование... OK
Ошибок не произошло
AccurateRip: сводка
Трек  1  отсутствует в базе данных
Трек  2  отсутствует в базе данных
Трек  3  отсутствует в базе данных
Трек  4  отсутствует в базе данных
Трек  5  отсутствует в базе данных
Трек  6  отсутствует в базе данных
Трек  7  отсутствует в базе данных
Трек  8  отсутствует в базе данных
Трек  9  отсутствует в базе данных
Трек 10  отсутствует в базе данных
Трек 11  отсутствует в базе данных
Трек 12  отсутствует в базе данных
Ни одного трека нет в базе AccurateRip
Конец отчёта
==== Контрольная сумма отчёта 7047AA6AD67AEA92AF1CAEA2BD0E0A78456E62711B41E9E0D11D78041FDC104E ====
Код:
REM GENRE Chanson
REM DATE 2005
REM DISCID 9009520C
REM COMMENT "ExactAudioCopy v1.0b3"
PERFORMER "Группа «Экспресс»"
TITLE "Погуляем по-одесски"
FILE "Группа «Экспресс» - Погуляем по-одесски.flac" WAVE
  TRACK 01 AUDIO
    TITLE "Мама, я летчика люблю"
    PERFORMER "Группа «Экспресс»"
    INDEX 01 00:00:00
  TRACK 02 AUDIO
    TITLE "На последнюю пятерочку"
    PERFORMER "Группа «Экспресс»"
    INDEX 01 03:20:10
  TRACK 03 AUDIO
    TITLE "Утки"
    PERFORMER "Группа «Экспресс»"
    INDEX 01 06:47:53
  TRACK 04 AUDIO
    TITLE "Свадьба с цыганами"
    PERFORMER "Группа «Экспресс»"
    INDEX 01 10:00:22
  TRACK 05 AUDIO
    TITLE "Люблю еврея Зяму"
    PERFORMER "Группа «Экспресс»"
    INDEX 01 13:02:01
  TRACK 06 AUDIO
    TITLE "Одесса - мама, Киев - папа"
    PERFORMER "Группа «Экспресс»"
    INDEX 01 15:58:63
  TRACK 07 AUDIO
    TITLE "Я знаю, шо сказать"
    PERFORMER "Группа «Экспресс»"
    INDEX 01 19:14:55
  TRACK 08 AUDIO
    TITLE "Колечко"
    PERFORMER "Группа «Экспресс»"
    INDEX 01 22:18:68
  TRACK 09 AUDIO
    TITLE "Тумбалалайка"
    PERFORMER "Группа «Экспресс»"
    INDEX 01 25:35:74
  TRACK 10 AUDIO
    TITLE "Бирюзовые колечки"
    PERFORMER "Группа «Экспресс»"
    INDEX 01 28:51:48
  TRACK 11 AUDIO
    TITLE "Девочка в платье из ситца"
    PERFORMER "Группа «Экспресс»"
    INDEX 01 32:51:13
  TRACK 12 AUDIO
    TITLE "Наташка"
    PERFORMER "Группа «Экспресс»"
    INDEX 01 36:28:45
Источник: SVSSTUDIO
#77701. Погуляем по-одесски
02. Сирень
03. Белая черёмуха
04. Одессита полюбила
05. Никто тебя не любит так как я
06. Поспели вишни
07. Школа бальных танцев
08. Ивушки
09. Миленький ты мой
10. Виднеются в тумане огоньки
11. Блондинки
12. Галина Львовна
Код:
Exact Audio Copy V1.0 beta 3 from 29. August 2011
Отчёт EAC об извлечении, выполненном 30. июня 2013, 10:55
Группа «Экспресс» / Погуляем по-одесски 2
Дисковод: TEAC    DV-W520GM   Adapter: 0  ID: 0
Режим чтения                 : Достоверность
Использование точного потока : Да
Отключение кэша аудио        : Да
Использование указателей C2  : Нет
Коррекция смещения при чтении                     : 6
Способность читать области Lead-in и Lead-out     : Нет
Заполнение пропущенных сэмплов тишиной            : Да
Удаление блоков с тишиной в начале и конце        : Нет
При вычислениях CRC использовались нулевые сэмплы : Да
Интерфейс                                         : Встроенный Win32-интерфейс для Win NT/2000
Выходной формат : Внутренние WAV-операции
Формат сэмплов  : 44.100 Гц; 16 бит; стерео
TOC извлечённого CD
     Трек |   Старт  | Длительность | Начальный сектор | Конечный сектор
    ---------------------------------------------------------------------
       1  |  0:00.00 |    3:05.45   |           0      |      13919
       2  |  3:05.45 |    3:46.72   |       13920      |      30941
       3  |  6:52.42 |    2:43.01   |       30942      |      43167
       4  |  9:35.43 |    3:44.00   |       43168      |      59967
       5  | 13:19.43 |    4:33.73   |       59968      |      80515
       6  | 17:53.41 |    3:13.40   |       80516      |      95030
       7  | 21:07.06 |    3:05.36   |       95031      |     108941
       8  | 24:12.42 |    4:12.35   |      108942      |     127876
       9  | 28:25.02 |    3:20.36   |      127877      |     142912
      10  | 31:45.38 |    3:00.01   |      142913      |     156413
      11  | 34:45.39 |    3:11.42   |      156414      |     170780
      12  | 37:57.06 |    4:14.35   |      170781      |     189865
Характеристики диапазона извлечения и сообщения об ошибках
Выбранный диапазон
     Имя файла S:\CHANSON (А-М)\Кукоба Вячеслав\2006 - Группа «Экспресс» - Погуляем по-одесски 2\Группа «Экспресс» - Погуляем по-одесски 2.wav
     Пиковый уровень 99.9 %
     Скорость извлечения 5.9 X
     Качество диапазона 100.0 %
     CRC теста 87382ADB
     CRC копии 87382ADB
     Копирование... OK
Ошибок не произошло
AccurateRip: сводка
Трек  1  отсутствует в базе данных
Трек  2  отсутствует в базе данных
Трек  3  отсутствует в базе данных
Трек  4  отсутствует в базе данных
Трек  5  отсутствует в базе данных
Трек  6  отсутствует в базе данных
Трек  7  отсутствует в базе данных
Трек  8  отсутствует в базе данных
Трек  9  отсутствует в базе данных
Трек 10  отсутствует в базе данных
Трек 11  отсутствует в базе данных
Трек 12  отсутствует в базе данных
Ни одного трека нет в базе AccurateRip
Конец отчёта
==== Контрольная сумма отчёта 45AFAAED74A7AA5EE0CFC2ADFEC29DAC3FC3408A26F47834CDDF1DC8744B22E1 ====
Код:
REM GENRE Chanson
REM DATE 2006
REM DISCID A909E30C
REM COMMENT "ExactAudioCopy v1.0b3"
PERFORMER "Группа «Экспресс»"
TITLE "Погуляем по-одесски 2"
FILE "Группа «Экспресс» - Погуляем по-одесски 2.flac" WAVE
  TRACK 01 AUDIO
    TITLE "Погуляем по-одесски"
    PERFORMER "Группа «Экспресс»"
    INDEX 01 00:00:00
  TRACK 02 AUDIO
    TITLE "Сирень"
    PERFORMER "Группа «Экспресс»"
    INDEX 01 03:05:45
  TRACK 03 AUDIO
    TITLE "Белая черёмуха"
    PERFORMER "Группа «Экспресс»"
    INDEX 01 06:52:42
  TRACK 04 AUDIO
    TITLE "Одессита полюбила"
    PERFORMER "Группа «Экспресс»"
    INDEX 01 09:35:43
  TRACK 05 AUDIO
    TITLE "Никто тебя не любит так как я"
    PERFORMER "Группа «Экспресс»"
    INDEX 01 13:19:43
  TRACK 06 AUDIO
    TITLE "Поспели вишни"
    PERFORMER "Группа «Экспресс»"
    INDEX 01 17:53:41
  TRACK 07 AUDIO
    TITLE "Школа бальных танцев"
    PERFORMER "Группа «Экспресс»"
    INDEX 01 21:07:06
  TRACK 08 AUDIO
    TITLE "Ивушки"
    PERFORMER "Группа «Экспресс»"
    INDEX 01 24:12:42
  TRACK 09 AUDIO
    TITLE "Миленький ты мой"
    PERFORMER "Группа «Экспресс»"
    INDEX 01 28:25:02
  TRACK 10 AUDIO
    TITLE "Виднеются в тумане огоньки"
    PERFORMER "Группа «Экспресс»"
    INDEX 01 31:45:38
  TRACK 11 AUDIO
    TITLE "Блондинки"
    PERFORMER "Группа «Экспресс»"
    INDEX 01 34:45:39
  TRACK 12 AUDIO
    TITLE "Галина Львовна"
    PERFORMER "Группа «Экспресс»"
    INDEX 01 37:57:06
Источник: SVSSTUDIO
#77701. Ижицкий В. А. - Помню Одессу-маму
02. Сичевский Б. П. - Денежки
03. Несваволь Е. Л. - Хочу мужа
04. Ижицкий В. А. - Жиганские глаза
05. Сичевский Б. П. - Жора, подержи мой макинтош
06. Ижицкий В. А. - Маслице
07. Сичевский Б. П. - Фрейлекс
08. Ижицкий В. А. - Губки бантиком
09. Книжник И. В. - Бублички
10. Сичевский Б. П. - Рива, Ривочка
11. Ижицкий В. А. - Студентка
12. Сичевский Б. П. - Сонечкины именины
13. Несваволь Е. Л. - На рыбалке у реки
14. Сичевский Б. П. - Одесские девчата
Код:
Exact Audio Copy V1.0 beta 3 from 29. August 2011
Отчёт EAC об извлечении, выполненном 5. января 2013, 2:06
Various / Погуляем по-одесски 3
Дисковод: TEAC    DV-W520GM   Adapter: 4  ID: 0
Режим чтения                 : Достоверность
Использование точного потока : Да
Отключение кэша аудио        : Да
Использование указателей C2  : Нет
Коррекция смещения при чтении                     : 6
Способность читать области Lead-in и Lead-out     : Нет
Заполнение пропущенных сэмплов тишиной            : Да
Удаление блоков с тишиной в начале и конце        : Нет
При вычислениях CRC использовались нулевые сэмплы : Да
Интерфейс                                         : Встроенный Win32-интерфейс для Win NT/2000
Выходной формат : Внутренние WAV-операции
Формат сэмплов  : 44.100 Гц; 16 бит; стерео
TOC извлечённого CD
     Трек |   Старт  | Длительность | Начальный сектор | Конечный сектор
    ---------------------------------------------------------------------
       1  |  0:00.00 |    3:48.54   |           0      |      17153
       2  |  3:48.54 |    3:09.40   |       17154      |      31368
       3  |  6:58.19 |    3:06.24   |       31369      |      45342
       4  | 10:04.43 |    3:01.25   |       45343      |      58942
       5  | 13:05.68 |    2:36.37   |       58943      |      70679
       6  | 15:42.30 |    3:21.65   |       70680      |      85819
       7  | 19:04.20 |    3:12.51   |       85820      |     100270
       8  | 22:16.71 |    3:08.54   |      100271      |     114424
       9  | 25:25.50 |    3:42.06   |      114425      |     131080
      10  | 29:07.56 |    3:34.52   |      131081      |     147182
      11  | 32:42.33 |    3:42.10   |      147183      |     163842
      12  | 36:24.43 |    3:50.40   |      163843      |     181132
      13  | 40:15.08 |    3:09.54   |      181133      |     195361
      14  | 43:24.62 |    3:29.34   |      195362      |     211070
Характеристики диапазона извлечения и сообщения об ошибках
Выбранный диапазон
     Имя файла S:\CHANSON (А-М)\Кукоба Вячеслав\2008 - Погуляем по-одесски 3\Various - Погуляем по-одесски 3.wav
     Пиковый уровень 100.0 %
     Скорость извлечения 7.1 X
     Качество диапазона 100.0 %
     CRC теста 43370189
     CRC копии 43370189
     Копирование... OK
Ошибок не произошло
AccurateRip: сводка
Трек  1  отсутствует в базе данных
Трек  2  отсутствует в базе данных
Трек  3  отсутствует в базе данных
Трек  4  отсутствует в базе данных
Трек  5  отсутствует в базе данных
Трек  6  отсутствует в базе данных
Трек  7  отсутствует в базе данных
Трек  8  отсутствует в базе данных
Трек  9  отсутствует в базе данных
Трек 10  отсутствует в базе данных
Трек 11  отсутствует в базе данных
Трек 12  отсутствует в базе данных
Трек 13  отсутствует в базе данных
Трек 14  отсутствует в базе данных
Ни одного трека нет в базе AccurateRip
Конец отчёта
==== Контрольная сумма отчёта 545AE67111BE98573CF7BBA58E0347E14988C33707A446AA430F08AA4A53D25C ====
Код:
REM GENRE Chanson
REM DATE 2008
REM DISCID C00AFE0E
REM COMMENT "ExactAudioCopy v1.0b3"
PERFORMER "Various"
TITLE "Погуляем по-одесски 3"
FILE "Various - Погуляем по-одесски 3.flac" WAVE
  TRACK 01 AUDIO
    TITLE "Помню Одессу-маму"
    PERFORMER "Ижицкий В. А."
    INDEX 01 00:00:00
  TRACK 02 AUDIO
    TITLE "Денежки"
    PERFORMER "Сичевский Б. П."
    INDEX 01 03:48:54
  TRACK 03 AUDIO
    TITLE "Хочу мужа"
    PERFORMER "Несваволь Е. Л."
    INDEX 01 06:58:19
  TRACK 04 AUDIO
    TITLE "Жиганские глаза"
    PERFORMER "Ижицкий В. А."
    INDEX 01 10:04:43
  TRACK 05 AUDIO
    TITLE "Жора, подержи мой макинтош"
    PERFORMER "Сичевский Б. П."
    INDEX 01 13:05:68
  TRACK 06 AUDIO
    TITLE "Маслице"
    PERFORMER "Ижицкий В. А."
    INDEX 01 15:42:30
  TRACK 07 AUDIO
    TITLE "Фрейлекс"
    PERFORMER "Сичевский Б. П."
    INDEX 01 19:04:20
  TRACK 08 AUDIO
    TITLE "Губки бантиком"
    PERFORMER "Ижицкий В. А."
    INDEX 01 22:16:71
  TRACK 09 AUDIO
    TITLE "Бублички"
    PERFORMER "Книжник И. В."
    INDEX 01 25:25:50
  TRACK 10 AUDIO
    TITLE "Рива, Ривочка"
    PERFORMER "Сичевский Б. П."
    INDEX 01 29:07:56
  TRACK 11 AUDIO
    TITLE "Студентка"
    PERFORMER "Ижицкий В. А."
    INDEX 01 32:42:33
  TRACK 12 AUDIO
    TITLE "Сонечкины именины"
    PERFORMER "Сичевский Б. П."
    INDEX 01 36:24:43
  TRACK 13 AUDIO
    TITLE "На рыбалке у реки"
    PERFORMER "Несваволь Е. Л."
    INDEX 01 40:15:08
  TRACK 14 AUDIO
    TITLE "Одесские девчата"
    PERFORMER "Сичевский Б. П."
    INDEX 01 43:24:62
Источник: Tidal
#77701. Выпьем за Сашу!
02. Ромашка
03. Али-баба
04. Алёнка
05. Эх, водочка
06. Курочка по семечкам
07. Почему же ты замужем
08. Мало водки
09. Именины
10. Денежки
11. Развратная
12. Больше дела, меньше слов
13. Не спеши, Наташка
14. Любовь моя первая
15. Как же нам 7-40 не любить
16. Я Парамэлла
17. Глибока криниця
Код:
foobar2000 1.3.19 / Замер динамического диапазона (DR) 1.1.1
Дата отчёта:  2020-03-27 18:31:13
--------------------------------------------------------------------------------
Анализ:   Группа Экспресс / Лучшие песни
--------------------------------------------------------------------------------
DR         Пики         RMS           Продолжительность трека
--------------------------------------------------------------------------------
DR7        0.00 дБ    -7.99 дБ      2:49 01-Выпьем за Сашу!
DR6       -1.29 дБ    -8.62 дБ      3:46 02-Ромашка
DR6        0.00 дБ    -7.06 дБ      3:04 03-Али-баба
DR8        0.00 дБ    -9.23 дБ      4:27 04-Алёнка
DR6        0.00 дБ    -7.45 дБ      3:15 05-Эх, водочка
DR7        0.00 дБ    -7.82 дБ      3:13 06-Курочка по семечкам
DR6        0.00 дБ    -7.34 дБ      3:35 07-Почему же ты замужем
DR7        0.00 дБ    -8.86 дБ      3:20 08-Мало водки
DR7        0.00 дБ    -8.10 дБ      3:53 09-Именины
DR6        0.00 дБ    -7.39 дБ      3:10 10-Денежки
DR7        0.00 дБ    -8.56 дБ      3:15 11-Развратная
DR7        0.00 дБ    -8.25 дБ      3:12 12-Больше дела, меньше слов
DR8        0.00 дБ    -9.25 дБ      3:51 13-Не спеши, Наташка
DR7        0.00 дБ    -7.95 дБ      3:19 14-Любовь моя первая
DR7        0.00 дБ    -7.83 дБ      3:26 15-Как же нам 7-40 не любить
DR6        0.00 дБ    -6.98 дБ      3:58 16-Я Парамэлла
DR10       0.00 дБ   -11.75 дБ      3:31 17-Глибока криниця
--------------------------------------------------------------------------------
Количество треков: 17
Реальные значения DR: DR7
Частота:   44100 Гц
Каналов:   2
Разрядность:   16
Битрейт:   925 кбит/с
Кодек:   FLAC
Код:
AUDIOCHECKER v2.0 beta (build 457) - by Dester - opdester@freemail.hu
~~~~~~~~~~~~~~~~~~~~~~~~~~~~~~~~~~
-=== DO NOT EDIT THIS FILE! ===-
Path: ...\Лучшие песни
01 -=- 01 Выпьем за Сашу!.flac -=- CDDA (100%)
02 -=- 02 Ромашка.flac -=- CDDA (100%)
03 -=- 03 Али-баба.flac -=- CDDA (100%)
04 -=- 04 Алёнка.flac -=- CDDA (100%)
05 -=- 05 Эх, водочка.flac -=- CDDA (100%)
06 -=- 06 Курочка по семечкам.flac -=- CDDA (100%)
07 -=- 07 Почему же ты замужем.flac -=- CDDA (100%)
08 -=- 08 Мало водки.flac -=- CDDA (99%)
09 -=- 09 Именины.flac -=- CDDA (99%)
10 -=- 10 Денежки.flac -=- CDDA (100%)
11 -=- 11 Развратная.flac -=- CDDA (100%)
12 -=- 12 Больше дела, меньше слов.flac -=- CDDA (100%)
13 -=- 13 Не спеши, Наташка.flac -=- CDDA (100%)
14 -=- 14 Любовь моя первая.flac -=- CDDA (99%)
15 -=- 15 Как же нам 7-40 не любить.flac -=- CDDA (100%)
16 -=- 16 Я Парамэлла.flac -=- CDDA (100%)
17 -=- 17 Глибока криниця.flac -=- MPEG (95%)
Summary 94,24% CDDA
168665876
Источник: Tidal
#77701. Цыганочка Аза
02. Тонкая рябина
03. Ромашка белая
04. А кто-то третий
05. Любо, братцы, любо
06. На Муромской дорожке
07. В роще пел соловушка
08. При долине куст калины
09. По дону гуляет
10. Вишня
11. Миленький ты мой
12. Как хотела меня мать
13. Осока
14. Зачем тебя я, милый мой, узнала
Код:
foobar2000 1.3.19 / Замер динамического диапазона (DR) 1.1.1
Дата отчёта:  2020-03-27 18:32:54
--------------------------------------------------------------------------------
Анализ:   Группа Экспресс / Русские застольные песни
--------------------------------------------------------------------------------
DR         Пики         RMS           Продолжительность трека
--------------------------------------------------------------------------------
DR5        0.00 дБ    -6.69 дБ      3:26 01-Цыганочка Аза
DR5        0.00 дБ    -7.50 дБ      4:05 02-Тонкая рябина
DR6        0.00 дБ    -7.24 дБ      4:53 03-Ромашка белая
DR8        0.00 дБ    -9.21 дБ      4:10 04-А кто-то третий
DR8        0.00 дБ    -8.71 дБ      4:31 05-Любо, братцы, любо
DR7        0.00 дБ    -7.69 дБ      3:49 06-На Муромской дорожке
DR6        0.00 дБ    -7.59 дБ      2:47 07-В роще пел соловушка
DR8        0.00 дБ    -9.03 дБ      4:10 08-При долине куст калины
DR6        0.00 дБ    -7.79 дБ      3:48 09-По дону гуляет
DR6        0.00 дБ    -7.43 дБ      3:36 10-Вишня
DR6        0.00 дБ    -7.52 дБ      3:00 11-Миленький ты мой
DR5        0.00 дБ    -7.16 дБ      3:42 12-Как хотела меня мать
DR5        0.00 дБ    -6.99 дБ      3:42 13-Осока
DR8        0.00 дБ    -9.24 дБ      3:50 14-Зачем тебя я, милый мой, узнала
--------------------------------------------------------------------------------
Количество треков: 14
Реальные значения DR: DR6
Частота:   44100 Гц
Каналов:   2
Разрядность:   16
Битрейт:   1015 кбит/с
Кодек:   FLAC
Код:
AUDIOCHECKER v2.0 beta (build 457) - by Dester - opdester@freemail.hu
~~~~~~~~~~~~~~~~~~~~~~~~~~~~~~~~~~
-=== DO NOT EDIT THIS FILE! ===-
Path: ...\Русские застольные песни (Album)
001 -=- 01 Цыганочка Аза.flac -=- CDDA (100%)
002 -=- 02 Тонкая рябина.flac -=- CDDA (100%)
003 -=- 03 Ромашка белая.flac -=- CDDA (100%)
004 -=- 04 А кто-то третий.flac -=- CDDA (99%)
005 -=- 05 Любо братцы любо.flac -=- CDDA (100%)
006 -=- 06 На Муромской дорожке.flac -=- CDDA (100%)
007 -=- 07 В роще пел соловушка.flac -=- CDDA (99%)
008 -=- 08 При долине куст калины.flac -=- CDDA (100%)
009 -=- 09 По дону гуляет.flac -=- CDDA (100%)
010 -=- 10 Вишня.flac -=- CDDA (100%)
011 -=- 11 Миленький ты мой.flac -=- CDDA (100%)
012 -=- 12 Как хотела меня мать.flac -=- CDDA (100%)
013 -=- 13 Осока.flac -=- CDDA (100%)
014 -=- 14 Зачем тебя я милый мой узнала.flac -=- CDDA (100%)
Summary 99,86% CDDA
178651700
Источник: Tidal
#77701. Ах, васильки
02. Кадриль
03. Песня про курочку
04. Вишни
05. Некуда мне деться
06. Скажу тебе, что ты красивая
07. Наташка
08. Виноград
09. Парамэлла
10. Мои лимончики
11. Колечко
12. Киска мурочка
Код:
foobar2000 1.3.19 / Замер динамического диапазона (DR) 1.1.1
Дата отчёта:  2020-03-27 18:36:07
--------------------------------------------------------------------------------
Анализ:   Группа Экспресс / Ах, васильки
--------------------------------------------------------------------------------
DR         Пики         RMS           Продолжительность трека
--------------------------------------------------------------------------------
DR6        0.00 дБ    -7.10 дБ      3:38 01-Ах, васильки
DR7        0.00 дБ    -7.67 дБ      2:47 02-Кадриль
DR6        0.00 дБ    -7.33 дБ      2:35 03-Песня про курочку
DR8        0.00 дБ    -8.34 дБ      3:10 04-Вишни
DR6        0.00 дБ    -7.11 дБ      3:21 05-Некуда мне деться
DR6        0.00 дБ    -7.23 дБ      3:55 06-Скажу тебе, что ты красивая
DR7        0.00 дБ    -8.06 дБ      3:17 07-Наташка
DR7        0.00 дБ    -7.26 дБ      2:14 08-Виноград
DR6        0.00 дБ    -7.13 дБ      3:23 09-Парамэлла
DR7        0.00 дБ    -7.62 дБ      1:53 10-Мои лимончики
DR7        0.00 дБ    -7.75 дБ      3:12 11-Колечко
DR7        0.00 дБ    -7.06 дБ      2:57 12-Киска мурочка
--------------------------------------------------------------------------------
Количество треков: 12
Реальные значения DR: DR7
Частота:   44100 Гц
Каналов:   2
Разрядность:   16
Битрейт:   1070 кбит/с
Кодек:   FLAC
Код:
AUDIOCHECKER v2.0 beta (build 457) - by Dester - opdester@freemail.hu
~~~~~~~~~~~~~~~~~~~~~~~~~~~~~~~~~~
-=== DO NOT EDIT THIS FILE! ===-
Path: ...\Ах васильки (Album)
001 -=- 01 Ах васильки.flac -=- CDDA (100%)
002 -=- 02 Кадриль.flac -=- CDDA (100%)
003 -=- 03 Песня про курочку.flac -=- CDDA (100%)
004 -=- 04 Вишни.flac -=- CDDA (100%)
005 -=- 05 Некуда мне деться.flac -=- CDDA (100%)
006 -=- 06 Скажу тебе что ты красивая.flac -=- CDDA (99%)
007 -=- 07 Наташка.flac -=- CDDA (100%)
008 -=- 08 Виноград.flac -=- CDDA (100%)
009 -=- 09 Парамэлла.flac -=- CDDA (100%)
010 -=- 10 Мои лимончики.flac -=- CDDA (99%)
011 -=- 11 Колечко.flac -=- CDDA (100%)
012 -=- 12 Киска мурочка.flac -=- CDDA (100%)
Summary 99,83% CDDA
179038660
Источник: Tidal
#77701. Погуляем по-одесски
02. Моя Одесса
03. Полюбила одессита
04. Губки бантиком
05. Жиганские глаза
06. Жора, подержи мой макинтош
07. Люблю еврея Зяму
08. Одесские девчата
09. Студентка
10. Я знаю, что сказать
11. Фрейлекс
12. Это наш родное еврей
13. Тумбалайка
14. Одесса-мама, а Киев-папа
Код:
foobar2000 1.3.19 / Замер динамического диапазона (DR) 1.1.1
Дата отчёта:  2020-03-27 18:37:25
--------------------------------------------------------------------------------
Анализ:   Группа Экспресс / Ах, Одесса
--------------------------------------------------------------------------------
DR         Пики         RMS           Продолжительность трека
--------------------------------------------------------------------------------
DR8        0.00 дБ    -8.16 дБ      3:03 01-Погуляем по одесски
DR6       -0.26 дБ    -7.37 дБ      2:46 02-Моя Одесса
DR8        0.00 дБ    -8.63 дБ      3:42 03-Полюбила одессита
DR7        0.00 дБ    -7.81 дБ      3:06 04-Губки бантиком
DR8        0.00 дБ    -9.08 дБ      2:57 05-Жиганские глаза
DR7       -0.15 дБ    -8.41 дБ      2:34 06-Жора, подержи мой макинтош
DR7        0.00 дБ    -7.88 дБ      2:53 07-Люблю еврея Зяму
DR6        0.00 дБ    -7.03 дБ      3:29 08-Одесские девчата
DR7        0.00 дБ    -8.77 дБ      3:40 09-Студентка
DR7        0.00 дБ    -8.01 дБ      3:01 10-Я знаю, что сказать
DR7        0.00 дБ    -8.11 дБ      3:10 11-Фрейлекс
DR6        0.00 дБ    -6.76 дБ      3:31 12-Это наш родное еврей
DR9        0.00 дБ   -10.16 дБ      3:13 13-Тумбалайка
DR7        0.00 дБ    -7.91 дБ      3:12 14-Одесса - мама, а Киев - папа
--------------------------------------------------------------------------------
Количество треков: 14
Реальные значения DR: DR7
Частота:   44100 Гц
Каналов:   2
Разрядность:   16
Битрейт:   1040 кбит/с
Кодек:   FLAC
Код:
AUDIOCHECKER v2.0 beta (build 457) - by Dester - opdester@freemail.hu
~~~~~~~~~~~~~~~~~~~~~~~~~~~~~~~~~~
-=== DO NOT EDIT THIS FILE! ===-
Path: ...\Ах, Одесса
001 -=- 01 Погуляем по одесски.flac -=- CDDA (100%)
002 -=- 02 Моя Одесса.flac -=- CDDA (100%)
003 -=- 03 Полюбила одессита.flac -=- CDDA (100%)
004 -=- 04 Губки бантиком.flac -=- CDDA (58%)
005 -=- 05 Жиганские глаза.flac -=- CDDA (100%)
006 -=- 06 Жора, подержи мой макинтош.flac -=- CDDA (100%)
007 -=- 07 Люблю еврея Зяму.flac -=- CDDA (100%)
008 -=- 08 Одесские девчата.flac -=- CDDA (100%)
009 -=- 09 Студентка.flac -=- ERROR
010 -=- 10 Я знаю, что сказать.flac -=- CDDA (100%)
011 -=- 11 Фрейлекс.flac -=- CDDA (62%)
012 -=- 12 Это наш родное еврей.flac -=- CDDA (100%)
013 -=- 13 Тумбалайка.flac -=- CDDA (100%)
014 -=- 14 Одесса - мама, а Киев - папа.flac -=- CDDA (100%)
Summary 93,85% CDDA
34261140
Источник: Tidal
#77701. Рыжая, рыжая
02. Мурочка
03. Гроздья рябин
04. Черёмуха
05. Платье белоснежное
06. Цыгане носят кольца
07. Красавица Одесса
08. День рождения у Лёвы
09. Рахиля, мы поженимся
10. Хочу мужа я
11. Не гадай, цыганка мне
12. Белая берёза, я тебя люблю
13. Ехал цыган по селу верхом
14. Гуляночка
Код:
foobar2000 1.3.19 / Замер динамического диапазона (DR) 1.1.1
Дата отчёта:  2020-03-27 18:38:51
--------------------------------------------------------------------------------
Анализ:   Группа Экспресс / Гуляночка
--------------------------------------------------------------------------------
DR         Пики         RMS           Продолжительность трека
--------------------------------------------------------------------------------
DR6        0.00 дБ    -7.15 дБ      3:26 01-Рыжая, рыжая
DR6        0.00 дБ    -7.07 дБ      3:15 02-Мурочка
DR6       -0.30 дБ    -7.70 дБ      3:18 03-Гроздья рябин
DR7        0.00 дБ    -8.00 дБ      2:41 04-Черёмуха
DR7        0.00 дБ    -8.79 дБ      4:27 05-Платье белоснежное
DR6        0.00 дБ    -6.77 дБ      3:41 06-Цыгане носят кольца
DR6        0.00 дБ    -7.01 дБ      3:00 07-Красавица Одесса
DR7       -0.30 дБ    -7.85 дБ      4:06 08-День рождения у Лёвы
DR6        0.00 дБ    -7.15 дБ      2:57 09-Рахиля, мы поженимся
DR7        0.00 дБ    -7.92 дБ      3:04 10-Хочу мужа я
DR7       -0.30 дБ    -8.59 дБ      4:30 11-Не гадай, цыганка мне
DR6       -0.30 дБ    -7.24 дБ      4:25 12-Белая берёза, я тебя люблю
DR6        0.00 дБ    -6.51 дБ      3:43 13-Ехал цыган по селу верхом
DR7        0.00 дБ    -7.71 дБ      3:01 14-Гуляночка
--------------------------------------------------------------------------------
Количество треков: 14
Реальные значения DR: DR6
Частота:   44100 Гц
Каналов:   2
Разрядность:   16
Битрейт:   1092 кбит/с
Кодек:   FLAC
Код:
AUDIOCHECKER v2.0 beta (build 457) - by Dester - opdester@freemail.hu
~~~~~~~~~~~~~~~~~~~~~~~~~~~~~~~~~~
-=== DO NOT EDIT THIS FILE! ===-
Path: ...\Гуляночка
001 -=- 01 Рыжая, рыжая.flac -=- CDDA (100%)
002 -=- 02 Мурочка.flac -=- CDDA (100%)
003 -=- 03 Гроздья рябин.flac -=- CDDA (100%)
004 -=- 04 Черёмуха.flac -=- CDDA (100%)
005 -=- 05 Платье белоснежное.flac -=- CDDA (100%)
006 -=- 06 Цыгане носят кольца.flac -=- CDDA (100%)
007 -=- 07 Красавица Одесса.flac -=- CDDA (100%)
008 -=- 08 День рождения у Лёвы.flac -=- CDDA (100%)
009 -=- 09 Рахиля, мы поженимся.flac -=- CDDA (100%)
010 -=- 10 Хочу мужа я.flac -=- CDDA (100%)
011 -=- 11 Не гадай, цыганка мне.flac -=- CDDA (100%)
012 -=- 12 Белая берёза, я тебя люблю.flac -=- CDDA (100%)
013 -=- 13 Ехал цыган по селу верхом.flac -=- CDDA (100%)
014 -=- 14 Гуляночка.flac -=- CDDA (100%)
Summary 100,00% CDDA
174361380
Источник: Tidal
#77701. Мама, я лётчика люблю
02. На весёлой свадьбе
03. Незабудки
04. Цыганские частушки
05. Поют цыгане
06. Прощай
07. Люда
08. В шумном городе Одесса
09. Улица широкая
10. Морячка Соня
11. Любовь цыганки
12. Мой муж муженёк
Код:
foobar2000 1.3.19 / Замер динамического диапазона (DR) 1.1.1
Дата отчёта:  2020-03-27 18:40:01
--------------------------------------------------------------------------------
Анализ:   Группа Экспресс / На весёлой свадьбе
--------------------------------------------------------------------------------
DR         Пики         RMS           Продолжительность трека
--------------------------------------------------------------------------------
DR7        0.00 дБ    -8.15 дБ      3:17 01-Мама, я лётчика люблю
DR6        0.00 дБ    -7.41 дБ      3:34 02-На весёлой свадьбе
DR7        0.00 дБ    -8.04 дБ      3:27 03-Незабудки
DR7        0.00 дБ    -7.93 дБ      3:18 04-Цыганские частушки
DR7        0.00 дБ    -7.36 дБ      2:58 05-Поют цыгане
DR6        0.00 дБ    -8.38 дБ      3:27 06-Прощай
DR7        0.00 дБ    -8.26 дБ      2:52 07-Люда
DR7        0.00 дБ    -7.87 дБ      3:16 08-В шумном городе Одесса
DR7        0.00 дБ    -8.01 дБ      3:18 09-Улица широкая
DR7        0.00 дБ    -8.13 дБ      3:14 10-Морячка Соня
DR7        0.00 дБ    -7.62 дБ      2:55 11-Любовь цыганки
DR7        0.00 дБ    -8.12 дБ      2:57 12-Мой муж муженёк
--------------------------------------------------------------------------------
Количество треков: 12
Реальные значения DR: DR7
Частота:   44100 Гц
Каналов:   2
Разрядность:   16
Битрейт:   1053 кбит/с
Кодек:   FLAC
Код:
AUDIOCHECKER v2.0 beta (build 457) - by Dester - opdester@freemail.hu
~~~~~~~~~~~~~~~~~~~~~~~~~~~~~~~~~~
-=== DO NOT EDIT THIS FILE! ===-
Path: ...\На весёлой свадьбе (Album)
001 -=- 01 Мама я лётчика люблю.flac -=- CDDA (100%)
002 -=- 02 На весёлой свадьбе.flac -=- CDDA (100%)
003 -=- 03 Незабудки.flac -=- CDDA (100%)
004 -=- 04 Цыганские частушки.flac -=- CDDA (100%)
005 -=- 05 Поют цыгане.flac -=- CDDA (100%)
006 -=- 06 Прощай.flac -=- CDDA (100%)
007 -=- 07 Люда.flac -=- CDDA (100%)
008 -=- 08 В шумном городе Одесса.flac -=- CDDA (100%)
009 -=- 09 Улица широкая.flac -=- CDDA (100%)
010 -=- 10 Морячка Соня.flac -=- CDDA (100%)
011 -=- 11 Любовь цыганки.flac -=- CDDA (100%)
012 -=- 12 Мой муж муженёк.flac -=- CDDA (100%)
Summary 100,00% CDDA
56993044
Источник: Tidal
#77701. Девчоночка
02. Перепетуля
03. А зох ин вей
04. Никто тебя не любит, так как я
05. Цыганское попурри 2
06. Фокстрот №3
07. Шаланды, полные кефали
08. Жила была бабка
09. Сладкая истома
10. Стёжки-дорожки
11. Ехал цыган
12. Лодочка
Код:
foobar2000 1.3.19 / Замер динамического диапазона (DR) 1.1.1
Дата отчёта:  2020-03-27 18:41:25
--------------------------------------------------------------------------------
Анализ:   Группа Экспресс / Перепетуля
--------------------------------------------------------------------------------
DR         Пики         RMS           Продолжительность трека
--------------------------------------------------------------------------------
DR6        0.00 дБ    -7.16 дБ      3:51 01-Девчоночка
DR7        0.00 дБ    -7.84 дБ      3:53 02-Перепетуля
DR7        0.00 дБ    -7.95 дБ      3:36 03-А зох ин вей
DR7        0.00 дБ    -8.61 дБ      4:49 04-Никто тебя не любит, так как я
DR7        0.00 дБ    -7.64 дБ      3:51 05-Цыганское попурри 2
DR8        0.00 дБ    -8.52 дБ      3:17 06-Фокстрот №3
DR8        0.00 дБ    -9.00 дБ      4:02 07-Шаланды, полные кефали
DR7        0.00 дБ    -8.20 дБ      3:22 08-Жила была бабка
DR7        0.00 дБ    -8.03 дБ      3:12 09-Сладкая истома
DR7        0.00 дБ    -8.33 дБ      2:41 10-Стёжки-дорожки
DR7        0.00 дБ    -7.96 дБ      3:10 11-Ехал цыган
DR7       -1.08 дБ    -8.99 дБ      3:09 12-Лодочка
--------------------------------------------------------------------------------
Количество треков: 12
Реальные значения DR: DR7
Частота:   44100 Гц
Каналов:   2
Разрядность:   16
Битрейт:   1027 кбит/с
Кодек:   FLAC
Код:
AUDIOCHECKER v2.0 beta (build 457) - by Dester - opdester@freemail.hu
~~~~~~~~~~~~~~~~~~~~~~~~~~~~~~~~~~
-=== DO NOT EDIT THIS FILE! ===-
Path: ...\Перепетуля (Album)
001 -=- 01 Девчоночка.flac -=- CDDA (99%)
002 -=- 02 Перепетуля.flac -=- CDDA (100%)
003 -=- 03 А зох ин вей.flac -=- CDDA (100%)
004 -=- 04 Никто тебя не любит так как я.flac -=- CDDA (100%)
005 -=- 05 Цыганское попурри 2.flac -=- CDDA (100%)
006 -=- 06 Фокстрот №3.flac -=- CDDA (100%)
007 -=- 07 Шаланды полные кефали.flac -=- CDDA (100%)
008 -=- 08 Жила была бабка.flac -=- CDDA (99%)
009 -=- 09 Сладкая истома.flac -=- CDDA (100%)
010 -=- 10 Стёжки-дорожки.flac -=- CDDA (100%)
011 -=- 11 Ехал цыган.flac -=- CDDA (100%)
012 -=- 12 Лодочка.flac -=- CDDA (100%)
Summary 99,83% CDDA
166567540
Правила, инструкции, FAQ!!!
Торрент  Добавлен [03 янв 2021, 08:54] Скачать торрент Магнет ссылка
Скачать торрент
[ Размер 189.66 КБ / Просмотров 106 ]

Статус
Проверен 
 
Размер  26.11 ГБ
Приватный: Нет (DHT включён)
.torrent скачан  1
 


     Отправить личное сообщение
   
Страница 1 из 1
Показать сообщения за:  Поле сортировки  
Начать новую тему Ответить на тему


Сейчас этот форум просматривают: нет зарегистрированных пользователей и гости: 0


Вы не можете начинать темы
Вы не можете отвечать на сообщения
Вы не можете редактировать свои сообщения
Вы не можете удалять свои сообщения
Вы не можете добавлять вложения

Перейти:  
cron