Начать новую тему Ответить на тему
Статистика раздачи
Размер: 1.8 ГБ | Добавлен: 07 янв 2020, 21:32 | Скачали: 0
Сидеров: 2  [0 байт/сек]    Личеров: 0  [0 байт/сек]
Пред. тема | След. тема 

Автор
Сообщение

СообщениеДобавлено: 07 янв 2020, 21:32 

Ответить с цитатой 

Eddy Grant / Killer On The Rampage(JP)
Жанр: Reggae-Pop
Носитель:LP
Год выпуска: 1983
Лейбл: Portrait – 25·3P-428
Страна-производитель: JP
Аудио кодек: FLAC
Тип рипа: image+.cue
Формат записи: 32/192
Формат раздачи: 24/192
Продолжительность: 00:41:49
Eddy Grant
A1 - Electric Avenue 3:47
A2 - I Don't Wanna Dance 3:39
A3 - It's All In You 4:26
A4 - War Party 3:54
A5 - Funky Rock 'N' Roll 4:27
B1 - Killer On The Rampage 3:29
B2 - Too Young To Fall 4:31
B3 - Latin Love Affair 4:18
B4 - Another Revolutionary 5:16
B5 - Drop Baby Drop 3:35
Источник оцифровки: автором раздачи
Код класса состояния винила: EX+
Устройство воспроизведения: Pioneer PL-30L
Головка звукоснимателя: Denon 103
Предварительный усилитель:NAD PP2iM
АЦП: Xonar Essence ST
Программа-оцифровщик: Adobe 6
Обработка SF10: заход
NO
Companies etc:
Record Company – Epic/Sony
Manufactured By – Epic/Sony Inc.
Phonographic Copyright (p) – CBS Inc.
Copyright (c) – CBS Inc.
Published By – Greenheart Music
Recorded At – Blue Wave Recording Studios
Credits:
Arranged By, Written-By, Producer – Eddy Grant
Design – Shoot That Tiger!
Engineer – Frank Agarrat*
Photography By – Simon Fowler (2)
Notes:
1982 CBS Inc.
Made by Epic/Sony Inc., Tokyo, Japan
Written, arranged, produced and recorded to completion at Blue Wave Studios, St. Philip, Barbados.
Barcode and Other Identifiers
Matrix / Runout (A side, stamped): 25-3P-428A1
Matrix / Runout (B side, stamped): 25-3P-428B1
Rights Society: JASRAC
Other (Price): Y 2,500
REM GENRE Reggae-Pop
REM DATE 1983
REM yamata6839_VINYLRIP
REM Portrait – 25·3P-428, Japan
REM Producer – Eddy Grant
REM Engineer – Frank Agarrat
PERFORMER "Eddy Grant"
TITLE "Killer On The Rampage"
FILE "Killer On The Rampage.flac" WAVE
TRACK 01 AUDIO
TITLE "Electric Avenue"
PERFORMER "Eddy Grant"
INDEX 01 00:00:00
TRACK 02 AUDIO
TITLE "I Don't Wanna Dance"
PERFORMER "Eddy Grant"
INDEX 01 03:55:00
TRACK 03 AUDIO
TITLE "It's All In You"
PERFORMER "Eddy Grant"
INDEX 01 07:35:27
TRACK 04 AUDIO
TITLE "War Party"
PERFORMER "Eddy Grant"
INDEX 01 12:02:66
TRACK 05 AUDIO
TITLE "Funky Rock 'N' Roll"
PERFORMER "Eddy Grant"
INDEX 01 15:59:25
TRACK 06 AUDIO
TITLE "Killer On The Rampage"
PERFORMER "Eddy Grant"
INDEX 01 20:27:44
TRACK 07 AUDIO
TITLE "Too Young To Fall"
PERFORMER "Eddy Grant"
INDEX 01 24:01:68
TRACK 08 AUDIO
TITLE "Latin Love Affair"
PERFORMER "Eddy Grant"
INDEX 01 28:34:67
TRACK 09 AUDIO
TITLE "Another Revolutionary"
PERFORMER "Eddy Grant"
INDEX 01 32:53:08
TRACK 010 AUDIO
TITLE "Drop Baby Drop"
PERFORMER "Eddy Grant"
INDEX 01 38:08:62
Все материалы представлены исключительно в ознакомительных целях ознакомиться можно пароль 44 Welcom Comrades in Arms Vinyl!
Правила, инструкции, FAQ!!!
Торрент  Добавлен [07 янв 2020, 21:32] Скачать торрент Магнет ссылка
Скачать торрент
[ Размер 18.81 КБ / Просмотров 16 ]

Статус
Проверен 
 
Размер  1.8 ГБ
Приватный: Нет (DHT включён)
.torrent скачан  0
 


     Отправить личное сообщение
   
Страница 1 из 1
Показать сообщения за:  Поле сортировки  
Начать новую тему Ответить на тему


Сейчас этот форум просматривают: нет зарегистрированных пользователей и гости: 0


Вы не можете начинать темы
Вы не можете отвечать на сообщения
Вы не можете редактировать свои сообщения
Вы не можете удалять свои сообщения
Вы не можете добавлять вложения

Перейти:  
cron