Начать новую тему Ответить на тему
Статистика раздачи
Размер: 1.45 ГБ | Добавлен: 07 янв 2020, 21:58 | Скачали: 1
Сидеров: 1  [0 байт/сек]    Личеров: 1  [0 байт/сек]
Пред. тема | След. тема 

Автор
Сообщение

СообщениеДобавлено: 07 янв 2020, 21:58 

Ответить с цитатой 

Kebra Selassie ‎– Through Deep Meditation Instrumental & Dub
Жанр: Reggae, Instrumental, Dub
Носитель: LP
Год выпуска: 1995
Лейбл: Lion Inc. ‎– LPLINC004
Страна-производитель: UK
Аудио кодек: FLAC
Тип рипа: image+.cue
Формат записи: 32/192
Формат раздачи: 24/192
Продолжительность: 00:37:41
Треклист:
A1 Hapiness Is Indica
A2 Royality
A3 Joe Banjo
A4 Blue Nile
A5 Promise
B1 Still Waters
B2 Discovery
B3 Passion
B4 Forgive Them
B5 Sensible
Источник оцифровки: автором раздачи
Код класса состояния винила: NM
Устройство воспроизведения: Denon DP-21F
Головка звукоснимателя: JVC VICTOR 4MD-1X с иглой 4DT - 1X (NOS)
Предварительный усилитель: Самодельный Ламповый фонокорректор
АЦП: M-Audio ProFire 610
Программа-оцифровщик: iZotope RX5
Обработка: удалено несколько щелчков вручную
foobar2000 1.3.9 / Dynamic Range Meter 1.1.1
log date: 2018-08-06 22:42:38
--------------------------------------------------------------------------------
Analyzed: Kebra Selassie / Through Deep Meditation
--------------------------------------------------------------------------------
DR Peak RMS Duration Track
--------------------------------------------------------------------------------
DR10 -0.77 dB -13.18 dB 4:03 01-Hapiness Is Indica
DR14 -0.12 dB -15.77 dB 4:17 02-Royality
DR12 -0.87 dB -14.01 dB 3:38 03-Joe Banjo
DR10 -2.09 dB -13.44 dB 3:06 04-Blue Nile
DR11 -1.07 dB -14.68 dB 3:27 05-Promise
DR13 -0.14 dB -14.67 dB 3:51 06-Still Waters
DR10 -1.29 dB -12.47 dB 3:54 07-Discovery
DR12 -0.68 dB -15.09 dB 3:45 08-Passion
DR9 -2.06 dB -12.95 dB 4:24 09-Forgive Them
DR10 -0.05 dB -12.47 dB 3:16 10-Sensible
--------------------------------------------------------------------------------
Number of tracks: 10
Official DR value: DR11
Samplerate: 192000 Hz
Channels: 2
Bits per sample: 32
Bitrate: 12288 kbps
Codec: PCM (floating-point)
================================================================================
Правила, инструкции, FAQ!!!
Торрент  Добавлен [07 янв 2020, 21:58] Скачать торрент Магнет ссылка
Скачать торрент
[ Размер 29.68 КБ / Просмотров 26 ]

Статус
Проверен 
 
Размер  1.45 ГБ
Приватный: Нет (DHT включён)
.torrent скачан  1
 


     Отправить личное сообщение
   
Страница 1 из 1
Показать сообщения за:  Поле сортировки  
Начать новую тему Ответить на тему


Сейчас этот форум просматривают: нет зарегистрированных пользователей и гости: 0


Вы не можете начинать темы
Вы не можете отвечать на сообщения
Вы не можете редактировать свои сообщения
Вы не можете удалять свои сообщения
Вы не можете добавлять вложения

Перейти:  
cron