Начать новую тему Ответить на тему
Статистика раздачи
Размер: 819.57 МБ | Добавлен: 07 янв 2020, 21:56 | Скачали: 0
Сидеров: 2  [0 байт/сек]    Личеров: 4  [0 байт/сек]
Пред. тема | След. тема 

Автор
Сообщение

СообщениеДобавлено: 07 янв 2020, 21:56 

Ответить с цитатой 

UB40 – Labour Of Love
Жанр: Reggae, Dub, Reggae-Pop
Носитель: LP
Год выпуска: 1983
Лейбл: DEP International
Страна-производитель: Europe
Аудио кодек: FLAC
Тип рипа: tracks
Формат записи: 24/96
Формат раздачи: 24/96
Продолжительность: 00:39:36
Источник оцифровки: alexpika
Код класса состояния винила: VG
Устройство воспроизведения: Profi HiFi Sound
Головка звукоснимателя: Audio Technica
Предварительный усилитель: Marantz
АЦП: Realtek HD
Программа-оцифровщик: WaveEditor
Обработка: регулировка уровня громкости программой iZotope RX3
Треклист:
A1. Cherry Oh Baby - 3.18
A2. Keep On Moving - 4.37
A3. Please Don't Make Me Cry - 3.26
A4. Sweet Sensation - 3.42
A5. Johnny Too Bad - 4.57
B1. Red Red Wine - 5.21
B2. Guilty - Lead Vocals – 3.16
B3. She Caught The Train - 3.17
B4. Version Girl - 3.27
B5. Many Rivers To Cross - 4.31
foobar2000 1.1.10 / Dynamic Range Meter 1.1.1
log date: 2019-03-13 15:03:56
--------------------------------------------------------------------------------
Analyzed: ? / ?
--------------------------------------------------------------------------------
DR Peak RMS Duration Track
--------------------------------------------------------------------------------
DR12 -0.26 dB -13.37 dB 3:19 ?-A1. Cherry Oh Baby
DR13 -0.26 dB -13.95 dB 4:36 ?-A2. Keep On Moving
DR11 -0.26 dB -11.74 dB 3:24 ?-A3. Please Don't Make Me Cry
DR13 -0.26 dB -14.91 dB 3:39 ?-A4. Sweet Sensation
DR12 -0.26 dB -14.54 dB 4:56 ?-A5. Johnny Too Bad
DR11 -0.26 dB -12.42 dB 5:17 ?-B1. Red Red Wine
DR12 -0.26 dB -14.03 dB 3:14 ?-B2. Guilty
DR10 -0.26 dB -11.69 dB 3:16 ?-B3. She Caught The Train
DR11 -0.26 dB -12.72 dB 3:26 ?-B4. Version Girl
DR9 -0.26 dB -11.24 dB 4:29 ?-B5. Many Rivers To Cross
--------------------------------------------------------------------------------
Number of tracks: 10
Official DR value: DR11
Samplerate: 96000 Hz
Channels: 2
Bits per sample: 24
Bitrate: 2945 kbps
Codec: FLAC
================================================================================
Phonographic Copyright (p) – DEP International
Recorded At – Manor Mobile
Mastered At – The Abattoir
Mastered At – The Town House
Distributed By – Ariola Group Of Companies
Printed By – Mohndruck Graphische Betriebe Gmb
Credits
Bass – Earl Falconer
Design [Sleeve] – Kenneth Ensell
Drums, Electronics [Syncussion] – James Brown
Engineer [Assistant] – Alan Caves, Keith Nixon
Engineer, Producer [Assistant Production] – Howard Gray
Illustration – David Dragon
Keyboards – Michael Virtue
Percussion, Vocals – Norman Hassan
Producer – Ray 'Pablo' Falconer
Producer, Arranged By – UB40
Saxophone – Brian Travers
Tape Op – Keith Nixon
Vocals, Guitar – Ali Campbell, Robin Campbell
Voice [Rhyming], Percussion, Toasting – Astro
Notes
Recorded on tour by The Manor Mobile.
Mastered at The Abattoir, Birmingham & The Town House, London.
℗ 1983 DEP International
Barcode and Other Identifiers
Label Code: LC 3098
Rights Society: GEMA STEMRA BIEM
Matrix / Runout (A Side, variant 1): 205716 A - 2/83S I
Matrix / Runout (B Side, variant 1): 205716 B - 2/83S III
Matrix / Runout (A Side, variant 2): 2 057 16 A-1/83S III Made in Germany
Matrix / Runout (B Side, variant 2): 20 5 716 B-2/83 S III III Made in Germany
Matrix / Runout (A Side, variant 3): 205716 A - 2/83S III
Matrix / Runout (B Side, variant 3): 205716 B - 2/83S III


Раздаю до первых 5-ти скачавших, на раздачи не возвращаюсь...

Правила, инструкции, FAQ!!!
Торрент  Добавлен [07 янв 2020, 21:56] Скачать торрент Магнет ссылка
Скачать торрент
[ Размер 17.21 КБ / Просмотров 13 ]

Статус
Проверен 
 
Размер  819.57 МБ
Приватный: Нет (DHT включён)
.torrent скачан  0
 


     Отправить личное сообщение
   
Страница 1 из 1
Показать сообщения за:  Поле сортировки  
Начать новую тему Ответить на тему


Сейчас этот форум просматривают: нет зарегистрированных пользователей и гости: 0


Вы не можете начинать темы
Вы не можете отвечать на сообщения
Вы не можете редактировать свои сообщения
Вы не можете удалять свои сообщения
Вы не можете добавлять вложения

Перейти:  
cron