Начать новую тему Ответить на тему
Статистика раздачи
Размер: 4.01 ГБ | Добавлен: 02 янв 2021, 10:10 | Скачали: 0
Сидеров: 9  [0 байт/сек]    Личеров: 3  [0 байт/сек]
Пред. тема | След. тема 

Автор
Сообщение

СообщениеДобавлено: 02 янв 2021, 10:10 

Ответить с цитатой 

Rea Garvey

zdf@bauhaus Live


Жанр: Pop-Rock, Soft, Alternative
Продолжительность: 00:41:50
Год выпуска: 2018
Качество: HDTV
Разрешение видео/развертка: 720p
Контейнер: TS
Видео кодек: H.264
Аудио кодек: AC3
Видео: MPEG4 Video (H264) 1280x720 50fps 12.6 Mb/s
Аудио: Dolby AC3 48000Hz 6ch 448kbps
01. Is it Love?
02. Beautiful Life
03. Armour
04. Let's be Lovers Tonight
05. God Ugly World
06. Can't Stand the Silence
07. Oh my Love
08. Wild Love
09. Kiss Me
10. Water
Код:
General
ID                             : 1 (0x1)
Complete name                  : H:\Rea Garvey - zdf@bauhaus Live 2018.ts
Format                         : MPEG-TS
File size                      : 4.01 GiB
Duration                       : 41 min 50 s
Overall bit rate mode          : Variable
Overall bit rate               : 13.7 Mb/s
Video
ID                             : 6510 (0x196E)
Menu ID                        : 1 (0x1)
Format                         : AVC
Format/Info                    : Advanced Video Codec
Format profile                 : High@L4
Format settings, CABAC         : Yes
Format settings, RefFrames     : 6 frames
Format settings, GOP           : M=4, N=33
Codec ID                       : 27
Duration                       : 41 min 49 s
Bit rate                       : 12.6 Mb/s
Width                          : 1 280 pixels
Height                         : 720 pixels
Display aspect ratio           : 16:9
Frame rate                     : 50.000 FPS
Color space                    : YUV
Chroma subsampling             : 4:2:0
Bit depth                      : 8 bits
Scan type                      : Progressive
Bits/(Pixel*Frame)             : 0.273
Stream size                    : 3.68 GiB (92%)
Color range                    : Limited
Color primaries                : BT.709
Transfer characteristics       : BT.709
Matrix coefficients            : BT.709
Audio
ID                             : 6522 (0x197A)
Menu ID                        : 1 (0x1)
Format                         : AC-3
Format/Info                    : Audio Coding 3
Format settings, Endianness    : Big
Codec ID                       : 6
Duration                       : 41 min 49 s
Bit rate mode                  : Constant
Bit rate                       : 448 kb/s
Channel(s)                     : 6 channels
Channel positions              : Front: L C R, Side: L R, LFE
Sampling rate                  : 48.0 kHz
Frame rate                     : 31.250 FPS (1536 SPF)
Bit depth                      : 16 bits
Compression mode               : Lossy
Stream size                    : 134 MiB (3%)
Language                       : German
Service kind                   : Complete Main
Правила, инструкции, FAQ!!!
Торрент  Добавлен [02 янв 2021, 10:10] Скачать торрент Магнет ссылка
Скачать торрент
[ Размер 10.47 КБ / Просмотров 280 ]

Статус
Проверен 
 
Размер  4.01 ГБ
Приватный: Нет (DHT включён)
.torrent скачан  0
 


     Отправить личное сообщение
   
Страница 1 из 1
Показать сообщения за:  Поле сортировки  
Начать новую тему Ответить на тему


Сейчас этот форум просматривают: нет зарегистрированных пользователей и гости: 1


Вы не можете начинать темы
Вы не можете отвечать на сообщения
Вы не можете редактировать свои сообщения
Вы не можете удалять свои сообщения
Вы не можете добавлять вложения

Перейти:  
cron