Начать новую тему Ответить на тему
Статистика раздачи
Размер: 3.59 ГБ | Добавлен: 07 янв 2020, 22:00 | Скачали: 1
Сидеров: 3  [0 байт/сек]    Личеров: 1  [0 байт/сек]
Пред. тема | След. тема 

Автор
Сообщение

СообщениеДобавлено: 07 янв 2020, 22:00 

Ответить с цитатой 

Cypress Hill - Skull & Bones, Stoned Raiders, Till Death Do Us Part
Жанр: Rap, Hip-Hop
Носитель: LP
Год выпуска: 2000, 2001, 2004
Аудио кодек: FLAC
Тип рипа: tracks
Формат записи: 24/96
Формат раздачи: 24/96
#777Лейбл: Columbia Records C2 69990
Страна-производитель: US
Продолжительность: 1:04:33.362 (371 842 786 samples)
Треклист:
A1 Intro 1:52
A2 Another Victory 3:11
A3 (Rap) Superstar 4:54
Voice – Eminem, Noreaga
A4 Cuban Necktie 4:14
B1 What U Want From Me 3:51
B2 Stank Ass Hoe 5:10
B3 Highlife 3:53
C1 Certified Bomb 4:03
C2 Can I Get A Hit 2:48
C3 We Live This Shit 4:21
C4 Worldwide 2:46
D1 Valley Of Chrome 4:04
Guitar, Bass – Reggie Stewart
D2 Get Out Of My Head 3:31
Bass – Christian Olde Wolbers
Guitar – Dino Cazares
D3 Can't Get The Best Of Me 4:15
Bass – Eric Bobo
Drums – Brad Wilk
Guitar – Reggie Stewart
Guitar [Overdubs] – Rogelio Lozano
D4 A Man 3:09
Bass – Jeremy Fleener
Guitar – Andy Zambrano
D5 Dust 3:55
Bass – Christian Olde Wolbers
Guitar – Andy Zambrano, Jeremy Fleener
D6 (Rock) Superstar 4:37
Guitar – Mike Fingers
Guitar [Overdubs] – Rogelio Lozano
Voice – Chino Moreno, Everlast
----------------------------------------------------------------------------------------------
Analyzed folder: \Cypress Hill - Skull & Bones (2000) [2x 16-44 Vinyl]\
----------------------------------------------------------------------------------------------
DR Peak RMS Filename
----------------------------------------------------------------------------------------------
DR12 -1.82 dB -16.69 dB A1 Intro.wav
DR13 -0.28 dB -14.22 dB A2 Another Victory.wav
DR12 -0.39 dB -14.85 dB A3 (Rap) Superstar.wav
DR12 -0.26 dB -13.31 dB A4 Cuban Necktie.wav
DR12 -0.34 dB -13.72 dB B1 What U Want From Me.wav
DR12 -0.50 dB -13.55 dB B2 Stank Ass Hoe.wav
DR12 -0.95 dB -14.82 dB B3 Highlife.wav
DR11 -0.90 dB -14.05 dB C1 Certified Bomb.wav
DR11 -2.09 dB -15.64 dB C2 Can I Get A Hit.wav
DR12 -0.48 dB -13.93 dB C3 We Live This Shit.wav
DR13 -0.44 dB -14.52 dB C4 Worldwide.wav
DR12 -0.80 dB -15.87 dB D1 Valley of Chrome.wav
DR11 -1.01 dB -13.94 dB D2 Get Out Of My Head.wav
DR11 -1.15 dB -14.61 dB D3 Can't Get The Best Of Me.wav
DR12 -0.79 dB -14.58 dB D4 A Man.wav
DR11 -1.67 dB -14.30 dB D5 Dust.wav
DR13 -1.63 dB -16.88 dB D6 (Rock) Superstar.wav
----------------------------------------------------------------------------------------------
Number of files: 17
Official DR value: DR12
==============================================================================================
#777Лейбл: Columbia ‎– C2 85740
Страна-производитель: US
Продолжительность: 58:27.353 (336 705 886 samples)
Треклист:
A1 Intro 1:03
A2 Trouble 5:01
Bass, Guitar – Christian Olde Wolbers
A3 Kronologik 4:45
Rap [Featuring] – Kurupt
A4 Southland Killers 3:27
Rap [Featuring] – King Tee, MC Ren
B1 Bitter 4:20
Guitar – Mike "Crazy Neck" Sims
Vocals [Additional] – Jessy Moss
B2 Amplified 3:55
Guitar – Andy Zambrano, Jeremy Fleener
Synthesizer [Moog] – Mike "Crazy Neck" Sims
B3 It Ain't Easy 4:13
Guitar – Mike "Crazy Neck" Sims, Rogelio Lozano
Strings [Orchestration] – Paula Gallithno
B4 Memories 4:09
C1 Psychodelic Vision 4:27
C2 Red, Meth & B 3:45
Rap [Featuring] – Method Man & Redman
C3 Lowrider 6:43
D1 Catastrophe 3:26
Bass – Christian Olde Wolbers
Guitar – Rogelio Lozano
D2 L.I.F.E. 4:44
Vocals [Featuring] – Kokane
D3 Here Is Something You Can't Understand 4:29
Rap [Featuring] – Kurupt
----------------------------------------------------------------------------------------------
Analyzed folder: \Cypress Hill - Stoned Raiders (2001) [16-44 2x Promo Vinyl]\
----------------------------------------------------------------------------------------------
DR Peak RMS Filename
----------------------------------------------------------------------------------------------
DR11 -2.37 dB -16.21 dB A1 Intro.wav
DR9 -1.99 dB -13.44 dB A2 Trouble.wav
DR10 -0.78 dB -12.31 dB A3 Kronologik (feat. Kurupt).wav
DR12 -1.32 dB -15.02 dB A4 Southland Killers (feat. M.C. Ren & King Tee).wav
DR9 -0.49 dB -10.98 dB B1 Bitter.wav
DR9 -1.46 dB -12.63 dB B2 Amplified.wav
DR10 -1.17 dB -12.99 dB B3 It Ain't Easy.wav
DR10 -1.76 dB -12.89 dB B4 Memories.wav
DR10 -0.45 dB -12.71 dB C1 Psychodelic Vision.wav
DR10 -2.07 dB -13.19 dB C2 Red, Meth & B (feat. Redman & Method Man).wav
DR11 -1.26 dB -15.24 dB C3 Lowrider.wav
DR8 -0.49 dB -10.45 dB D1 Catastrophe.wav
DR12 -2.13 dB -15.01 dB D2 L.I.F.E. (feat. Kokane).wav
DR10 -0.71 dB -11.59 dB D3 Here Is Something You Can't Understand (feat. Kurupt).wav
----------------------------------------------------------------------------------------------
Number of files: 14
Official DR value: DR10
==============================================================================================
#777Лейбл: Columbia ‎– C2 90781
Страна-производитель: US
Продолжительность: 49:48.087 (286 856 305 samples)
Треклист:
A1 Another Body Drops 3:53
Bass, Guitar – Reggie Stewart
Guitar [Additional] – Mike Sims
A2 Till Death Comes 3:30
Bass, Keyboards – Mike Sims
A3 Latin Thugs 3:47
Bass, Keyboards, Guitar – Mike Sims
Congas – Ray Armundo
Producer, Recorded By [Additional] – Alchemist, The
Programmed By [Additional] – Muggs
Rap [Featuring] – Tego Calderon
B1 Ganja Bus 3:41
Producer – Tony "CD" Kelly
Recorded By [Additional] – Rob Hill
Vocals [Reggae] – Damian Marley
B2 Busted In The Hood 4:03
Bass, Guitar, Keyboards – Rob Hill
B3 Money 3:33
Guitar – Mike Sims, Rob Hill
Keyboards – Mike Sims
Synthesizer [Moog] – Fredwreck Nassar
B4 Never Know 3:16
Bass, Guitar, Keyboards – Mike Sims
C1 Last Laugh 3:41
Bass, Guitar, Keyboards – Mike Sims
Rap [Featuring] – Prodigy, Twin
Recorded By [Additional] – Alchemist, The
C2 Bong Hit 1:21
Programmed By – Rogelio Lozano
C3 What's Your Number? 3:50
Bass – Rob Hill
Drums – Scott Abel
Guitar – Mike Sims, Rob Hill
Guitar [Additional] – Rogelio Lozano, Tim Armstrong
Keyboards – Mike Sims
Keyboards [Additional] – Dan Boer
Vocals – Skinhead Rob, Tim Armstrong
C4 Once Again 3:50
Bass – Rogelio Lozano
Guitar – Mike Sims, Rogelio Lozano
Keyboards – Mike Sims
D1 Number Seven 0:51
Bass – Rob Hill
D2 One Last Cigarette 2:46
Bass – Rob Hill
Drums – Alan Pahanish
Saxophone – Tim Burton
Vocals [Additional] – Chace Infinite
D3 Street Wars 2:42
Bass, Guitar, Keyboards – Mike Sims
D4 Till Death Do Us Part 3:55
Guitar, Keyboards – Fredwreck Nassar
Producer, Mixed By – Fredwreck Nassar
Vocals [Additional] – Traci Nelson
D5 Eulogy 1:08
Guitar – Rogelio Lozano
----------------------------------------------------------------------------------------------
Analyzed folder: \Cypress Hill - Till Death Do Us Part (2004) [16-44 2x Promo Vinyl]\
----------------------------------------------------------------------------------------------
DR Peak RMS Filename
----------------------------------------------------------------------------------------------
DR10 -0.48 dB -13.65 dB A1 Another Body Drops.wav
DR12 -1.04 dB -14.99 dB A2 Till Death Comes.wav
DR11 -2.39 dB -14.89 dB A3 Latin Thugs.wav
DR11 -1.08 dB -13.92 dB B1 Ganja Bus.wav
DR11 -0.90 dB -13.30 dB B2 Busted In The Hood.wav
DR12 -0.44 dB -14.02 dB B3 Money.wav
DR11 -0.69 dB -12.65 dB B4 Never Know.wav
DR10 -1.05 dB -12.75 dB C1 Last Laugh.wav
DR13 -1.76 dB -17.22 dB C2 Bong Hit.wav
DR10 -0.10 dB -12.31 dB C3 What's Your Number.wav
DR12 -0.54 dB -14.62 dB C4 Once Again.wav
DR10 -4.57 dB -16.13 dB D1 Number Seven.wav
DR11 -0.45 dB -13.60 dB D2 One Last Cigarette.wav
DR10 -0.57 dB -12.40 dB D3 Street Wars.wav
DR11 -1.40 dB -14.11 dB D4 Till Death Do Us Part.wav
DR12 -3.06 dB -16.62 dB D5 Eulogy.wav
----------------------------------------------------------------------------------------------
Number of files: 16
Official DR value: DR11
==============================================================================================
Источник оцифровки: Fooeee123
Код класса состояния винила: NM
Устройство воспроизведения: Technics SL-1200 MK5
Головка звукоснимателя: AT440MLa
Предварительный усилитель: TCC TC-750LC
АЦП: Emu 0404 USB 2.0
Программа-оцифровщик: Ableton Live 6.0.1.1 E-mu Edition
Обработка: Cool Edit Pro 2.1
Раздаче нужен хранитель
Правила, инструкции, FAQ!!!
Торрент  Добавлен [07 янв 2020, 22:00] Скачать торрент Магнет ссылка
Скачать торрент
[ Размер 24.37 КБ / Просмотров 26 ]

Статус
Проверен 
 
Размер  3.59 ГБ
Приватный: Нет (DHT включён)
.torrent скачан  1
 


     Отправить личное сообщение
   
Страница 1 из 1
Показать сообщения за:  Поле сортировки  
Начать новую тему Ответить на тему


Сейчас этот форум просматривают: нет зарегистрированных пользователей и гости: 0


Вы не можете начинать темы
Вы не можете отвечать на сообщения
Вы не можете редактировать свои сообщения
Вы не можете удалять свои сообщения
Вы не можете добавлять вложения

Перейти:  
cron