Начать новую тему Ответить на тему
Статистика раздачи
Размер: 1.51 ГБ | Добавлен: 07 янв 2020, 21:35 | Скачали: 1
Сидеров: 2  [0 байт/сек]    Личеров: 0  [0 байт/сек]
Пред. тема | След. тема 

Автор
Сообщение

СообщениеДобавлено: 07 янв 2020, 21:35 

Ответить с цитатой 

N.W.A. - 100 Miles And Runnin', Efil4zaggin
Жанр: Rap, Hip-Hop
Носитель: LP
Год выпуска: 1990, 1991
Аудио кодек: FLAC
Тип рипа: tracks
Формат записи: 24/96
Формат раздачи: 24/96
#777Лейбл: Priority Records ‎– EVL7224
Страна-производитель: US
Продолжительность: 23:19.505 (134 352 469 samples)
Треклист:
A1 100 Miles And Runnin' 4:32
A2 Just Don't Bite It 5:28
Tambourine – Brian Kilgore
B1 Sa Prize (Part 2) 5:59
B2 Real Niggaz 5:26
B3 Kamurshol 1:56
#777Лейбл: Priority Records ‎– SL 57126
Страна-производитель: US
Продолжительность: 47:56.279 (276 122 741 samples)
Треклист:
A1 Real Niggaz Don't Die 3:41
A2 Niggaz 4 Life 4:58
A3 Protest 0:53
A4 Appetite For Destruction 3:22
Written-By – Kokane
A5 Don't Drink That Wine 1:08
A6 Alwayz Into Somethin' 4:25
Bass – Mike Sims
A7 To Kill A Hooker 0:51
A8 One Less Bitch 4:49
B1 Findum, Fuckum & Flee 3:55
B2 Automobile 3:16
B3 She Swallowed It 4:14
B4 I'd Rather Fuck You 3:57
B5 Approach To Danger 2:45
B6 1-900-2 Compton 1:28
B7 The Dayz Of Wayback 4:15
foobar2000 1.2 / Dynamic Range Meter 1.1.1
log date: 2014-06-04 23:24:58
--------------------------------------------------------------------------------
Analyzed: N.W.A / Niggaz4life (24/96 Vinyl)
--------------------------------------------------------------------------------
DR Peak RMS Duration Track
--------------------------------------------------------------------------------
DR12 -0.45 dB -13.20 dB 3:41 01-Real Niggaz Don't Die
DR13 -0.57 dB -14.98 dB 4:58 02-Niggaz 4 Life
DR10 -1.07 dB -16.61 dB 0:53 03-Protest
DR12 -1.08 dB -14.83 dB 3:22 04-Appetite For Destruction
DR13 -3.51 dB -19.59 dB 1:08 05-Don't Drink That Wine
DR13 -0.45 dB -14.33 dB 4:25 06-Alwayz Into Somethin'
DR12 -4.05 dB -20.97 dB 0:51 07-To Kill A Hooker
DR14 -0.88 dB -16.55 dB 4:49 08-One Less Bitch
DR13 -0.45 dB -13.95 dB 3:55 09-Findum, Fuckum, & Flee
DR12 -0.77 dB -15.40 dB 3:16 10-Automobile
DR12 -0.45 dB -14.20 dB 4:14 11-She Swallowed It
DR12 -0.60 dB -14.99 dB 3:57 12-I'd Rather Fuck You
DR11 -0.82 dB -13.68 dB 2:45 13-Approach To Danger
DR12 -3.22 dB -16.44 dB 1:28 14-1-900-2-Compton
DR13 -0.45 dB -14.26 dB 4:15 15-The Dayz Of Wayback
--------------------------------------------------------------------------------
Number of tracks: 15
Official DR value: DR12
Samplerate: 96000 Hz
Channels: 2
Bits per sample: 24
Bitrate: 3000 kbps
Codec: FLAC
================================================================================
Источник оцифровки: Fooeee123
Код класса состояния винила: NM
Устройство воспроизведения: Technics SL-1200 MK5
Головка звукоснимателя: AT440MLa
Предварительный усилитель: TCC TC-750LC
АЦП: Emu 0404 USB 2.0
Программа-оцифровщик: Ableton Live 6.0.1.1 E-mu Edition
Обработка: Cool Edit Pro 2.1
Раздаче нужен хранитель
Правила, инструкции, FAQ!!!
Торрент  Добавлен [07 янв 2020, 21:35] Скачать торрент Магнет ссылка
Скачать торрент
[ Размер 18.38 КБ / Просмотров 15 ]

Статус
Проверен 
 
Размер  1.51 ГБ
Приватный: Нет (DHT включён)
.torrent скачан  1
 


     Отправить личное сообщение
   
Страница 1 из 1
Показать сообщения за:  Поле сортировки  
Начать новую тему Ответить на тему


Сейчас этот форум просматривают: нет зарегистрированных пользователей и гости: 0


Вы не можете начинать темы
Вы не можете отвечать на сообщения
Вы не можете редактировать свои сообщения
Вы не можете удалять свои сообщения
Вы не можете добавлять вложения

Перейти:  
cron