Начать новую тему Ответить на тему
Статистика раздачи
Размер: 2.63 ГБ | Добавлен: 05 июн 2020, 23:02 | Скачали: 0
Сидеров: 0  [0 байт/сек]    Личеров: 0  [0 байт/сек]
Пред. тема | След. тема 

Автор
Сообщение

СообщениеДобавлено: 05 июн 2020, 23:02 

Ответить с цитатой 

С. Рахманинов – Алеко
Год выпуска: 2010
Жанр: Opera
Продолжительность: 01:00:31
Режиссер-постановщик: Михаил Ковальчик
Исполнители:
Алеко – солист Государственной Ставропольской краевой филармонии, народный артист России Борис Бруснёв,
Земфира – солистка Пятигорского театра оперетты, лауреат международного конкурса Наталья Виноградова,
Молодой цыган – солист Саратовского академического театра оперы и балета Павел Корчагин
Старая цыганка – Елена Астанкова
Старый цыган – солист Государственной Ставропольской краевой филармонии Александр Вечёркин
Оркестр Государственной Ставропольской краевой филармонии
Дирижёр – Заслуженный артист России Юрий Каспаров.
Камерный хор и вокально-хореографический ансамбль "Слобода"
Хормейстер – Татьяна Середа.
Балетмейстер – Людмила Панина.
Описание: Опера в одном действии С. В. Рахманинова "Алеко" по поэме А.С.Пушкина "Цыганы".
Запись произведена в Большом зале Государственной Ставропольской краевой филармонии.
Сюжет:
На берегу реки раскинулся цыганский табор. Вечер. Среди цыган Алеко; уже два года, как он покинул светское общество и кочует вместе с цыганами. Алеко и юная Земфира полюбили друг друга, но вскоре она к нему охладела. Старый отец Земфиры вспоминает дни молодости и свою несчастную любовь. Лишь год была верна ему Мариула. Оставив маленькую дочь, она ушла к другому. Алеко не может понять, почему цыган не отомстил изменнице; сам он, не колеблясь, даже спящего врага столкнул бы в бездну. Но Земфира и ее тайный возлюбленный, Молодой цыган, думают иначе: любовь свободна! Печаль, навеянную рассказом старика, цыганы хотят развеять веселыми плясками. Во время танца Земфира и Молодой цыган скрываются. Мучительная ревность вспыхивает в душе Алеко. Ночь он проводит в тягостном раздумье. Светает. За курганом Земфира прощается с Молодым цыганом. Она торопится. Но Алеко уже здесь. Тщетно он пытается вернуть любовь Земфиры. Обуреваемый ревностью Алеко убивает любовников. На шум сбегаются цыгане. Отец Земфиры, а вместе с ним весь табор требуют, чтобы убийца покинул их. Настало утро. Табор трогается в путь. Алеко в отчаянии, он вновь одинок.
Качество видео: CamRip
Формат/Контейнер: MKV
Видео кодек: V_MPEG4/ISO/AVC
Аудио кодек: MP3
Видео поток: 1920x1080, 5775 kbps, 29,970 fps, 16:9, NTSC, 4:2:0
Аудио поток: MPEG-3, 320 kbps, 44.1 kHz, 2 ch
Формат : Matroska
Размер файла : 2,63 Гбайт
Продолжительность : 1 ч. 0 м.
Общий поток : 6219 Кбит/сек
Программа кодирования : Lavf51.12.1
Библиотека кодирования : Lavf51.12.1
Видео
Идентификатор : 1
Формат : AVC
Формат/Информация : Advanced Video Codec
Профиль формата : Baseline@L1.3
Параметр CABAC формата : Нет
Параметр ReFrames формата : 1 кадр
Идентификатор кодека : V_MPEG4/ISO/AVC
Продолжительность : 1 ч. 0 м.
Битрейт : 5775 Кбит/сек
Ширина : 1920 пикс.
Высота : 1080 пикс.
Соотношение сторон : 16:9
Частота кадров : 29,970 кадр/сек
Цветовое пространство : YUV
Подвыборка цветности : 4:2:0
Битовая глубина : 8 бит
Тип развёртки : Прогрессивная
Бит/(Пиксели*Кадры) : 0.093
Размер потока : 2,44 Гбайт (93%)
Язык : English
Аудио
Идентификатор : 2
Формат : MPEG Audio
Версия формата : Version 1
Профиль формата : Layer 3
Режим : Joint stereo
Идентификатор кодека : A_MPEG/L3
Идентификатор кодека/Подсказка : MP3
Продолжительность : 1 ч. 0 м.
Вид битрейта : Постоянный
Битрейт : 320 Кбит/сек
Канал(ы) : 2 канала(ов)
Частота : 44,1 КГц
Метод сжатия : С потерями
Размер потока : 139 Мбайт (5%)
Библиотека кодирования : LAME3.97
Язык : English
Правила, инструкции, FAQ!!!
Торрент  Добавлен [05 июн 2020, 23:02] Скачать торрент Магнет ссылка
Скачать торрент
[ Размер 13.6 КБ / Просмотров 2 ]

Статус
Проверен 
 
Размер  2.63 ГБ
Приватный: Нет (DHT включён)
.torrent скачан  0
 


     Отправить личное сообщение
   
Страница 1 из 1
Показать сообщения за:  Поле сортировки  
Начать новую тему Ответить на тему


Сейчас этот форум просматривают: нет зарегистрированных пользователей и гости: 0


Вы не можете начинать темы
Вы не можете отвечать на сообщения
Вы не можете редактировать свои сообщения
Вы не можете удалять свои сообщения
Вы не можете добавлять вложения

Перейти:  
cron