Начать новую тему Ответить на тему
Статистика раздачи
Размер: 9.85 ГБ | Добавлен: 09 окт 2020, 23:32 | Скачали: 4
Сидеров: 20  [0 байт/сек]    Личеров: 5  [0 байт/сек]
Пред. тема | След. тема 

Автор
Сообщение

СообщениеДобавлено: 09 окт 2020, 23:32 

Ответить с цитатой 

Queen + Adam Lambert - Live Around the World
#777Жанр: Rock
Продолжительность: 01:38:22
Год выпуска: 2020
Треклист:
1. Tear It Up (O2 Arena, London, UK, 2018)
2. Now I'm Here (Summer Sonic, Tokyo, Japan, 2014)
3. Another One Bites The Dust (Summer Sonic, Tokyo, Japan, 2014)
4. Fat Bottomed Girls (American Airlines Center, Dallas, USA, 2019)
5. Don't Stop Me Now (Rock In Rio, Lisbon, Portugal, 2016)
6. I Want To Break Free (Rock In Rio, Lisbon, Portugal, 2016)
7. Somebody to Love (Isle of Wight Festival, UK, 2016)
8. Love Kills - The Ballad (iHeart Radio Theater, Los Angeles, USA, 2014)
9. I Was Born To Love You (Summer Sonic, Tokyo, Japan, 2014)
10. Drum Battle (Qudos Bank Arena, Sydney, Australia, 2014)
11. Under Pressure (Global Citizen Festival, New York, USA, 2019)
12. Who Wants To Live Forever (Isle of Wight Festival, UK, 2016)
13. Guitar Solo - Last Horizon (O2 Arena, London, UK, 2018)
14. The Show Must Go On (O2 Arena, London, UK, 2018)
15. Love Of My Life (O2 Arena, London, UK, 2018)
16. Bohemian Rhapsody (Fire Fight Australia, Sydney, Australia, 2020)
17. Radio Ga Ga (Fire Fight Australia, Sydney, Australia, 2020)
18. Ay-Ohs (Fire Fight Australia, Sydney, Australia, 2020)
19. Hammer To Fall (Fire Fight Australia, Sydney, Australia, 2020)
20. Crazy Little Thing Called Love (Fire Fight Australia, Sydney, Australia, 2020)
21. We Will Rock You (Fire Fight Australia, Sydney, Australia, 2020)
22. We Are The Champions (Fire Fight Australia, Sydney, Australia, 2020)
Источник Queen + Adam Lambert - Live Around the World [2020, Rock, Blu-ray, 1080p]
Качество: BDRip
Разрешение видео/развертка: 1080p
Контейнер: MKV
Видео кодек: H.264
Аудио кодек: FLAC, DTS
Видео: AVC, 1920x1080 (16:9), 23.976 fps, 11.1 Mb/s
Аудио#1: DTS, 48.0 kHz, 6 ch, 1 509 kb/s
Аудио#2: FLAC, 48.0 kHz, 2 ch, 1 731 kb/s
Код:
[Information] [05.10.2020 15:43:34] Standard error stream
-[Information] [05.10.2020 15:43:52] y4m [info]: 1920x1080p 1:1 @ 24000/1001 fps (cfr)
-[Information] [05.10.2020 15:43:52] x264 [info]: using SAR=1/1
-[Information] [05.10.2020 15:43:52] x264 [info]: using cpu capabilities: MMX2 SSE2Fast SSSE3 SSE4.2 AVX FMA3 BMI2 AVX2
-[Information] [05.10.2020 15:43:53] x264 [info]: profile Progressive High, level 4.1, 4:2:0, 8-bit
-[Information] [06.10.2020 00:38:23] x264 [info]: frame I:920   Avg QP:16.60  size:176332
-[Information] [06.10.2020 00:38:23] x264 [info]: frame P:44093 Avg QP:18.89  size: 75728
-[Information] [06.10.2020 00:38:23] x264 [info]: frame B:96509 Avg QP:20.79  size: 48565
-[Information] [06.10.2020 00:38:23] x264 [info]: consecutive B-frames:  7.5%  9.0% 16.8% 33.5% 14.3% 14.4%  2.8%  1.3%  0.5%
-[Information] [06.10.2020 00:38:23] x264 [info]: mb I  I16..4: 23.0% 59.2% 17.8%
-[Information] [06.10.2020 00:38:23] x264 [info]: mb P  I16..4: 15.6% 34.3%  4.6%  P16..4: 18.0% 14.4%  4.4%  0.7%  0.1%    skip: 7.8%
-[Information] [06.10.2020 00:38:23] x264 [info]: mb B  I16..4:  7.8% 14.1%  1.3%  B16..8: 28.7% 12.3%  2.3%  direct:12.7%  skip:20.9%  L0:43.6% L1:40.8% BI:15.6%
-[Information] [06.10.2020 00:38:23] x264 [info]: 8x8 transform intra:61.9% inter:69.6%
-[Information] [06.10.2020 00:38:23] x264 [info]: direct mvs  spatial:96.7% temporal:3.3%
-[Information] [06.10.2020 00:38:23] x264 [info]: coded y,uvDC,uvAC intra: 51.6% 60.4% 26.0% inter: 29.3% 40.8% 6.6%
-[Information] [06.10.2020 00:38:23] x264 [info]: i16 v,h,dc,p: 27% 18% 21% 34%
-[Information] [06.10.2020 00:38:23] x264 [info]: i8 v,h,dc,ddl,ddr,vr,hd,vl,hu: 15%  9% 27%  7%  7%  8%  8%  9% 10%
-[Information] [06.10.2020 00:38:23] x264 [info]: i4 v,h,dc,ddl,ddr,vr,hd,vl,hu: 19% 10% 36%  5%  6%  6%  6%  5%  6%
-[Information] [06.10.2020 00:38:23] x264 [info]: i8c dc,h,v,p: 24% 41% 22% 13%
-[Information] [06.10.2020 00:38:23] x264 [info]: Weighted P-Frames: Y:14.4% UV:10.6%
-[Information] [06.10.2020 00:38:23] x264 [info]: ref P L0: 57.9% 10.8% 19.6% 10.0%  1.6%  0.1%
-[Information] [06.10.2020 00:38:23] x264 [info]: ref B L0: 86.2% 11.2%  2.6%
-[Information] [06.10.2020 00:38:23] x264 [info]: ref B L1: 95.9%  4.1%
-[Information] [06.10.2020 00:38:23] x264 [info]: kb/s:11097.71
-[Information] [06.10.2020 00:38:23] encoded 141522 frames, 4.41 fps, 11097.71 kb/s
Код:
General
Unique ID                   : 230931645329603528150264749980306909738 (0xADBBD12C7653FA9FFA19F90534142A2A)
Complete name               : D:\Queen + Adam Lambert - Live Around the World.BDRip1080p.mkv
Format                      : Matroska
Format version              : Version 4
File size                   : 9.85 GiB
Duration                    : 1 h 38 min
Overall bit rate mode       : Variable
Overall bit rate            : 14.3 Mb/s
Movie name                  : Queen + Adam Lambert - Live Around the World.BDRip1080p @ rutracker.org
Encoded date                : UTC 2020-10-06 14:51:40
Writing application         : mkvmerge v50.0.0 ('Awakenings') 64-bit
Writing library             : libebml v1.4.0 + libmatroska v1.6.2
Video
ID                          : 1
Format                      : AVC
Format/Info                 : Advanced Video Codec
Format profile              : High@L4.1
Format settings             : CABAC / 4 Ref Frames
Format settings, CABAC      : Yes
Format settings, Reference  : 4 frames
Codec ID                    : V_MPEG4/ISO/AVC
Duration                    : 1 h 38 min
Bit rate                    : 11.1 Mb/s
Width                       : 1 920 pixels
Height                      : 1 080 pixels
Display aspect ratio        : 16:9
Frame rate mode             : Constant
Frame rate                  : 23.976 (24000/1001) FPS
Color space                 : YUV
Chroma subsampling          : 4:2:0
Bit depth                   : 8 bits
Scan type                   : Progressive
Bits/(Pixel*Frame)          : 0.223
Stream size                 : 7.63 GiB (77%)
Title                       : anbelk27@ rutracker.org
Writing library             : x264 core 157 r2969 d4099dd
Encoding settings           : cabac=1 / ref=4 / deblock=1:-2:-3 / analyse=0x3:0x133 / me=tesa / subme=11 / psy=1 / psy_rd=1.15:0.10 / mixed_ref=1 / me_range=40 / chroma_me=1 / trellis=2 / 8x8dct=1 / cqm=0 / deadzone=21,11 / fast_pskip=1 / chroma_qp_offset=-3 / threads=12 / lookahead_threads=2 / sliced_threads=0 / nr=0 / decimate=1 / interlaced=0 / bluray_compat=0 / constrained_intra=0 / bframes=8 / b_pyramid=2 / b_adapt=2 / b_bias=0 / direct=3 / weightb=1 / open_gop=0 / weightp=2 / keyint=240 / keyint_min=23 / scenecut=50 / intra_refresh=0 / rc_lookahead=70 / rc=2pass / mbtree=1 / bitrate=11100 / ratetol=1.0 / qcomp=0.60 / qpmin=0 / qpmax=69 / qpstep=4 / cplxblur=20.0 / qblur=0.5 / vbv_maxrate=50000 / vbv_bufsize=62500 / nal_hrd=none / filler=0 / ip_ratio=1.40 / aq=1:1.00
Default                     : Yes
Forced                      : No
Audio #1
ID                          : 2
Format                      : DTS
Format/Info                 : Digital Theater Systems
Codec ID                    : A_DTS
Duration                    : 1 h 38 min
Bit rate mode               : Constant
Bit rate                    : 1 509 kb/s
Channel(s)                  : 6 channels
Channel layout              : C L R Ls Rs LFE
Sampling rate               : 48.0 kHz
Frame rate                  : 93.750 FPS (512 SPF)
Bit depth                   : 24 bits
Compression mode            : Lossy
Stream size                 : 1.04 GiB (11%)
Title                       : DTS 5.1 @ 24 bit
Default                     : Yes
Forced                      : No
Audio #2
ID                          : 3
Format                      : FLAC
Format/Info                 : Free Lossless Audio Codec
Codec ID                    : A_FLAC
Duration                    : 1 h 38 min
Bit rate mode               : Variable
Bit rate                    : 1 731 kb/s
Channel(s)                  : 2 channels
Channel layout              : L R
Sampling rate               : 48.0 kHz
Frame rate                  : 11.719 FPS (4096 SPF)
Bit depth                   : 24 bits
Compression mode            : Lossless
Stream size                 : 1.19 GiB (12%)
Title                       : FLAC 2.0 @ 24 bit
Writing library             : libFLAC 1.2.1 (UTC 2007-09-17)
Default                     : No
Forced                      : No
Menu
00:00:00.000                : en:  Intro
00:01:52.612                : en: 1. Tear It Up (O2 Arena, London, UK, 2018)
00:04:49.998                : en: 2. Now I'm Here (Summer Sonic, Tokyo, Japan, 2014)
00:10:24.332                : en: 3. Another One Bites The Dust (Summer Sonic, Tokyo, Japan, 2014)
00:13:48.619                : en: 4. Fat Bottomed Girls (American Airlines Center, Dallas, USA, 2019)
00:20:13.838                : en: 5. Don't Stop Me Now (Rock In Rio, Lisbon, Portugal, 2016)
00:24:37.101                : en: 6. I Want To Break Free (Rock In Rio, Lisbon, Portugal, 2016)
00:28:11.315                : en: 7. Somebody to Love (Isle of Wight Festival, UK, 2016)
00:34:09.756                : en: 8. Love Kills - The Ballad (iHeart Radio Theater, Los Angeles, USA, 2014)
00:38:26.304                : en: 9. I Was Born To Love You (Summer Sonic, Tokyo, Japan, 2014)
00:42:39.348                : en: 10. Drum Battle (Qudos Bank Arena, Sydney, Australia, 2014)
00:45:06.120                : en: 11. Under Pressure (Global Citizen Festival, New York, USA, 2019)
00:48:51.804                : en: 12. Who Wants To Live Forever (Isle of Wight Festival, UK, 2016)
00:53:29.623                : en: 13. Guitar Solo - Last Horizon (O2 Arena, London, UK, 2018)
01:03:41.401                : en: 14. The Show Must Go On (O2 Arena, London, UK, 2018)
01:07:56.614                : en: 15. Love Of My Life (O2 Arena, London, UK, 2018)
01:12:51.534                : en: 16. Bohemian Rhapsody (Fire Fight Australia, Sydney, Australia, 2020)
01:15:11.841                : en: 17. Radio Ga Ga (Fire Fight Australia, Sydney, Australia, 2020)
01:19:33.560                : en: 18. Ay-Ohs (Fire Fight Australia, Sydney, Australia, 2020)
01:20:39.710                : en: 19. Hammer To Fall (Fire Fight Australia, Sydney, Australia, 2020)
01:25:46.933                : en: 20. Crazy Little Thing Called Love (Fire Fight Australia, Sydney, Australia, 2020)
01:29:57.809                : en: 21. We Will Rock You (Fire Fight Australia, Sydney, Australia, 2020)
01:32:26.833                : en: 22. We Are The Champions (Fire Fight Australia, Sydney, Australia, 2020)
01:37:09.073                : en: Credits
#777
Правила, инструкции, FAQ!!!
Торрент  Добавлен [09 окт 2020, 23:32] Скачать торрент Магнет ссылка
Скачать торрент
[ Размер 49.75 КБ / Просмотров 22 ]

Статус
Проверен 
 
Размер  9.85 ГБ
Приватный: Нет (DHT включён)
.torrent скачан  4
 


     Отправить личное сообщение
   
Страница 1 из 1
Показать сообщения за:  Поле сортировки  
Начать новую тему Ответить на тему


Сейчас этот форум просматривают: нет зарегистрированных пользователей и гости: 0


Вы не можете начинать темы
Вы не можете отвечать на сообщения
Вы не можете редактировать свои сообщения
Вы не можете удалять свои сообщения
Вы не можете добавлять вложения

Перейти:  
cron