Начать новую тему Ответить на тему
Статистика раздачи
Размер: 345.99 МБ | Добавлен: 26 мар 2019, 19:39 | Скачали: 0
Сидеров: 0  [0 байт/сек]    Личеров: 0  [0 байт/сек]
Пред. тема | След. тема 

Автор
Сообщение

СообщениеДобавлено: 26 мар 2019, 19:39 

Ответить с цитатой 

Plain White T's / Stop
Жанр: Punk Rock
Страна-производитель диска: USA
Год издания: 2002
Издатель (лейбл): Fearless Records\So Happy Publishing
Страна: USA
Аудиокодек: FLAC (*.flac)
Тип рипа: tracks+.cue
Битрейт аудио: lossless
Продолжительность: 00:41:35
Источник (релизер): mp3andlosslessmusic.com
Наличие сканов в содержимом раздачи: нет
Треклист:
01. "Stop" (Higgenson, Steve Mast) - 3:49
02. "Please Don't Do This" - 3:00
03. "What If" - 2:51
04. "Fireworks" (Higgenson, Mast) - 3:25
05. "Leavin'" - 3:45
06. "Shine" - 5:19
07. "Your Fault" (Higgenson, Mast) - 3:48
08. "Happy Someday" - 3:20
09. "A Lonely September" - 4:26
10. "Can't Turn Away" - 4:30
11. "Penny (Perfect for You)" - 3:19
12. "Radios in Heaven" - 5:23
Постскриптум : Я не без потерь рип этого альбома CD сам, так что у меня нет EAC Log.
Код:
AUDIOCHECKER v2.0 beta (build 457) - by Dester - opdester@freemail.hu
~~~~~~~~~~~~~~~~~~~~~~~~~~~~~~~~~~
-=== DO NOT EDIT THIS FILE! ===-
Path: ...\WAV
01 -=- 01 Plain White T's - Stop.wav -=- CDDA (100%)
02 -=- 02 Plain White T's - Please Don't Do This.wav -=- CDDA (100%)
03 -=- 03 Plain White T's - What If.wav -=- CDDA (99%)
04 -=- 04 Plain White T's - Fireworks.wav -=- CDDA (100%)
05 -=- 05 Plain White T's - Leavin'.wav -=- CDDA (100%)
06 -=- 06 Plain White T's - Shine.wav -=- CDDA (100%)
07 -=- 07 Plain White T's - Your Fault.wav -=- CDDA (99%)
08 -=- 08 Plain White T's - Happy Someday.wav -=- CDDA (100%)
09 -=- 09 Plain White T's - A Lonely September.wav -=- CDDA (100%)
10 -=- 10 Plain White T's - Can't Turn Away.wav -=- CDDA (100%)
11 -=- 11 Plain White T's - Penny (Perfect For You).wav -=- CDDA (100%)
12 -=- 12 Plain White T's - Radios In Heaven.wav -=- CDDA (100%)
Summary 99.83% CDDA
71920276
Код:
PERFORMER "Plain White T's"
TITLE "Stop"
FILE "Plain White T's - Stop [2002].wav" WAVE
  TRACK 01 AUDIO
    INDEX 01 0:00:00
  TRACK 02 AUDIO
    INDEX 01 3:48:66
  TRACK 03 AUDIO
    INDEX 01 6:48:59
  TRACK 04 AUDIO
    INDEX 01 9:40:04
  TRACK 05 AUDIO
    INDEX 01 13:05:55
  TRACK 06 AUDIO
    INDEX 01 16:51:32
  TRACK 07 AUDIO
    INDEX 01 22:10:68
  TRACK 08 AUDIO
    INDEX 01 25:59:07
  TRACK 09 AUDIO
    INDEX 01 29:19:12
  TRACK 10 AUDIO
    INDEX 01 33:46:05
  TRACK 11 AUDIO
    INDEX 01 38:16:12
  TRACK 12 AUDIO
    INDEX 01 41:35:67












Правила, инструкции, FAQ!!!
Торрент  Добавлен [26 мар 2019, 19:39] Скачать торрент Магнет ссылка
Скачать торрент
[ Размер 15.86 КБ / Просмотров 1 ]

Статус
Проверен 
 
Размер  345.99 МБ
Приватный: Нет (DHT включён)
.torrent скачан  0
 


     Отправить личное сообщение
   
Страница 1 из 1
Показать сообщения за:  Поле сортировки  
Начать новую тему Ответить на тему


Сейчас этот форум просматривают: нет зарегистрированных пользователей и гости: 0


Вы не можете начинать темы
Вы не можете отвечать на сообщения
Вы не можете редактировать свои сообщения
Вы не можете удалять свои сообщения
Вы не можете добавлять вложения

Перейти:  
cron