Начать новую тему Ответить на тему
Статистика раздачи
Размер: 341.6 МБ | Добавлен: 08 ноя 2020, 18:15 | Скачали: 0
Сидеров: 1  [0 байт/сек]    Личеров: 0  [0 байт/сек]
Пред. тема | След. тема 

Автор
Сообщение

СообщениеДобавлено: 08 ноя 2020, 18:15 

Ответить с цитатой 

Dezerter / Nielegalny Zabojca Czasu
#777Жанр: Punk
Носитель: CD
Страна-производитель диска (релиза): Poland
Год издания: 2004
Издатель (лейбл): Metal Mind Records
Номер по каталогу: MMP CD 0255
Страна исполнителя (группы): Poland
Аудиокодек: FLAC (*.flac)
Тип рипа: image+.cue
Продолжительность: 00:42:01
Источник: собственный рип
Наличие сканов в содержимом раздачи: да
Треклист:
01 Intro
02 Twoje Prawa
03 Społeczne Role
04 Zabójca Czasu
05 Atak Aniolów
06 Depresja
07 Głód
08 Monument
09 Skaza
10 Ulica Bankowa
11 Większość
12 Oni
13 Sztuka Życia
14 Strażnik Moralności
Код:
Conversion #1 - 14 tracks
Client:  fre:ac - free audio converter
Version: v1.1.3 (x86-64)
System:  GNU/Linux (Linux 5.4.0-52-generic)
CPU:     unidentified 6 core x86-64 CPU
RAM:     16 GB
Date:    2020-11-08
Time:    11:25:12
hh:mm:ss.fff
------------
00:00:00.001 Starting conversion process...
00:00:00.002     Selected encoder:     FLAC Audio Encoder v1.3.3
00:00:00.002     Parallel processing:  Enabled (up to 6 threads)
00:00:00.002         SuperFast mode:   Disabled
00:00:00.002
00:00:00.002     Output settings:      Single file
00:00:00.003         Output file:      /home/mille/Muzyka/Dezerter - Nielegalny Zabojca Czasu.flac
00:00:00.003
00:00:00.003     Output verification:  Disabled
00:00:00.003
00:00:00.110     Using drive:          device://cdda:0/
00:00:00.110         Drive model:      HL-DT-ST DVDRAM GP57ES40 PF00
00:00:00.110         Device path:      /dev/sr0
00:00:00.110         Read offset:      6 samples
00:00:00.110
00:00:00.110     Disc TOC:
00:00:00.110
00:00:00.110         Track |   Start  |  Length  | Start sector | End sector
00:00:00.110         -------------------------------------------------------
00:00:00.111             1 | 00:00.00 | 00:49.18 |            0 |       3692
00:00:00.111             2 | 00:49.18 | 02:38.64 |         3693 |      15606
00:00:00.111             3 | 03:28.07 | 03:20.52 |        15607 |      30658
00:00:00.111             4 | 06:48.59 | 02:41.13 |        30659 |      42746
00:00:00.111             5 | 09:29.72 | 02:43.69 |        42747 |      55040
00:00:00.111             6 | 12:13.66 | 03:03.43 |        55041 |      68808
00:00:00.111             7 | 15:17.34 | 03:14.30 |        68809 |      83388
00:00:00.111             8 | 18:31.64 | 03:14.26 |        83389 |      97964
00:00:00.111             9 | 21:46.15 | 03:46.73 |        97965 |     114987
00:00:00.111            10 | 25:33.13 | 02:43.24 |       114988 |     127236
00:00:00.111            11 | 28:16.37 | 04:24.31 |       127237 |     147067
00:00:00.112            12 | 32:40.68 | 02:53.30 |       147068 |     160072
00:00:00.112            13 | 35:34.23 | 03:05.40 |       160073 |     173987
00:00:00.112            14 | 38:39.63 | 03:20.55 |       173988 |     189042
00:00:00.112          DATA |          |          |       200443 |     214605
00:00:00.112
00:00:00.112     Disc info:
00:00:00.112         CDDB disc ID:  b00b2d0f
00:00:00.112         CDDB category: rock
00:00:00.112
00:00:00.112         Artist:        Dezerter
00:00:00.112         Album:         Nielegalny zabójca czasu
00:00:00.113         Genre:         Punk
00:00:00.113         Published:     2004
00:00:00.113
00:00:00.113         Track | Offset | Track title
00:00:00.113         -------------------------------------------------------
00:00:00.113             1 |    150 | Intro
00:00:00.113             2 |   3843 | Twoje prawa
00:00:00.113             3 |  15757 | Spoleczne role
00:00:00.113             4 |  30809 | Zabójca czasu
00:00:00.113             5 |  42897 | Atak aniolów
00:00:00.113             6 |  55191 | Depresja
00:00:00.113             7 |  68959 | Glód
00:00:00.113             8 |  83539 | Monument
00:00:00.114             9 |  98115 | Skaza
00:00:00.114            10 | 115138 | Ulica Bankowa
00:00:00.114            11 | 127387 | Wiekszosc
00:00:00.114            12 | 147218 | Oni
00:00:00.114            13 | 160223 | Sztuka zycia
00:00:00.114            14 | 174138 | Straznik moralnosci
00:00:00.114          DATA | 200593 | Teledysk
00:00:00.114
00:00:00.122     Ripping: device://cdda:0/1
00:00:00.122         Decoder: CDIO Ripper Component v2.1.0
00:00:00.122
00:00:11.613     Finished ripping: device://cdda:0/1
00:00:11.614         CRC checksum: 8deeffae
00:00:11.614         Duration: 00:11.492 (4.3x speed)
00:00:11.615
00:00:11.779     Ripping: device://cdda:0/2
00:00:11.780         Decoder: CDIO Ripper Component v2.1.0
00:00:11.780
00:00:26.894     Finished ripping: device://cdda:0/2
00:00:26.894         CRC checksum: 8e8e5ed6
00:00:26.895         Duration: 00:15.114 (10.5x speed)
00:00:26.895
00:00:27.025     Ripping: device://cdda:0/3
00:00:27.025         Decoder: CDIO Ripper Component v2.1.0
00:00:27.025
00:00:44.743     Finished ripping: device://cdda:0/3
00:00:44.743         CRC checksum: 7e55fd9b
00:00:44.744         Duration: 00:17.717 (11.3x speed)
00:00:44.744
00:00:44.876     Ripping: device://cdda:0/4
00:00:44.876         Decoder: CDIO Ripper Component v2.1.0
00:00:44.876
00:00:58.092     Finished ripping: device://cdda:0/4
00:00:58.092         CRC checksum: df014657
00:00:58.093         Duration: 00:13.216 (12.2x speed)
00:00:58.094
00:00:58.231     Ripping: device://cdda:0/5
00:00:58.231         Decoder: CDIO Ripper Component v2.1.0
00:00:58.231
00:01:10.976     Finished ripping: device://cdda:0/5
00:01:10.977         CRC checksum: 7245b6f7
00:01:10.977         Duration: 00:12.746 (12.9x speed)
00:01:10.978
00:01:11.117     Ripping: device://cdda:0/6
00:01:11.117         Decoder: CDIO Ripper Component v2.1.0
00:01:11.117
00:01:24.693     Finished ripping: device://cdda:0/6
00:01:24.694         CRC checksum: a87a7e29
00:01:24.694         Duration: 00:13.577 (13.5x speed)
00:01:24.695
00:01:24.820     Ripping: device://cdda:0/7
00:01:24.820         Decoder: CDIO Ripper Component v2.1.0
00:01:24.820
00:01:38.462     Finished ripping: device://cdda:0/7
00:01:38.463         CRC checksum: b87c8b94
00:01:38.463         Duration: 00:13.643 (14.2x speed)
00:01:38.464
00:01:38.593     Ripping: device://cdda:0/8
00:01:38.593         Decoder: CDIO Ripper Component v2.1.0
00:01:38.593
00:01:51.594     Finished ripping: device://cdda:0/8
00:01:51.595         CRC checksum: 040efe6e
00:01:51.595         Duration: 00:13.002 (14.9x speed)
00:01:51.596
00:01:51.718     Ripping: device://cdda:0/9
00:01:51.718         Decoder: CDIO Ripper Component v2.1.0
00:01:51.718
00:02:06.236     Finished ripping: device://cdda:0/9
00:02:06.236         CRC checksum: 4e4c3d7a
00:02:06.237         Duration: 00:14.519 (15.6x speed)
00:02:06.237
00:02:06.376     Ripping: device://cdda:0/10
00:02:06.377         Decoder: CDIO Ripper Component v2.1.0
00:02:06.377
00:02:16.393     Finished ripping: device://cdda:0/10
00:02:16.393         CRC checksum: 6972e904
00:02:16.394         Duration: 00:10.016 (16.3x speed)
00:02:16.394
00:02:16.523     Ripping: device://cdda:0/11
00:02:16.523         Decoder: CDIO Ripper Component v2.1.0
00:02:16.523
00:02:32.108     Finished ripping: device://cdda:0/11
00:02:32.109         CRC checksum: 69870254
00:02:32.109         Duration: 00:15.585 (17.0x speed)
00:02:32.109
00:02:32.243     Ripping: device://cdda:0/12
00:02:32.243         Decoder: CDIO Ripper Component v2.1.0
00:02:32.244
00:02:42.078     Finished ripping: device://cdda:0/12
00:02:42.079         CRC checksum: b262d0a9
00:02:42.079         Duration: 00:09.835 (17.6x speed)
00:02:42.079
00:02:42.214     Ripping: device://cdda:0/13
00:02:42.215         Decoder: CDIO Ripper Component v2.1.0
00:02:42.215
00:02:52.464     Finished ripping: device://cdda:0/13
00:02:52.464         CRC checksum: 9fd7d002
00:02:52.464         Duration: 00:10.249 (18.1x speed)
00:02:52.465
00:02:52.601     Ripping: device://cdda:0/14
00:02:52.602         Decoder: CDIO Ripper Component v2.1.0
00:02:52.602
00:03:03.338     Finished ripping: device://cdda:0/14
00:03:03.339         CRC checksum: 5f333142
00:03:03.339         Duration: 00:10.737 (18.7x speed)
00:03:03.339
00:03:03.370     Writing cue sheet: /home/mille/Muzyka/Dezerter - Nielegalny Zabojca Czasu.cue
00:03:03.372
00:03:03.372     Total duration: 03:03.258 (13.8x speed)
00:03:03.374 Conversion process finished.
Код:
REM GENRE "Punk"
REM DATE 2004
REM COMMENT "fre:ac - free audio converter <https://www.freac.org/>"
PERFORMER "Dezerter"
TITLE "Nielegalny Zabojca Czasu"
FILE "Dezerter - Nielegalny Zabojca Czasu.flac" WAVE
  TRACK 01 AUDIO
    TITLE "Intro"
    INDEX 01 00:00:00
  TRACK 02 AUDIO
    TITLE "Twoje Prawa"
    INDEX 01 00:49:18
  TRACK 03 AUDIO
    TITLE "Społeczne Role"
    INDEX 01 03:28:07
  TRACK 04 AUDIO
    TITLE "Zabójca Czasu"
    INDEX 01 06:48:59
  TRACK 05 AUDIO
    TITLE "Atak Aniolów"
    INDEX 01 09:29:72
  TRACK 06 AUDIO
    TITLE "Depresja"
    INDEX 01 12:13:66
  TRACK 07 AUDIO
    TITLE "Głód"
    INDEX 01 15:17:34
  TRACK 08 AUDIO
    TITLE "Monument"
    INDEX 01 18:31:64
  TRACK 09 AUDIO
    TITLE "Skaza"
    INDEX 01 21:46:15
  TRACK 10 AUDIO
    TITLE "Ulica Bankowa"
    INDEX 01 25:33:13
  TRACK 11 AUDIO
    TITLE "Większość"
    INDEX 01 28:16:37
  TRACK 12 AUDIO
    TITLE "Oni"
    INDEX 01 32:40:68
  TRACK 13 AUDIO
    TITLE "Sztuka Życia"
    INDEX 01 35:34:23
  TRACK 14 AUDIO
    TITLE "Strażnik Moralności"
    INDEX 01 38:39:63
Правила, инструкции, FAQ!!!
Торрент  Добавлен [08 ноя 2020, 18:15] Скачать торрент Магнет ссылка
Скачать торрент
[ Размер 54.33 КБ / Просмотров 4 ]

Статус
Проверен 
 
Размер  341.6 МБ
Приватный: Нет (DHT включён)
.torrent скачан  0
 


     Отправить личное сообщение
   
Страница 1 из 1
Показать сообщения за:  Поле сортировки  
Начать новую тему Ответить на тему


Сейчас этот форум просматривают: нет зарегистрированных пользователей и гости: 0


Вы не можете начинать темы
Вы не можете отвечать на сообщения
Вы не можете редактировать свои сообщения
Вы не можете удалять свои сообщения
Вы не можете добавлять вложения

Перейти:  
cron