Начать новую тему Ответить на тему
Статистика раздачи
Размер: 316.75 МБ | Добавлен: 31 мар 2021, 22:16 | Скачали: 0
Сидеров: 2  [0 байт/сек]    Личеров: 0  [0 байт/сек]
Пред. тема | След. тема 

Автор
Сообщение

СообщениеДобавлено: 31 мар 2021, 22:16 

Ответить с цитатой 

Dezerter / Blasfemia
#777Жанр: Punk
Носитель: CD
Страна-производитель диска (релиза): Poland
Год издания: 2002
Издатель (лейбл): Metal Mind Productions
Номер по каталогу: MMP CD 0160
Страна исполнителя (группы): Poland
Аудиокодек: FLAC (*.flac)
Тип рипа: image+.cue
Продолжительность: 00:42:12
Источник: собственный рип
Наличие сканов в содержимом раздачи: да
Треклист:
01 W Zakamarkach
02 Zdrada
03 Jeszcze Nie Zapomniałem
04 Pierwszy Raz
05 Zakołysanie
06 Masz Wolność Więc Płać
07 Kradniesz Mój Czas
08 Przemoc Rodzi Przemoc
09 Zabijemy Cię
10 Leząc (Albo Dylemat Dyletanta)
Код:
Conversion #1 - 10 tracks
Client:  fre:ac - free audio converter
Version: v1.1.4 (x86-64)
System:  GNU/Linux (Linux 5.8.0-48-generic)
CPU:     unidentified 6 core x86-64 CPU
RAM:     16 GB
Date:    2021-03-28
Time:    20:11:39
hh:mm:ss.fff
------------
00:00:00.001 Starting conversion process...
00:00:00.001     Selected encoder:     FLAC Audio Encoder v1.3.3
00:00:00.002     Parallel processing:  Enabled (up to 6 threads)
00:00:00.002         SuperFast mode:   Disabled
00:00:00.002
00:00:00.002     Output settings:      Single file
00:00:00.002         Output file:      /home/mille/Muzyka/Dezerter - Blasfemia.flac
00:00:00.002
00:00:00.002     Output verification:  Disabled
00:00:00.002
00:00:00.117     Using drive:          device://cdda:0/
00:00:00.117         Drive model:      HL-DT-ST DVDRAM GP57ES40 PF00
00:00:00.117         Device path:      /dev/sr0
00:00:00.118         Read offset:      6 samples
00:00:00.118
00:00:00.118     Disc TOC:
00:00:00.118
00:00:00.118         Track |   Start  |  Length  | Start sector | End sector
00:00:00.118         -------------------------------------------------------
00:00:00.125             1 | 00:00.00 | 04:02.52 |            0 |      18201
00:00:00.126             2 | 04:02.52 | 04:48.41 |        18202 |      39842
00:00:00.126             3 | 08:51.18 | 03:07.07 |        39843 |      53874
00:00:00.126             4 | 11:58.25 | 04:12.46 |        53875 |      72820
00:00:00.126             5 | 16:10.71 | 05:12.63 |        72821 |      96283
00:00:00.126             6 | 21:23.59 | 03:43.48 |        96284 |     113056
00:00:00.126             7 | 25:07.32 | 03:38.73 |       113057 |     129479
00:00:00.126             8 | 28:46.30 | 04:13.61 |       129480 |     148515
00:00:00.126             9 | 33:00.16 | 03:43.72 |       148516 |     165312
00:00:00.127            10 | 36:44.13 | 05:28.07 |       165313 |     189919
00:00:00.127          DATA |          |          |       201320 |     242683
00:00:00.127
00:00:00.127     Disc info:
00:00:00.127         CDDB disc ID:  970ca30b
00:00:00.127         CDDB category: rock
00:00:00.127
00:00:00.127         Artist:        Dezerter
00:00:00.127         Album:         Blasfemia
00:00:00.127         Genre:         Punk
00:00:00.127         Published:     1992
00:00:00.127
00:00:00.128         Track | Offset | Track title
00:00:00.128         -------------------------------------------------------
00:00:00.128             1 |    150 | W Zakamarkach
00:00:00.128             2 |  18352 | Zdrada
00:00:00.128             3 |  39993 | Jeszcze Nie Zapomniałem
00:00:00.128             4 |  54025 | Pierwszy Raz
00:00:00.128             5 |  72971 | Zakołysanie
00:00:00.128             6 |  96434 | Masz Wolność Więc Płać
00:00:00.128             7 | 113207 | Kradniesz Mój Czas
00:00:00.128             8 | 129630 | Przemoc Rodzi Przemoc
00:00:00.129             9 | 148666 | Zabijemy Cię
00:00:00.129            10 | 165463 | Leząc (Albo Dylemat Dyletanta)
00:00:00.129          DATA | 201470 | Videoclip Pierwszy Raz
00:00:00.129
00:00:00.146     Ripping: device://cdda:0/1
00:00:00.146         Decoder: CDIO Ripper Component v2.1.0
00:00:00.147
00:00:31.168     Finished ripping: device://cdda:0/1
00:00:31.169         CRC checksum: b5637349
00:00:31.169         Duration: 00:31.022 (7.8x speed)
00:00:31.169
00:00:31.276     Ripping: device://cdda:0/2
00:00:31.276         Decoder: CDIO Ripper Component v2.1.0
00:00:31.276
00:00:57.090     Finished ripping: device://cdda:0/2
00:00:57.090         CRC checksum: 436ec43d
00:00:57.090         Duration: 00:25.813 (11.2x speed)
00:00:57.090
00:00:57.190     Ripping: device://cdda:0/3
00:00:57.190         Decoder: CDIO Ripper Component v2.1.0
00:00:57.190
00:01:12.436     Finished ripping: device://cdda:0/3
00:01:12.436         CRC checksum: 60437269
00:01:12.436         Duration: 00:15.245 (12.3x speed)
00:01:12.436
00:01:12.537     Ripping: device://cdda:0/4
00:01:12.537         Decoder: CDIO Ripper Component v2.1.0
00:01:12.537
00:01:31.742     Finished ripping: device://cdda:0/4
00:01:31.742         CRC checksum: 017fb567
00:01:31.743         Duration: 00:19.206 (13.2x speed)
00:01:31.743
00:01:31.842     Ripping: device://cdda:0/5
00:01:31.842         Decoder: CDIO Ripper Component v2.1.0
00:01:31.843
00:01:53.853     Finished ripping: device://cdda:0/5
00:01:53.853         CRC checksum: 7fb7d619
00:01:53.853         Duration: 00:22.005 (14.2x speed)
00:01:53.853
00:01:53.947     Ripping: device://cdda:0/6
00:01:53.947         Decoder: CDIO Ripper Component v2.1.0
00:01:53.947
00:02:08.665     Finished ripping: device://cdda:0/6
00:02:08.665         CRC checksum: 0e414e0e
00:02:08.665         Duration: 00:14.718 (15.2x speed)
00:02:08.665
00:02:08.744     Ripping: device://cdda:0/7
00:02:08.744         Decoder: CDIO Ripper Component v2.1.0
00:02:08.744
00:02:22.494     Finished ripping: device://cdda:0/7
00:02:22.494         CRC checksum: 85807bf5
00:02:22.494         Duration: 00:13.749 (15.9x speed)
00:02:22.494
00:02:22.590     Ripping: device://cdda:0/8
00:02:22.590         Decoder: CDIO Ripper Component v2.1.0
00:02:22.591
00:02:37.803     Finished ripping: device://cdda:0/8
00:02:37.803         CRC checksum: 2d6bb3b0
00:02:37.803         Duration: 00:15.212 (16.7x speed)
00:02:37.803
00:02:37.887     Ripping: device://cdda:0/9
00:02:37.888         Decoder: CDIO Ripper Component v2.1.0
00:02:37.888
00:02:50.744     Finished ripping: device://cdda:0/9
00:02:50.744         CRC checksum: 7c868607
00:02:50.744         Duration: 00:12.856 (17.4x speed)
00:02:50.744
00:02:50.835     Ripping: device://cdda:0/10
00:02:50.836         Decoder: CDIO Ripper Component v2.1.0
00:02:50.836
00:03:08.861     Finished ripping: device://cdda:0/10
00:03:08.862         CRC checksum: b877e907
00:03:08.862         Duration: 00:18.026 (18.2x speed)
00:03:08.862
00:03:08.892     Writing cue sheet: /home/mille/Muzyka/Dezerter - Blasfemia.cue
00:03:08.897
00:03:08.897     Total duration: 03:08.768 (13.4x speed)
00:03:08.905 Conversion process finished.
Код:
REM GENRE "Punk"
REM DATE 2002
REM COMMENT "fre:ac - free audio converter <https://www.freac.org/>"
PERFORMER "Dezerter"
TITLE "Blasfemia"
FILE "Dezerter - Blasfemia.flac" WAVE
  TRACK 01 AUDIO
    TITLE "W Zakamarkach"
    INDEX 01 00:00:00
  TRACK 02 AUDIO
    TITLE "Zdrada"
    INDEX 01 04:02:52
  TRACK 03 AUDIO
    TITLE "Jeszcze Nie Zapomniałem"
    INDEX 01 08:51:18
  TRACK 04 AUDIO
    TITLE "Pierwszy Raz"
    INDEX 01 11:58:25
  TRACK 05 AUDIO
    TITLE "Zakołysanie"
    INDEX 01 16:10:71
  TRACK 06 AUDIO
    TITLE "Masz Wolność Więc Płać"
    INDEX 01 21:23:59
  TRACK 07 AUDIO
    TITLE "Kradniesz Mój Czas"
    INDEX 01 25:07:32
  TRACK 08 AUDIO
    TITLE "Przemoc Rodzi Przemoc"
    INDEX 01 28:46:30
  TRACK 09 AUDIO
    TITLE "Zabijemy Cię"
    INDEX 01 33:00:16
  TRACK 10 AUDIO
    TITLE "Leząc (Albo Dylemat Dyletanta)"
    INDEX 01 36:44:13
Правила, инструкции, FAQ!!!
Торрент  Добавлен [31 мар 2021, 22:16] Скачать торрент Магнет ссылка
Скачать торрент
[ Размер 50.37 КБ / Просмотров 2 ]

Статус
Проверен 
 
Размер  316.75 МБ
Приватный: Нет (DHT включён)
.torrent скачан  0
 


     Отправить личное сообщение
   
Страница 1 из 1
Показать сообщения за:  Поле сортировки  
Начать новую тему Ответить на тему


Сейчас этот форум просматривают: нет зарегистрированных пользователей и гости: 0


Вы не можете начинать темы
Вы не можете отвечать на сообщения
Вы не можете редактировать свои сообщения
Вы не можете удалять свои сообщения
Вы не можете добавлять вложения

Перейти:  
cron