Начать новую тему Ответить на тему
Статистика раздачи
Размер: 7.2 ГБ | Добавлен: 05 июн 2020, 23:18 | Скачали: 0
Сидеров: 1  [0 байт/сек]    Личеров: 0  [0 байт/сек]
Пред. тема | След. тема 

Автор
Сообщение

СообщениеДобавлено: 05 июн 2020, 23:18 

Ответить с цитатой 

Puccini - Tosca / Пуччини - Тоска

Год выпуска
: 15 июня 2019
Лейбл: Wiener Staatsoper
Страна-производитель: Германия
Телеканал: ORF III
Жанр: Опера
Продолжительность: 00:50:16 + 00:43:16 + 00:35:26
Язык: итальянский
Перевод: отсутствует
Субтитры: ger
Дирижёр: Marco Armiliato
Автор записи: J Silver
Исполнители:
Floria Tosca - Karine Babajanyan
Mario Cavaradossi - Piotr Beczala
Baron Scarpia - Carlos Alvarez
Cesare Angelotti - Sorin Coliban
Mesner - Alexandru Moisiuc
Spoletta - Wolfram Igor Derntl
Sciarrone - Hans Peter Kammerer
Schließer - Ayk Martirossian


Описание
:
Piotr Beczala feierte 2019 sein umjubeltes Rollendebut als Cavaradossi in Giacomo Puccinis „Tosca“. ORF III zeigt aktuell die neue Partie des Publikumslieblings aus der Wiener Staatsoper. In der Titelrolle brilliert die armenische Sopranistin Karine Babajanyan. Schauspielerisch und stimmlich uberzeugt Carlos Alvarez als Scarpia. Die historische Inszenierung von Margarethe Wallmann aus 1958 erstrahlt mit diesen herausragenden Sangern in neuem Glanz.
Handlung: Rom um 1800: Der aus der Gefangenschaft geflohene Republikaner Angelotti hat sich in der Kirche Sant’Andrea della Valle versteckt. Dort arbeitet Mario Cavaradossi an einem Gemalde. Die beiden freunden sich an und Cavaradossi bietet Angelotti an, sich in seiner Villa zu verstecken. Der grausame Polizeichef Scarpia kommt dem Geschehen auf die Spur und nutzt die Situation, um Cavaradossis Geliebte Tosca fur sich zu gewinnen. Scarpia lasst Cavaradossi verhaften und droht ihn hinrichten zu lassen, wenn Tosca ihn nicht erhort. Sie geht auf das Angebot ein. Als Scarpia zu Tosca geht, um „seinen Lohn“ zu empfangen, ersticht sie ihn. Doch der hat sie getauscht und Cavaradossi bereits erschie?en lassen. Fur Tosca ist das Leben sinnlos geworden und sie sturzt sich von der Engelsburg.
Tosca Aus der Wiener Staatsoper

Качество: HDTV
Контейнер: MKV
Видео кодек: H.264
Аудио кодек: AC-3
Видео: H.264 | 1280 x 720p | 6665 kb/s | 50 fps progressive
Аудио 1: AC-3 | 48 Khz | 448 kb/s | 6 channels
Аудио 2: AC-3 | 48 Khz | 448 kb/s | 2 channels

Код:
Формат                                   : MPEG-TS
Размер файла                             : 2,80 Гбайт
Продолжительность                        : 50 м. 16 с.
Режим общего битрейта                    : Переменный
Общий поток                              : 7964 Кбит/сек
Видео
Идентификатор                            : 3080 (0xC08)
Идентификатор меню                       : 13308 (0x33FC)
Формат                                   : AVC
Формат/Информация                        : Advanced Video Codec
Профиль формата                          : High@L4
Настройки формата                        : CABAC / 4 Ref Frames
Параметр CABAC формата                   : Да
Параметр RefFrames формата               : 4 кадра
Идентификатор кодека                     : 27
Продолжительность                        : 50 м. 16 с.
Битрейт                                  : 6665 Кбит/сек
Ширина                                   : 1280 пикселей
Высота                                   : 720 пикселей
Соотношение сторон                       : 16:9
Частота кадров                           : 50,000 кадров/сек
Цветовое пространство                    : YUV
Субдискретизация насыщенности            : 4:2:0
Битовая глубина                          : 8 бит
Тип развёртки                            : Прогрессивная
Бит/(Пиксели*Кадры)                      : 0.145
Размер потока                            : 2,34 Гбайт (84%)
Аудио #1
Идентификатор                            : 3081 (0xC09)
Идентификатор меню                       : 13308 (0x33FC)
Формат                                   : AC-3
Формат/Информация                        : Audio Coding 3
Коммерческое название                    : Dolby Digital
Идентификатор кодека                     : 6
Продолжительность                        : 50 м. 16 с.
Вид битрейта                             : Постоянный
Битрейт                                  : 448 Кбит/сек
Каналы                                   : 6 каналов
ChannelLayout                            : L R C LFE Ls Rs
Частота                                  : 48,0 КГц
Частота кадров                           : 31,250 кадров/сек (1536 SPF)
Метод сжатия                             : С потерями
Размер потока                            : 161 Мбайт (6%)
Язык                                     : Italian
ServiceKind/String                       : Complete Main
Аудио #2
Идентификатор                            : 3082 (0xC0A)
Идентификатор меню                       : 13308 (0x33FC)
Формат                                   : AC-3
Формат/Информация                        : Audio Coding 3
Коммерческое название                    : Dolby Digital
Идентификатор кодека                     : 6
Продолжительность                        : 50 м. 16 с.
Вид битрейта                             : Постоянный
Битрейт                                  : 448 Кбит/сек
Каналы                                   : 2 канала
ChannelLayout                            : L R
Частота                                  : 48,0 КГц
Частота кадров                           : 31,250 кадров/сек (1536 SPF)
Метод сжатия                             : С потерями
Размер потока                            : 161 Мбайт (6%)
Язык                                     : Italian
ServiceKind/String                       : Complete Main
Прочее
Идентификатор                            : 3083 (0xC0B)-100
Идентификатор меню                       : 13308 (0x33FC)
Формат                                   : Teletext
Язык                                     : German
Правила, инструкции, FAQ!!!
Торрент  Добавлен [05 июн 2020, 23:18] Скачать торрент Магнет ссылка
Скачать торрент
[ Размер 36.75 КБ / Просмотров 10 ]

Статус
Проверен 
 
Размер  7.2 ГБ
Приватный: Нет (DHT включён)
.torrent скачан  0
 


     Отправить личное сообщение
   
Страница 1 из 1
Показать сообщения за:  Поле сортировки  
Начать новую тему Ответить на тему


Сейчас этот форум просматривают: нет зарегистрированных пользователей и гости: 0


Вы не можете начинать темы
Вы не можете отвечать на сообщения
Вы не можете редактировать свои сообщения
Вы не можете удалять свои сообщения
Вы не можете добавлять вложения

Перейти:  
cron