Начать новую тему Ответить на тему
Статистика раздачи
Размер: 257.9 МБ | Добавлен: 26 мар 2019, 20:37 | Скачали: 0
Сидеров: 0  [0 байт/сек]    Личеров: 0  [0 байт/сек]
Пред. тема | След. тема 

Автор
Сообщение

СообщениеДобавлено: 26 мар 2019, 20:37 

Ответить с цитатой 

Pete Dello & Friends (ex-Honeybus) - Into Your Ears
Жанр: Psychedelic Rock / Baroque-pop
Год выпуска диска: 1971 (1989 Reissue)
Производитель диска: UK
Аудио кодек: FLAC
Тип рипа: tracks+.cue
Битрейт аудио: lossless
Продолжительность: 45:41
Трэклист:1. It's What You've Got
2. There's Nothing That I Can Do For You
3. I'm A Gambler
4. Harry The Earwig
5. Do I Still Figure In Your Life
6. Uptight Basil
7. Taking The Heart Out Of Love
8. Here Me Only
9. Taking The Heart Out Of Love
10. On A Time Said Sylvie
11. Good Song
12. It's The Way
13. Go Away
14. Arise Sir Henry
15. Uptight Basil
16. Madam Chairman (Of The Committee)
Доп. информация:
Exact Audio Copy V0.99 prebeta 4 from 23. January 2008
EAC extraction logfile from 7. July 2008, 9:14
Pete Dello And Friends / Into Your Ears...Plus
Used drive : ATAPI DVD C DH48C2S Adapter: 1 ID: 0
Read mode : Secure
Utilize accurate stream : Yes
Defeat audio cache : Yes
Make use of C2 pointers : No
Combined read/write offset correction : 6
Overread into Lead-In and Lead-Out : No
Fill up missing offset samples with silence : Yes
Delete leading and trailing silent blocks : No
Null samples used in CRC calculations : No
Used interface : Native Win32 interface for Win NT & 2000
Gap handling : Not detected, thus appended to previous track
Used output format : User Defined Encoder
Selected bitrate : 768 kBit/s
Quality : High
Add ID3 tag : No
Command line compressor : C:\Archivos de programa\Exact Audio Copy\FLAC\FLAC.EXE
Additional command line options : -8 -V -T "ARTIST=%a" -T "TITLE=%t" -T "ALBUM=%g" -T "DATE=%y" -T "TRACKNUMBER=%n" -T "GENRE=%m" -T "COMMENT=%e" %s -o %d
TOC of the extracted CD
Track | Start | Length | Start sector | End sector
---------------------------------------------------------
1 | 0:00.00 | 3:18.08 | 0 | 14857
2 | 3:18.08 | 2:35.70 | 14858 | 26552
3 | 5:54.03 | 3:16.17 | 26553 | 41269
4 | 9:10.20 | 2:23.70 | 41270 | 52064
5 | 11:34.15 | 2:40.53 | 52065 | 64117
6 | 14:14.68 | 2:42.12 | 64118 | 76279
7 | 16:57.05 | 3:20.28 | 76280 | 91307
8 | 20:17.33 | 4:08.70 | 91308 | 109977
9 | 24:26.28 | 2:55.15 | 109978 | 123117
10 | 27:21.43 | 2:26.00 | 123118 | 134067
11 | 29:47.43 | 3:02.27 | 134068 | 147744
12 | 32:49.70 | 2:08.03 | 147745 | 157347
13 | 34:57.73 | 2:24.42 | 157348 | 168189
14 | 37:22.40 | 2:39.35 | 168190 | 180149
15 | 40:02.00 | 2:29.08 | 180150 | 191332
16 | 42:31.08 | 3:16.67 | 191333 | 206099
Track 1
Filename G:\Archivos JHL\Torrents\PETE DELLO - INTO YOUR EARS (1971)\01 - 01-It's What You've Got.wav
Peak level 96.1 %
Track quality 100.0 %
Test CRC 1931EF58
Copy CRC 1931EF58
Copy OK
Track 2
Filename G:\Archivos JHL\Torrents\PETE DELLO - INTO YOUR EARS (1971)\02 - 02-There's Nothing That I Can DO For You.wav
Peak level 95.6 %
Track quality 100.0 %
Test CRC BDEE76E8
Copy CRC BDEE76E8
Copy OK
Track 3
Filename G:\Archivos JHL\Torrents\PETE DELLO - INTO YOUR EARS (1971)\03 - 03-I'm A Gambler.wav
Peak level 78.5 %
Track quality 99.9 %
Test CRC 9FA15236
Copy CRC 9FA15236
Copy OK
Track 4
Filename G:\Archivos JHL\Torrents\PETE DELLO - INTO YOUR EARS (1971)\04 - 04-Harry The Earwing.wav
Peak level 72.9 %
Track quality 100.0 %
Test CRC 295026B6
Copy CRC 295026B6
Copy OK
Track 5
Filename G:\Archivos JHL\Torrents\PETE DELLO - INTO YOUR EARS (1971)\05 - 05-Do I Still Figure In Your Life.wav
Peak level 65.9 %
Track quality 99.9 %
Test CRC FB0B3685
Copy CRC FB0B3685
Copy OK
Track 6
Filename G:\Archivos JHL\Torrents\PETE DELLO - INTO YOUR EARS (1971)\06 - 06-Uptinght Basil.wav
Peak level 93.4 %
Track quality 100.0 %
Test CRC 01631536
Copy CRC 01631536
Copy OK
Track 7
Filename G:\Archivos JHL\Torrents\PETE DELLO - INTO YOUR EARS (1971)\07 - 07-Taking The Heart Out Of Love.wav
Peak level 62.2 %
Track quality 100.0 %
Test CRC 947EEA1D
Copy CRC 947EEA1D
Copy OK
Track 8
Filename G:\Archivos JHL\Torrents\PETE DELLO - INTO YOUR EARS (1971)\08 - 08-Here Me Onlyx.wav
Peak level 87.3 %
Track quality 100.0 %
Test CRC AEC6A944
Copy CRC AEC6A944
Copy OK
Track 9
Filename G:\Archivos JHL\Torrents\PETE DELLO - INTO YOUR EARS (1971)\09 - 09-Taking The Heart Out Of Love.wav
Peak level 88.2 %
Track quality 100.0 %
Test CRC 935D107C
Copy CRC 935D107C
Copy OK
Track 10
Filename G:\Archivos JHL\Torrents\PETE DELLO - INTO YOUR EARS (1971)\10 - 10-On A Time Said Sylvie.wav
Peak level 83.7 %
Track quality 100.0 %
Test CRC 5EBB528F
Copy CRC 5EBB528F
Copy OK
Track 11
Filename G:\Archivos JHL\Torrents\PETE DELLO - INTO YOUR EARS (1971)\11 - 11-A Good Song.wav
Peak level 75.2 %
Track quality 100.0 %
Test CRC F41C2D93
Copy CRC F41C2D93
Copy OK
Track 12
Filename G:\Archivos JHL\Torrents\PETE DELLO - INTO YOUR EARS (1971)\12 - 12-It's The Way.wav
Peak level 72.8 %
Track quality 100.0 %
Test CRC 326AE25C
Copy CRC 326AE25C
Copy OK
Track 13
Filename G:\Archivos JHL\Torrents\PETE DELLO - INTO YOUR EARS (1971)\13 - 13-Go Away.wav
Peak level 57.5 %
Track quality 100.0 %
Test CRC 9E68FCE6
Copy CRC 9E68FCE6
Copy OK
Track 14
Filename G:\Archivos JHL\Torrents\PETE DELLO - INTO YOUR EARS (1971)\14 - 14-Arise Sir Henry.wav
Peak level 68.6 %
Track quality 100.0 %
Test CRC D5F77D4F
Copy CRC D5F77D4F
Copy OK
Track 15
Filename G:\Archivos JHL\Torrents\PETE DELLO - INTO YOUR EARS (1971)\15 - 15-Uptinght Basil.wav
Peak level 68.6 %
Track quality 99.9 %
Test CRC 717C25A0
Copy CRC 717C25A0
Copy OK
Track 16
Filename G:\Archivos JHL\Torrents\PETE DELLO - INTO YOUR EARS (1971)\16 - 16-Madame Chairman Of The Committeex.wav
Peak level 66.7 %
Track quality 99.9 %
Test CRC E27988DF
Copy CRC E27988DF
Copy OK
No errors occurred
End of status report
AUDIOCHECKER v2.0 beta (build 457) - by Dester - opdester@freemail.hu
~~~~~~~~~~~~~~~~~~~~~~~~~~~~~~~~~~
-=== DO NOT EDIT THIS FILE! ===-
Path: ...\PETE DELLO - INTO YOUR EARS (1971)
01 -=- 01 - 01-It's What You've Got.flac -=- CDDA (100%)
02 -=- 02 - 02-There's Nothing That I Can DO For You.flac -=- CDDA (100%)
03 -=- 03 - 03-I'm A Gambler.flac -=- CDDA (100%)
04 -=- 04 - 04-Harry The Earwing.flac -=- CDDA (100%)
05 -=- 05 - 05-Do I Still Figure In Your Life.flac -=- CDDA (100%)
06 -=- 06 - 06-Uptinght Basil.flac -=- CDDA (100%)
07 -=- 07 - 07-Taking The Heart Out Of Love.flac -=- CDDA (100%)
08 -=- 08 - 08-Here Me Onlyx.flac -=- CDDA (100%)
09 -=- 09 - 09-Taking The Heart Out Of Love.flac -=- CDDA (100%)
10 -=- 10 - 10-On A Time Said Sylvie.flac -=- CDDA (100%)
11 -=- 11 - 11-A Good Song.flac -=- CDDA (100%)
12 -=- 12 - 12-It's The Way.flac -=- CDDA (99%)
13 -=- 13 - 13-Go Away.flac -=- CDDA (100%)
14 -=- 14 - 14-Arise Sir Henry.flac -=- CDDA (100%)
15 -=- 15 - 15-Uptinght Basil.flac -=- CDDA (100%)
16 -=- 16 - 16-Madame Chairman Of The Committeex.flac -=- CDDA (100%)
Summary 99,94% CDDA
261112708
Альбом стянут с демоноида, релизер - javilu, двойная нумерация треков пофиксена.
Правила, инструкции, FAQ!!!
Торрент  Добавлен [26 мар 2019, 20:37] Скачать торрент Магнет ссылка
Скачать торрент
[ Размер 11.8 КБ / Просмотров 5 ]

Статус
Проверен 
 
Размер  257.9 МБ
Приватный: Нет (DHT включён)
.torrent скачан  0
 


     Отправить личное сообщение
   
Страница 1 из 1
Показать сообщения за:  Поле сортировки  
Начать новую тему Ответить на тему


Сейчас этот форум просматривают: нет зарегистрированных пользователей и гости: 0


Вы не можете начинать темы
Вы не можете отвечать на сообщения
Вы не можете редактировать свои сообщения
Вы не можете удалять свои сообщения
Вы не можете добавлять вложения

Перейти:  
cron