Начать новую тему Ответить на тему
Статистика раздачи
Размер: 213.32 МБ | Добавлен: 03 апр 2021, 10:05 | Скачали: 2
Сидеров: 11  [0 байт/сек]    Личеров: 3  [0 байт/сек]
Пред. тема | След. тема 

Автор
Сообщение

СообщениеДобавлено: 03 апр 2021, 10:05 

Ответить с цитатой 

Seamoon / Polar Pattern
#777Жанр: Psybient, Psychill, Psydub
Носитель: STREAM
Год издания: 2021
Издатель (лейбл): AbunDance Music
Страна исполнителя (группы): Germany
Аудиокодек: FLAC (*.flac)
Тип рипа: tracks
Продолжительность: 00:31:48
Источник: deezer
Наличие сканов в содержимом раздачи: нет
Треклист:
01. SeaMoon vs Multi Tul - Oud Vibration - 06:05
02. SeaMoon - feat. Laura J - Waiting in the Darkness - 07:18
03. iTomLab - Galactic Mantra (SeaMoon Rmx) - 09:48
04. SeaMoon - Sweet Nostalgic - 08:35
Код:
-----------------------
DON'T MODIFY THIS FILE
-----------------------
PERFORMER: auCDtect Task Manager, ver. 1.6.0 RC1 build 1.6.0.1
Copyright (c) 2008-2010 y-soft. All rights reserved
[url=http://y-soft.org]http://y-soft.org[/url]
ANALYZER: auCDtect: CD records authenticity detector, version 0.8.2
Copyright (c) 2004 Oleg Berngardt. All rights reserved.
Copyright (c) 2004 Alexander Djourik. All rights reserved.
FILE: 04. Sweet Nostalgic.flac
  Size: 58744410 Hash: 5E21FCD25A34F58046FB50CC963E9802 Accuracy: -m0
  Conclusion: CDDA 99%
  Signature: 48C36D51A7E232284D083C0513456C8DDA8388B9
FILE: 03. Galactic Mantra (Seamoon Remix).flac
  Size: 68152561 Hash: B76A90BBF0A926336D485259D1396BE3 Accuracy: -m0
  Conclusion: CDDA 100%
  Signature: 1F513DA6CF25F2B8961C7BFFD4FD8899FD32969F
FILE: 02. Waiting in the darkness (feat. Laura J.).flac
  Size: 54275786 Hash: E90D82AB1AEE96E7BA161AA8119B31E7 Accuracy: -m0
  Conclusion: CDDA 100%
  Signature: EA3415CCEEAA416037FE4FACD79C182669005683
FILE: 01. Oud Vibration (feat. Multi Tul).flac
  Size: 40110475 Hash: 8A0D42AA3D4F7191602822AD3B38E177 Accuracy: -m0
  Conclusion: CDDA 100%
  Signature: 02D5537A6258A27D078362EDCAE5B699A5ED965B
foobar2000 1.5.5 / Замер динамического диапазона (DR) 1.1.1
Дата отчёта: 2021-03-28 22:56:36
--------------------------------------------------------------------------------
Анализ: iTom Lab / Polar Pattern (1)
Seamoon, Laura J. / Polar Pattern (2)
Seamoon, Multi Tul / Polar Pattern (3)
Seamoon / Polar Pattern (4)
--------------------------------------------------------------------------------
DR Пики RMS Продолжительность трека
--------------------------------------------------------------------------------
DR7 -0.50 дБ -8.88 дБ 9:48 03-Galactic Mantra (Seamoon Remix)
DR6 -1.00 дБ -9.07 дБ 7:19 02-Waiting in the darkness (feat. Laura J.)
DR7 -1.00 дБ -9.94 дБ 6:06 01-Oud Vibration (feat. Multi Tul)
DR8 -1.00 дБ -10.47 дБ 8:35 04-Sweet Nostalgic
--------------------------------------------------------------------------------
Количество треков: 4
Реальные значения DR: DR7
Частота: 44100 Гц
Каналов: 2
Разрядность: 16
Битрейт: 904 кбит/с
Кодек: FLAC
================================================================================
Правила, инструкции, FAQ!!!
Торрент  Добавлен [03 апр 2021, 10:05] Скачать торрент Магнет ссылка
Скачать торрент
[ Размер 17.51 КБ / Просмотров 8 ]

Статус
Проверен 
 
Размер  213.32 МБ
Приватный: Нет (DHT включён)
.torrent скачан  2
 


     Отправить личное сообщение
   
Страница 1 из 1
Показать сообщения за:  Поле сортировки  
Начать новую тему Ответить на тему


Сейчас этот форум просматривают: нет зарегистрированных пользователей и гости: 0


Вы не можете начинать темы
Вы не можете отвечать на сообщения
Вы не можете редактировать свои сообщения
Вы не можете удалять свои сообщения
Вы не можете добавлять вложения

Перейти:  
cron