Начать новую тему Ответить на тему
Статистика раздачи
Размер: 17.18 ГБ | Добавлен: 27 мар 2021, 08:53 | Скачали: 0
Сидеров: 12  [0 байт/сек]    Личеров: 4  [0 байт/сек]
Пред. тема | След. тема 

Автор
Сообщение

СообщениеДобавлено: 27 мар 2021, 08:53 

Ответить с цитатой 


Lossless Group представляет:
Mekong Delta
Дискография
Страна: Германия
Страна-производитель диска: Австрия, Германия, Голландия, Россия, США, Япония
Жанр: Progressive Metal / Thrash Metal
Год выпуска: 1987-2014
Формат: FLAC (image + .cue)
Битрейт аудио: lossless
Продолжительность: 50 релизов, 43 CD, 1 CD-ROM
Источник (релизер): hexonut [Lossless Group, rutracker.org]. Все рипы с фирменных дисков из личной коллекции.
Метод рипа: EAC test+copy
Наличие сканов в содержимом раздачи: да
Комплектация: Для каждого диска: FLAC со встроенным cue, отдельные cue для wav и flac, .toc file для cdrdao, полный набор сканов,содержимое Enhanced CD, логи.
По изданиям:
Издания на разных континентах обычно имеют разный мастеринг (кроме Pictures At An Exhibition - у этого альбома абсолютно ВСЕ издания имеют идентичный бит-поток и КУЕ).
Первые три альбома перепечатывались в "почти первопрессном" виде три раза: первый немецкий прессинг, второй австрийский прессинг (без баркода), третий австрийский прессинг (с баркодом). Немецкий прессинг отличается от второго матрицей (немного другой КУЕ и суммарный размер аудио, но сам аудио-поток идентичен) и не отличается оформлением (кроме надписи "Made in Germany"), австрийские прессинги отличаются только оформлением - издание без баркода упоминает SPV как дистрибьютора, идание с баркодом - RTD, сам прессинг диска абсолютно одинаковый.
У Dances только два таких "первых" прессинга - оба австрийские, отличаются только оформлением и баркодом.
Ремастеры существуют только для первых альбомов вплоть до Visions Fugutives. Все ремастеры (а их было несколько переизданий) имеют абсолютно идентичный звук и КУЕ, кроме: Erich Zann и Dances ранние ремастеры включают песню The Gnom, в то время как поздние (2010+) ее исключили; и Classics (ремастеры разных лет имеют по 14 или 15 треков, добавлен трек Promenade). При этом все издания с одинаковым количеством треков - идентичны (Zardoz и Mystic Empire; Aaarrg 2010 и Steamhammer 2013).
Все ремастеры основных альбомов (исключая Live и Classics) на Zardoz имеют два каталожных номера: Zardoz Music 97хх и 21500хх. В заголовок и название директории вынесен тот номер, который напечатан на корешке заднего вкладыша диска, под спойлером указаны оба.
Трэклист:
#777Лейбл: Aaarrg Records / (SPV GmbH)
Страна-производитель диска: Германия
Год издания диска: 1987
Номер по каталогу: AAARRG 4 ~ CD/MD-A 2
Mekong Delta - 1987 - Mekong Delta
01. Without Honour (03:47)
02. The Cure (03:40)
03. The Hut Of Baba Yaga (04:14)
04. Heroes Grief (04:43)
05. Kill The Enemy (03:53)
06. Nightmare Patrol (03:27)
07. Shiva's Return (04:12)
08. Black Sabbath (04:05)
09. Back Home (In Hell) (03:45)
Продолжительность: 00:35:45
Код:
Exact Audio Copy V1.0 beta 4 from 7. December 2014
EAC extraction logfile from 8. April 2015, 21:04
Mekong Delta / Mekong Delta
Used drive  : MATSHITADVD-RAM UJ8C0   Adapter: 1  ID: 0
Read mode               : Secure
Utilize accurate stream : Yes
Defeat audio cache      : Yes
Make use of C2 pointers : No
Read offset correction                      : 103
Overread into Lead-In and Lead-Out          : No
Fill up missing offset samples with silence : Yes
Delete leading and trailing silent blocks   : No
Null samples used in CRC calculations       : Yes
Used interface                              : Installed external ASPI interface
Used output format : Internal WAV Routines
Sample format      : 44.100 Hz; 16 Bit; Stereo
TOC of the extracted CD
     Track |   Start  |  Length  | Start sector | End sector
    ---------------------------------------------------------
        1  |  0:00.00 |  3:47.37 |         0    |    17061
        2  |  3:47.37 |  3:39.68 |     17062    |    33554
        3  |  7:27.30 |  4:13.72 |     33555    |    52601
        4  | 11:41.27 |  4:44.10 |     52602    |    73911
        5  | 16:25.37 |  3:53.00 |     73912    |    91386
        6  | 20:18.37 |  3:27.00 |     91387    |   106911
        7  | 23:45.37 |  4:10.38 |    106912    |   125699
        8  | 27:56.00 |  4:06.00 |    125700    |   144149
        9  | 32:02.00 |  3:43.35 |    144150    |   160909
Range status and errors
Selected range
     Filename Z:\data\hexonut\Seeding\Mekong Delta\1987-Mekong Delta\Mekong Delta.wav
     Peak level 100.0 %
     Extraction speed 3.7 X
     Range quality 100.0 %
     Test CRC 6FE47D8E
     Copy CRC 6FE47D8E
     Copy OK
No errors occurred
AccurateRip summary
Track  1  accurately ripped (confidence 5)  [6B7AD749]  (AR v2)
Track  2  accurately ripped (confidence 5)  [82EB9BC0]  (AR v2)
Track  3  accurately ripped (confidence 5)  [44702F3A]  (AR v2)
Track  4  accurately ripped (confidence 4)  [2C4C8CCE]  (AR v2)
Track  5  accurately ripped (confidence 5)  [7A1972E5]  (AR v2)
Track  6  accurately ripped (confidence 5)  [37222F02]  (AR v2)
Track  7  accurately ripped (confidence 5)  [81DA279D]  (AR v2)
Track  8  accurately ripped (confidence 5)  [10B2AFE8]  (AR v2)
Track  9  accurately ripped (confidence 5)  [A95B5028]  (AR v2)
All tracks accurately ripped
End of status report
==== Log checksum B8A051FC7B495172EB4A74923CEFF55642CD526758B3E148901F016F3AAF8D12 ====
Код:
REM GENRE "Thrash Metal"
REM DATE 1987
REM DISCID 7B086109
REM COMMENT "ExactAudioCopy v1.0b4"
CATALOG 0000000000000
PERFORMER "Mekong Delta"
TITLE "Mekong Delta"
FILE "Mekong Delta.wav" WAVE
  TRACK 01 AUDIO
    TITLE "Without Honour"
    PERFORMER "Mekong Delta"
    INDEX 01 00:00:00
  TRACK 02 AUDIO
    TITLE "The Cure"
    PERFORMER "Mekong Delta"
    INDEX 00 03:46:47
    INDEX 01 03:47:37
  TRACK 03 AUDIO
    TITLE "The Hut Of Baba Yaga"
    PERFORMER "Mekong Delta"
    INDEX 00 07:26:55
    INDEX 01 07:27:30
  TRACK 04 AUDIO
    TITLE "Heroes Grief"
    PERFORMER "Mekong Delta"
    INDEX 00 11:40:60
    INDEX 01 11:41:27
  TRACK 05 AUDIO
    TITLE "Kill The Enemy"
    PERFORMER "Mekong Delta"
    INDEX 00 16:23:35
    INDEX 01 16:25:37
  TRACK 06 AUDIO
    TITLE "Nightmare Patrol"
    PERFORMER "Mekong Delta"
    INDEX 00 20:16:70
    INDEX 01 20:18:37
  TRACK 07 AUDIO
    TITLE "Shiva's Return"
    PERFORMER "Mekong Delta"
    INDEX 00 23:43:42
    INDEX 01 23:45:37
  TRACK 08 AUDIO
    TITLE "Black Sabbath"
    PERFORMER "Mekong Delta"
    INDEX 00 27:55:30
    INDEX 01 27:56:00
  TRACK 09 AUDIO
    TITLE "Back Home (In Hell)"
    PERFORMER "Mekong Delta"
    INDEX 00 32:00:20
    INDEX 01 32:02:00
#777Лейбл: Aaarrg Records / (Rough Trade)
Страна-производитель диска: Австрия
Год издания диска: 1987 / 1990
Номер по каталогу: AAARRG 4 ~ CD/MD-A 2 ~ RTD 312.0003.2 30
Mekong Delta - 1987 - Mekong Delta
01. Without Honour (03:47)
02. The Cure (03:40)
03. The Hut Of Baba Yaga (04:14)
04. Heroes Grief (04:43)
05. Kill The Enemy (03:53)
06. Nightmare Patrol (03:27)
07. Shiva's Return (04:12)
08. Black Sabbath (04:05)
09. Back Home (In Hell) (03:45)
Продолжительность: 00:35:46
Код:
Exact Audio Copy V1.0 beta 4 from 7. December 2014
EAC extraction logfile from 6. May 2015, 14:22
Mekong Delta / Mekong Delta
Used drive  : LITE-ON DVDRW LH-20A1L   Adapter: 6  ID: 0
Read mode               : Secure
Utilize accurate stream : Yes
Defeat audio cache      : Yes
Make use of C2 pointers : No
Read offset correction                      : 6
Overread into Lead-In and Lead-Out          : No
Fill up missing offset samples with silence : Yes
Delete leading and trailing silent blocks   : No
Null samples used in CRC calculations       : Yes
Used interface                              : Installed external ASPI interface
Used output format : Internal WAV Routines
Sample format      : 44.100 Hz; 16 Bit; Stereo
TOC of the extracted CD
     Track |   Start  |  Length  | Start sector | End sector
    ---------------------------------------------------------
        1  |  0:00.00 |  3:47.37 |         0    |    17061
        2  |  3:47.37 |  3:39.68 |     17062    |    33554
        3  |  7:27.30 |  4:14.05 |     33555    |    52609
        4  | 11:41.35 |  4:44.02 |     52610    |    73911
        5  | 16:25.37 |  3:53.03 |     73912    |    91389
        6  | 20:18.40 |  3:26.72 |     91390    |   106911
        7  | 23:45.37 |  4:10.45 |    106912    |   125706
        8  | 27:56.07 |  4:05.65 |    125707    |   144146
        9  | 32:01.72 |  3:43.70 |    144147    |   160941
Range status and errors
Selected range
     Filename Z:\data\hexonut\Seeding\Mekong Delta\1987-Mekong Delta\1990-Aaarrg Records [Austria, AAARRG 4]\Mekong Delta (Austria).wav
     Peak level 100.0 %
     Extraction speed 7.8 X
     Range quality 100.0 %
     Test CRC BE7E676F
     Copy CRC BE7E676F
     Copy OK
No errors occurred
AccurateRip summary
Track  1  accurately ripped (confidence 3)  [469F93C9]  (AR v2)
Track  2  accurately ripped (confidence 3)  [0339E133]  (AR v2)
Track  3  accurately ripped (confidence 3)  [AF49C4F0]  (AR v2)
Track  4  accurately ripped (confidence 3)  [D299E5A0]  (AR v2)
Track  5  accurately ripped (confidence 3)  [9D5DDE76]  (AR v2)
Track  6  accurately ripped (confidence 3)  [423E14C8]  (AR v2)
Track  7  accurately ripped (confidence 3)  [C3498C4F]  (AR v2)
Track  8  accurately ripped (confidence 3)  [22959FEA]  (AR v2)
Track  9  accurately ripped (confidence 3)  [1337A5F6]  (AR v2)
All tracks accurately ripped
End of status report
==== Log checksum F478CC2602E87A89DAED4B904C129B84DB37F31C354BB8E34F227D6799BBBB64 ====
Код:
REM GENRE "Thrash Metal"
REM DATE 1987
REM DISCID 7A086109
REM COMMENT "ExactAudioCopy v1.0b4"
PERFORMER "Mekong Delta"
TITLE "Mekong Delta"
FILE "Mekong Delta (Austria).wav" WAVE
  TRACK 01 AUDIO
    TITLE "Without Honour"
    PERFORMER "Mekong Delta"
    INDEX 01 00:00:00
  TRACK 02 AUDIO
    TITLE "The Cure"
    PERFORMER "Mekong Delta"
    INDEX 00 03:47:02
    INDEX 01 03:47:37
  TRACK 03 AUDIO
    TITLE "The Hut Of Baba Yaga"
    PERFORMER "Mekong Delta"
    INDEX 00 07:27:07
    INDEX 01 07:27:30
  TRACK 04 AUDIO
    TITLE "Heroes Grief"
    PERFORMER "Mekong Delta"
    INDEX 00 11:41:25
    INDEX 01 11:41:35
  TRACK 05 AUDIO
    TITLE "Kill The Enemy"
    PERFORMER "Mekong Delta"
    INDEX 00 16:24:02
    INDEX 01 16:25:37
  TRACK 06 AUDIO
    TITLE "Nightmare Patrol"
    PERFORMER "Mekong Delta"
    INDEX 00 20:17:37
    INDEX 01 20:18:40
  TRACK 07 AUDIO
    TITLE "Shiva's Return"
    PERFORMER "Mekong Delta"
    INDEX 00 23:44:07
    INDEX 01 23:45:37
  TRACK 08 AUDIO
    TITLE "Black Sabbath"
    PERFORMER "Mekong Delta"
    INDEX 00 27:55:67
    INDEX 01 27:56:07
  TRACK 09 AUDIO
    TITLE "Back Home (In Hell)"
    PERFORMER "Mekong Delta"
    INDEX 00 32:00:60
    INDEX 01 32:01:72
#777#777Лейбл: Aaarrg Records / Metal Mania / Teichiku Records
Страна-производитель диска: Япония
Год издания диска: 1987 / 1988 / 1990
Номер по каталогу: TECP-25547
Mekong Delta - 1988 - Mekong Delta + The Music Of Erich Zann
01. Without Honour (03:48)
02. The Cure (03:40)
03. The Hut of Baba Yaga (04:14)
04. Heroes Grief (04:43)
05. Kill the Enemy (03:54)
06. Nightmare Patrol (03:27)
07. Shivas Return (04:11)
08. Black Sabbath (04:05)
09. Back Home (03:45)
10. Age of Agony (03:15)
11. True Lies (05:34)
12. Confession of Madness (03:55)
13. Hatred (03:24)
14. Interludium (Begging for Mercy) (03:10)
15. Prophecy (03:53)
16. Memories of Tomorrow (04:16)
17. I, King, Will Come (05:08)
18. The Final Deluge (02:58)
19. Epilogue (01:46)
20. The Gnom (02:56)
Продолжительность: 01:16:01
Код:
Exact Audio Copy V1.0 beta 3 from 29. August 2011
EAC extraction logfile from 18. February 2012, 15:31
Mekong Delta / Mekong Delta + The Music Of Erich Zann
Used drive  : PLEXTOR CD-R   PX-240A   Adapter: 0  ID: 0
Read mode               : Secure
Utilize accurate stream : Yes
Defeat audio cache      : Yes
Make use of C2 pointers : No
Read offset correction                      : 6
Overread into Lead-In and Lead-Out          : No
Fill up missing offset samples with silence : Yes
Delete leading and trailing silent blocks   : No
Null samples used in CRC calculations       : Yes
Used interface                              : Installed external ASPI interface
Used output format : Internal WAV Routines
Sample format      : 44.100 Hz; 16 Bit; Stereo
TOC of the extracted CD
     Track |   Start  |  Length  | Start sector | End sector
    ---------------------------------------------------------
        1  |  0:00.00 |  3:48.00 |         0    |    17099
        2  |  3:48.00 |  3:39.70 |     17100    |    33594
        3  |  7:27.70 |  4:14.00 |     33595    |    52644
        4  | 11:41.70 |  4:44.08 |     52645    |    73952
        5  | 16:26.03 |  3:53.02 |     73953    |    91429
        6  | 20:19.05 |  3:27.03 |     91430    |   106957
        7  | 23:46.08 |  4:10.40 |    106958    |   125747
        8  | 27:56.48 |  4:06.00 |    125748    |   144197
        9  | 32:02.48 |  3:46.40 |    144198    |   161187
       10  | 35:49.13 |  3:12.60 |    161188    |   175647
       11  | 39:01.73 |  5:34.10 |    175648    |   200707
       12  | 44:36.08 |  3:54.52 |    200708    |   218309
       13  | 48:30.60 |  3:23.55 |    218310    |   233589
       14  | 51:54.40 |  3:09.58 |    233590    |   247822
       15  | 55:04.23 |  3:53.30 |    247823    |   265327
       16  | 58:57.53 |  4:15.65 |    265328    |   284517
       17  | 63:13.43 |  5:07.67 |    284518    |   307609
       18  | 68:21.35 |  2:57.58 |    307610    |   320942
       19  | 71:19.18 |  1:46.27 |    320943    |   328919
       20  | 73:05.45 |  2:55.55 |    328920    |   342099
Range status and errors
Selected range
     Filename Z:\data2\Seeding Archive\Mekong Delta\1988-Mekong Delta + The Music Of Erich Zann\Mekong Delta + The Music Of Erich Zann.wav
     Peak level 100.0 %
     Extraction speed 8.5 X
     Range quality 99.9 %
     Test CRC C777F602
     Copy CRC C777F602
     Copy OK
No errors occurred
AccurateRip summary
Track  1  accurately ripped (confidence 1)  [12825B3E]  (AR v1)
Track  2  accurately ripped (confidence 1)  [B2F65066]  (AR v1)
Track  3  accurately ripped (confidence 1)  [1B7B306F]  (AR v1)
Track  4  accurately ripped (confidence 1)  [A7FB74AF]  (AR v1)
Track  5  accurately ripped (confidence 1)  [527B0CD1]  (AR v1)
Track  6  accurately ripped (confidence 1)  [420D834F]  (AR v1)
Track  7  accurately ripped (confidence 1)  [71D177F4]  (AR v1)
Track  8  accurately ripped (confidence 1)  [B8D0E66F]  (AR v1)
Track  9  accurately ripped (confidence 1)  [E9DA78ED]  (AR v1)
Track 10  accurately ripped (confidence 1)  [1ECD8BCF]  (AR v1)
Track 11  accurately ripped (confidence 1)  [B0F32037]  (AR v1)
Track 12  accurately ripped (confidence 1)  [99D4709D]  (AR v1)
Track 13  accurately ripped (confidence 1)  [E4A20830]  (AR v1)
Track 14  accurately ripped (confidence 1)  [3F87659B]  (AR v1)
Track 15  accurately ripped (confidence 1)  [040EE37F]  (AR v1)
Track 16  accurately ripped (confidence 1)  [8A97DA37]  (AR v1)
Track 17  accurately ripped (confidence 1)  [63E38DCC]  (AR v1)
Track 18  accurately ripped (confidence 1)  [0C91713E]  (AR v1)
Track 19  accurately ripped (confidence 1)  [C5567CA3]  (AR v1)
Track 20  accurately ripped (confidence 1)  [884096E5]  (AR v1)
All tracks accurately ripped
End of status report
==== Log checksum EE1CC0E3C494AB32AFF4D2780D08C7E6556B4E0C1DF99884071BB1CCDD288DBE ====
Код:
REM GENRE Metal
REM DATE 1988
REM DISCID 2111D114
REM COMMENT "ExactAudioCopy v1.0b3"
PERFORMER "Mekong Delta"
TITLE "Mekong Delta + The Music Of Erich Zann"
FILE "Mekong Delta + The Music Of Erich Zann.wav" WAVE
  TRACK 01 AUDIO
    TITLE "Without Honour"
    PERFORMER "Mekong Delta"
    INDEX 01 00:00:00
  TRACK 02 AUDIO
    TITLE "The Cure"
    PERFORMER "Mekong Delta"
    INDEX 01 03:48:00
  TRACK 03 AUDIO
    TITLE "The Hut of Baba Yaga"
    PERFORMER "Mekong Delta"
    INDEX 01 07:27:70
  TRACK 04 AUDIO
    TITLE "Heroes Grief"
    PERFORMER "Mekong Delta"
    INDEX 01 11:41:70
  TRACK 05 AUDIO
    TITLE "Kill the Enemy"
    PERFORMER "Mekong Delta"
    INDEX 00 16:25:13
    INDEX 01 16:26:03
  TRACK 06 AUDIO
    TITLE "Nightmare Patrol"
    PERFORMER "Mekong Delta"
    INDEX 00 20:18:55
    INDEX 01 20:19:05
  TRACK 07 AUDIO
    TITLE "Shivas Return"
    PERFORMER "Mekong Delta"
    INDEX 00 23:45:23
    INDEX 01 23:46:08
  TRACK 08 AUDIO
    TITLE "Black Sabbath"
    PERFORMER "Mekong Delta"
    INDEX 01 27:56:48
  TRACK 09 AUDIO
    TITLE "Back Home"
    PERFORMER "Mekong Delta"
    INDEX 00 32:01:60
    INDEX 01 32:02:48
  TRACK 10 AUDIO
    TITLE "Age of Agony"
    PERFORMER "Mekong Delta"
    INDEX 00 35:47:20
    INDEX 01 35:49:13
  TRACK 11 AUDIO
    TITLE "True Lies"
    PERFORMER "Mekong Delta"
    INDEX 01 39:01:73
  TRACK 12 AUDIO
    TITLE "Confession of Madness"
    PERFORMER "Mekong Delta"
    INDEX 01 44:36:08
  TRACK 13 AUDIO
    TITLE "Hatred"
    PERFORMER "Mekong Delta"
    INDEX 01 48:30:60
  TRACK 14 AUDIO
    TITLE "Interludium (Begging for Mercy)"
    PERFORMER "Mekong Delta"
    INDEX 01 51:54:40
  TRACK 15 AUDIO
    TITLE "Prophecy"
    PERFORMER "Mekong Delta"
    INDEX 01 55:04:23
  TRACK 16 AUDIO
    TITLE "Memories of Tomorrow"
    PERFORMER "Mekong Delta"
    INDEX 01 58:57:53
  TRACK 17 AUDIO
    TITLE "I, King, Will Come"
    PERFORMER "Mekong Delta"
    INDEX 01 63:13:43
  TRACK 18 AUDIO
    TITLE "The Final Deluge"
    PERFORMER "Mekong Delta"
    INDEX 01 68:21:35
  TRACK 19 AUDIO
    TITLE "Epilogue"
    PERFORMER "Mekong Delta"
    INDEX 01 71:19:18
  TRACK 20 AUDIO
    TITLE "The Gnom"
    PERFORMER "Mekong Delta"
    INDEX 01 73:05:45
#777Лейбл: Zardoz Music / Fox Records / Intercord Tonträger GmbH
Страна-производитель диска: Германия
Год издания диска: 1987 / 1998
Номер по каталогу: ZARDOZ MUSIC 9721 / Nr. 2150056
Mekong Delta - 1987 - Mekong Delta (Zardoz 1998)
01. Without Honour (03:48)
02. The Cure (03:43)
03. The Hut Of Baba Yaga (Instrumental) (04:17)
04. Heroes Grief (04:46)
05. Kill The Enemy (03:55)
06. Nightmare Patrol (03:29)
07. Shivas Return (04:13)
08. Black Sabbath (04:08)
09. Back Home (03:47)
10. Toccata (Instrumental) (Bonus Track) (06:03)
11. Black Betty (Bonus Track) (02:54)
12. Interludium (2nd Version) (Instrumental) (Bonus Track) (02:10)
Продолжительность: 00:47:12
Код:
Exact Audio Copy V1.0 beta 4 from 7. December 2014
EAC extraction logfile from 20. March 2015, 12:39
Mekong Delta / Mekong Delta (Zardoz 1998)
Used drive  : PLEXTOR CD-R   PX-240A   Adapter: 6  ID: 0
Read mode               : Secure
Utilize accurate stream : Yes
Defeat audio cache      : Yes
Make use of C2 pointers : No
Read offset correction                      : 6
Overread into Lead-In and Lead-Out          : No
Fill up missing offset samples with silence : Yes
Delete leading and trailing silent blocks   : No
Null samples used in CRC calculations       : Yes
Used interface                              : Installed external ASPI interface
Used output format : Internal WAV Routines
Sample format      : 44.100 Hz; 16 Bit; Stereo
TOC of the extracted CD
     Track |   Start  |  Length  | Start sector | End sector
    ---------------------------------------------------------
        1  |  0:00.00 |  3:50.05 |         0    |    17254
        2  |  3:50.05 |  3:42.52 |     17255    |    33956
        3  |  7:32.57 |  4:17.02 |     33957    |    53233
        4  | 11:49.59 |  4:45.53 |     53234    |    74661
        5  | 16:35.37 |  3:55.00 |     74662    |    92286
        6  | 20:30.37 |  3:28.51 |     92287    |   107937
        7  | 23:59.13 |  4:13.31 |    107938    |   126943
        8  | 28:12.44 |  4:07.43 |    126944    |   145511
        9  | 32:20.12 |  3:47.11 |    145512    |   162547
       10  | 36:07.23 |  6:03.07 |    162548    |   189779
       11  | 42:10.30 |  2:54.05 |    189780    |   202834
       12  | 45:04.35 |  2:07.48 |    202835    |   212407
Range status and errors
Selected range
     Filename Z:\data\hexonut\Seeding\Mekong Delta\1987-Mekong Delta\1998-Zardoz Music [Germany, Zardoz Music 9721]\Mekong Delta (Zardoz 1998).wav
     Peak level 96.6 %
     Extraction speed 8.5 X
     Range quality 100.0 %
     Test CRC 765ED506
     Copy CRC 765ED506
     Copy OK
No errors occurred
AccurateRip summary
Track  1  cannot be verified as accurate (confidence 5)  [52F08CCE], AccurateRip returned [396A8F1E]  (AR v2)
Track  2  cannot be verified as accurate (confidence 5)  [181E0BDC], AccurateRip returned [FF33EFF1]  (AR v2)
Track  3  cannot be verified as accurate (confidence 5)  [1CD97971], AccurateRip returned [B82FCBFB]  (AR v2)
Track  4  cannot be verified as accurate (confidence 5)  [16478328], AccurateRip returned [1B0CFEC7]  (AR v2)
Track  5  cannot be verified as accurate (confidence 5)  [3C34719B], AccurateRip returned [786DFFA9]  (AR v2)
Track  6  cannot be verified as accurate (confidence 5)  [6D7C294B], AccurateRip returned [406B1AB3]  (AR v2)
Track  7  cannot be verified as accurate (confidence 5)  [AE868F0A], AccurateRip returned [2553E093]  (AR v2)
Track  8  cannot be verified as accurate (confidence 5)  [56CA4F1E], AccurateRip returned [3B76BE1F]  (AR v2)
Track  9  cannot be verified as accurate (confidence 5)  [0FEF13F1], AccurateRip returned [1037C219]  (AR v2)
Track 10  cannot be verified as accurate (confidence 5)  [2B9335C9], AccurateRip returned [76F70BD2]  (AR v2)
Track 11  cannot be verified as accurate (confidence 5)  [C7FCFE8B], AccurateRip returned [8AAA27F3]  (AR v2)
Track 12  cannot be verified as accurate (confidence 5)  [95B7A0FD], AccurateRip returned [A88047F1]  (AR v2)
No tracks could be verified as accurate
You may have a different pressing from the one(s) in the database
End of status report
==== Log checksum 240E7FC609A8D0DF8FBF48189AC3CFC7DC594D52D192E067D40C071903F2F327 ====
Код:
REM GENRE "Progressive Thrash Metal"
REM DATE 1987
REM DISCID 9B0B100C
REM COMMENT "ExactAudioCopy v1.0b4"
CATALOG 0000000000000
PERFORMER "Mekong Delta"
TITLE "Mekong Delta (Zardoz 1998)"
FILE "Mekong Delta (Zardoz 1998).wav" WAVE
  TRACK 01 AUDIO
    TITLE "Without Honour"
    PERFORMER "Mekong Delta"
    INDEX 01 00:00:00
  TRACK 02 AUDIO
    TITLE "The Cure"
    PERFORMER "Mekong Delta"
    INDEX 00 03:48:05
    INDEX 01 03:50:05
  TRACK 03 AUDIO
    TITLE "The Hut Of Baba Yaga (Instrumental)"
    PERFORMER "Mekong Delta"
    INDEX 00 07:30:57
    INDEX 01 07:32:57
  TRACK 04 AUDIO
    TITLE "Heroes Grief"
    PERFORMER "Mekong Delta"
    INDEX 00 11:47:59
    INDEX 01 11:49:59
  TRACK 05 AUDIO
    TITLE "Kill The Enemy"
    PERFORMER "Mekong Delta"
    INDEX 00 16:33:37
    INDEX 01 16:35:37
  TRACK 06 AUDIO
    TITLE "Nightmare Patrol"
    PERFORMER "Mekong Delta"
    INDEX 00 20:28:37
    INDEX 01 20:30:37
  TRACK 07 AUDIO
    TITLE "Shivas Return"
    PERFORMER "Mekong Delta"
    INDEX 00 23:57:13
    INDEX 01 23:59:13
  TRACK 08 AUDIO
    TITLE "Black Sabbath"
    PERFORMER "Mekong Delta"
    INDEX 00 28:10:44
    INDEX 01 28:12:44
  TRACK 09 AUDIO
    TITLE "Back Home"
    PERFORMER "Mekong Delta"
    INDEX 00 32:18:12
    INDEX 01 32:20:12
  TRACK 10 AUDIO
    TITLE "Toccata (Instrumental) (Bonus Track)"
    PERFORMER "Mekong Delta"
    INDEX 00 36:05:23
    INDEX 01 36:07:23
  TRACK 11 AUDIO
    TITLE "Black Betty (Bonus Track)"
    PERFORMER "Mekong Delta"
    INDEX 00 42:08:30
    INDEX 01 42:10:30
  TRACK 12 AUDIO
    TITLE "Interludium (2nd Version) (Instrumental) (Bonus Track)"
    PERFORMER "Mekong Delta"
    INDEX 00 45:02:35
    INDEX 01 45:04:35
#777Лейбл: Aaarrg Records / Steamhammer Records / SPV GmbH
Страна-производитель диска: Германия
Год издания диска: 1987 / 2013
Номер по каталогу: SPV 265262 CD
Аудио идентично изданию ZARDOZ MUSIC 9721.
Продолжительность: 00:00:00
Код:
Exact Audio Copy V1.0 beta 4 from 7. December 2014
EAC extraction logfile from 11. March 2015, 21:41
Mekong Delta / Mekong Delta (Steamhammer 2013)
Used drive  : LITE-ON DVDRW LH-20A1L   Adapter: 6  ID: 0
Read mode               : Secure
Utilize accurate stream : Yes
Defeat audio cache      : Yes
Make use of C2 pointers : No
Read offset correction                      : 6
Overread into Lead-In and Lead-Out          : No
Fill up missing offset samples with silence : Yes
Delete leading and trailing silent blocks   : No
Null samples used in CRC calculations       : Yes
Used interface                              : Installed external ASPI interface
Used output format : Internal WAV Routines
Sample format      : 44.100 Hz; 16 Bit; Stereo
TOC of the extracted CD
     Track |   Start  |  Length  | Start sector | End sector
    ---------------------------------------------------------
        1  |  0:00.00 |  3:50.05 |         0    |    17254
        2  |  3:50.05 |  3:42.52 |     17255    |    33956
        3  |  7:32.57 |  4:17.02 |     33957    |    53233
        4  | 11:49.59 |  4:45.53 |     53234    |    74661
        5  | 16:35.37 |  3:55.00 |     74662    |    92286
        6  | 20:30.37 |  3:28.51 |     92287    |   107937
        7  | 23:59.13 |  4:13.31 |    107938    |   126943
        8  | 28:12.44 |  4:07.43 |    126944    |   145511
        9  | 32:20.12 |  3:47.11 |    145512    |   162547
       10  | 36:07.23 |  6:03.07 |    162548    |   189779
       11  | 42:10.30 |  2:54.05 |    189780    |   202834
       12  | 45:04.35 |  2:07.48 |    202835    |   212407
Range status and errors
Selected range
     Filename Z:\data\hexonut\Seeding\Mekong Delta\1987-Mekong Delta\2013-Steamhammer [Germany, SPV 265262 CD]\Mekong Delta (Steamhammer 2013).wav
     Peak level 96.6 %
     Extraction speed 8.8 X
     Range quality 100.0 %
     Test CRC 53B91BA3
     Copy CRC 53B91BA3
     Copy OK
No errors occurred
AccurateRip summary
Track  1  cannot be verified as accurate (confidence 5)  [F38A9A54], AccurateRip returned [396A8F1E]  (AR v2)
Track  2  cannot be verified as accurate (confidence 5)  [D2D78155], AccurateRip returned [FF33EFF1]  (AR v2)
Track  3  cannot be verified as accurate (confidence 5)  [C18349CA], AccurateRip returned [B82FCBFB]  (AR v2)
Track  4  cannot be verified as accurate (confidence 5)  [1296562C], AccurateRip returned [1B0CFEC7]  (AR v2)
Track  5  cannot be verified as accurate (confidence 5)  [B0F73E51], AccurateRip returned [786DFFA9]  (AR v2)
Track  6  cannot be verified as accurate (confidence 5)  [DBA93327], AccurateRip returned [406B1AB3]  (AR v2)
Track  7  cannot be verified as accurate (confidence 5)  [5FC6D526], AccurateRip returned [2553E093]  (AR v2)
Track  8  cannot be verified as accurate (confidence 5)  [C04DA1BB], AccurateRip returned [3B76BE1F]  (AR v2)
Track  9  cannot be verified as accurate (confidence 5)  [A3EFD31A], AccurateRip returned [1037C219]  (AR v2)
Track 10  cannot be verified as accurate (confidence 5)  [2420A652], AccurateRip returned [76F70BD2]  (AR v2)
Track 11  cannot be verified as accurate (confidence 5)  [5AE8C051], AccurateRip returned [8AAA27F3]  (AR v2)
Track 12  cannot be verified as accurate (confidence 5)  [7E1A9806], AccurateRip returned [A88047F1]  (AR v2)
No tracks could be verified as accurate
You may have a different pressing from the one(s) in the database
End of status report
==== Log checksum 381E96EFC119B7EC685D112D94EDCB89F04FB0454D4238E462CD3AFD0465B5FA ====
Код:
REM GENRE "Progressive Thrash Metal"
REM DATE 1987
REM DISCID 9B0B100C
REM COMMENT "ExactAudioCopy v1.0b4"
PERFORMER "Mekong Delta"
TITLE "Mekong Delta (Steamhammer 2013)"
FILE "Mekong Delta (Steamhammer 2013).wav" WAVE
  TRACK 01 AUDIO
    TITLE "Without Honour"
    PERFORMER "Mekong Delta"
    ISRC DEA451301490
    INDEX 01 00:00:00
  TRACK 02 AUDIO
    TITLE "The Cure"
    PERFORMER "Mekong Delta"
    ISRC DEA451301500
    INDEX 00 03:48:05
    INDEX 01 03:50:05
  TRACK 03 AUDIO
    TITLE "The Hut Of Baba Yaga (Instrumental)"
    PERFORMER "Mekong Delta"
    ISRC DEA451301510
    INDEX 00 07:30:57
    INDEX 01 07:32:57
  TRACK 04 AUDIO
    TITLE "Heroes Grief"
    PERFORMER "Mekong Delta"
    ISRC DEA451301520
    INDEX 00 11:47:59
    INDEX 01 11:49:59
  TRACK 05 AUDIO
    TITLE "Kill The Enemy"
    PERFORMER "Mekong Delta"
    ISRC DEA451301530
    INDEX 00 16:33:37
    INDEX 01 16:35:37
  TRACK 06 AUDIO
    TITLE "Nightmare Patrol"
    PERFORMER "Mekong Delta"
    ISRC DEA451301540
    INDEX 00 20:28:37
    INDEX 01 20:30:37
  TRACK 07 AUDIO
    TITLE "Shivas Return"
    PERFORMER "Mekong Delta"
    ISRC DEA451301550
    INDEX 00 23:57:13
    INDEX 01 23:59:13
  TRACK 08 AUDIO
    TITLE "Black Sabbath"
    PERFORMER "Mekong Delta"
    ISRC DEA451301560
    INDEX 00 28:10:44
    INDEX 01 28:12:44
  TRACK 09 AUDIO
    TITLE "Back Home"
    PERFORMER "Mekong Delta"
    ISRC DEA451301570
    INDEX 00 32:18:12
    INDEX 01 32:20:12
  TRACK 10 AUDIO
    TITLE "Toccata (Instrumental) (Bonus Track)"
    PERFORMER "Mekong Delta"
    ISRC DEA451303690
    INDEX 00 36:05:24
    INDEX 01 36:07:23
  TRACK 11 AUDIO
    TITLE "Black Betty (Bonus Track)"
    PERFORMER "Mekong Delta"
    ISRC DEA451303700
    INDEX 00 42:08:30
    INDEX 01 42:10:30
  TRACK 12 AUDIO
    TITLE "Interludium (2nd Version) (Instrumental) (Bonus Track)"
    PERFORMER "Mekong Delta"
    ISRC DEA451303710
    INDEX 00 45:02:35
    INDEX 01 45:04:35
#777Лейбл: Archivist Records
Страна-производитель диска: Украина
Год издания диска: 1987 / 2019
Номер по каталогу: ARC. vol. XVI
Mekong Delta - 2019 - Mekong Delta (Archivist Reissue)
01. Without Honour (03:52)
02. The Cure (03:45)
03. The Hut Of Baba Yaga (04:19)
04. Heroes Grief (04:48)
05. Kill The Enemy (03:57)
06. Nightmare Patrol (03:31)
07. Shivas Return (04:15)
08. Black Sabbath (04:10)
09. Back Home (In Hell) (03:47)
Продолжительность: 00:36:23
Код:
Exact Audio Copy V1.1 from 23. June 2015
EAC extraction logfile from 18. June 2020, 12:11
Mekong Delta / Mekong Delta (Archivist Reissue)
Used drive  : HL-DT-STBD-RE  WH16NS40   Adapter: 1  ID: 0
Read mode               : Secure
Utilize accurate stream : Yes
Defeat audio cache      : Yes
Make use of C2 pointers : No
Read offset correction                      : 6
Overread into Lead-In and Lead-Out          : No
Fill up missing offset samples with silence : Yes
Delete leading and trailing silent blocks   : No
Null samples used in CRC calculations       : Yes
Used interface                              : Native Win32 interface for Win NT & 2000
Used output format : Internal WAV Routines
Sample format      : 44.100 Hz; 16 Bit; Stereo
TOC of the extracted CD
     Track |   Start  |  Length  | Start sector | End sector
    ---------------------------------------------------------
        1  |  0:00.00 |  3:52.05 |         0    |    17404
        2  |  3:52.05 |  3:44.52 |     17405    |    34256
        3  |  7:36.57 |  4:19.02 |     34257    |    53683
        4  | 11:55.59 |  4:47.53 |     53684    |    75261
        5  | 16:43.37 |  3:57.00 |     75262    |    93036
        6  | 20:40.37 |  3:30.51 |     93037    |   108837
        7  | 24:11.13 |  4:15.31 |    108838    |   127993
        8  | 28:26.44 |  4:09.43 |    127994    |   146711
        9  | 32:36.12 |  3:47.11 |    146712    |   163747
Range status and errors
Selected range
     Filename Z:\data\hexonut\Seeding\Mekong Delta\1987-Mekong Delta\2019-Archivist Records [Ukraine, ARC. vol. XVI]\Mekong Delta (Archivist Reissue).wav
     Peak level 96.6 %
     Extraction speed 6.8 X
     Range quality 100.0 %
     Test CRC 493B0262
     Copy CRC 493B0262
     Copy OK
No errors occurred
AccurateRip summary
Track  1  not present in database
Track  2  not present in database
Track  3  not present in database
Track  4  not present in database
Track  5  not present in database
Track  6  not present in database
Track  7  not present in database
Track  8  not present in database
Track  9  not present in database
None of the tracks are present in the AccurateRip database
End of status report
---- CUETools DB Plugin V2.1.6
[CTDB TOCID: qTeN2uygvd_x8dLU.0waZlxvIx4-] disk not present in database
Submit result: External component has thrown an exception.
==== Log checksum 150D302C715C48AABF28E076BB84FC3B539A714C16362D17F6C726F2439D7B8E ====
Код:
REM GENRE "Thrash Metal"
REM DATE 2019
REM DISCID 6E088709
REM COMMENT "ExactAudioCopy v1.1"
PERFORMER "Mekong Delta"
TITLE "Mekong Delta (Archivist Reissue)"
FILE "Mekong Delta (Archivist Reissue).wav" WAVE
  TRACK 01 AUDIO
    TITLE "Without Honour"
    PERFORMER "Mekong Delta"
    INDEX 01 00:00:00
  TRACK 02 AUDIO
    TITLE "The Cure"
    PERFORMER "Mekong Delta"
    INDEX 01 03:52:05
  TRACK 03 AUDIO
    TITLE "The Hut Of Baba Yaga"
    PERFORMER "Mekong Delta"
    INDEX 01 07:36:57
  TRACK 04 AUDIO
    TITLE "Heroes Grief"
    PERFORMER "Mekong Delta"
    INDEX 01 11:55:59
  TRACK 05 AUDIO
    TITLE "Kill The Enemy"
    PERFORMER "Mekong Delta"
    INDEX 01 16:43:37
  TRACK 06 AUDIO
    TITLE "Nightmare Patrol"
    PERFORMER "Mekong Delta"
    INDEX 01 20:40:37
  TRACK 07 AUDIO
    TITLE "Shivas Return"
    PERFORMER "Mekong Delta"
    INDEX 01 24:11:13
  TRACK 08 AUDIO
    TITLE "Black Sabbath"
    PERFORMER "Mekong Delta"
    INDEX 01 28:26:44
  TRACK 09 AUDIO
    TITLE "Back Home (In Hell)"
    PERFORMER "Mekong Delta"
    INDEX 01 32:36:12
#777Лейбл: Aaarrg Records / (SPV GmbH)
Страна-производитель диска: Германия
Год издания диска: 1988
Номер по каталогу: AAARRG 11
Mekong Delta - 1988 - The Music Of Erich Zann
01. Age of Agony (03:12)
02. True Lies (05:34)
03. Confession of Madness (03:55)
04. Hatred (03:24)
05. Interludium (Begging For Mercy) (03:09)
06. Prophecy (03:58)
07. Memories of Tomorrow (04:20)
08. I, King, Will Come (05:08)
09. The Final Deluge (02:58)
10. Epilogue (01:46)
11. The Gnom (02:55)
Продолжительность: 00:40:19
Код:
Exact Audio Copy V1.0 beta 4 from 7. December 2014
EAC extraction logfile from 1. May 2015, 14:33
Mekong Delta / The Music Of Erich Zann
Used drive  : LITE-ON DVDRW LH-20A1L   Adapter: 6  ID: 0
Read mode               : Secure
Utilize accurate stream : Yes
Defeat audio cache      : Yes
Make use of C2 pointers : No
Read offset correction                      : 6
Overread into Lead-In and Lead-Out          : No
Fill up missing offset samples with silence : Yes
Delete leading and trailing silent blocks   : No
Null samples used in CRC calculations       : Yes
Used interface                              : Installed external ASPI interface
Used output format : Internal WAV Routines
Sample format      : 44.100 Hz; 16 Bit; Stereo
TOC of the extracted CD
     Track |   Start  |  Length  | Start sector | End sector
    ---------------------------------------------------------
        1  |  0:00.00 |  3:12.45 |         0    |    14444
        2  |  3:12.45 |  5:34.10 |     14445    |    39504
        3  |  8:46.55 |  3:54.52 |     39505    |    57106
        4  | 12:41.32 |  3:23.53 |     57107    |    72384
        5  | 16:05.10 |  3:09.57 |     72385    |    86616
        6  | 19:14.67 |  3:57.23 |     86617    |   104414
        7  | 23:12.15 |  4:20.22 |    104415    |   123936
        8  | 27:32.37 |  5:07.43 |    123937    |   147004
        9  | 32:40.05 |  2:57.55 |    147005    |   160334
       10  | 35:37.60 |  1:46.27 |    160335    |   168311
       11  | 37:24.12 |  2:54.43 |    168312    |   181404
Range status and errors
Selected range
     Filename Z:\data\hexonut\Seeding\Mekong Delta\1988-The Music Of Erich Zann\1988-Aaarrg Records [Germany, AAARRG 11]\The Music Of Erich Zann.wav
     Peak level 82.8 %
     Extraction speed 6.6 X
     Range quality 99.9 %
     Test CRC 8802DF6F
     Copy CRC 8802DF6F
     Copy OK
No errors occurred
AccurateRip summary
Track  1  accurately ripped (confidence 7)  [4C5C0193]  (AR v2)
Track  2  accurately ripped (confidence 7)  [8594B477]  (AR v2)
Track  3  accurately ripped (confidence 7)  [5F4B5D1E]  (AR v2)
Track  4  accurately ripped (confidence 7)  [6ED51F35]  (AR v2)
Track  5  accurately ripped (confidence 7)  [E57755EA]  (AR v2)
Track  6  accurately ripped (confidence 7)  [10A55366]  (AR v2)
Track  7  accurately ripped (confidence 7)  [EB74261C]  (AR v2)
Track  8  accurately ripped (confidence 7)  [9EFB4B27]  (AR v2)
Track  9  accurately ripped (confidence 7)  [AE8DBBE8]  (AR v2)
Track 10  accurately ripped (confidence 7)  [C4EEE11F]  (AR v2)
Track 11  accurately ripped (confidence 7)  [298FB351]  (AR v2)
All tracks accurately ripped
End of status report
==== Log checksum 3B008CD7AE6D10A5F52C6933456516946B84D9B58BD8A546180F4A140B103496 ====
Код:
REM GENRE "Thrash Metal"
REM DATE 1988
REM DISCID A209720B
REM COMMENT "ExactAudioCopy v1.0b4"
CATALOG 0000000000000
PERFORMER "Mekong Delta"
TITLE "The Music Of Erich Zann"
FILE "The Music Of Erich Zann.wav" WAVE
  TRACK 01 AUDIO
    TITLE "Age of Agony"
    PERFORMER "Mekong Delta"
    INDEX 01 00:00:00
  TRACK 02 AUDIO
    TITLE "True Lies"
    PERFORMER "Mekong Delta"
    INDEX 00 03:12:30
    INDEX 01 03:12:45
  TRACK 03 AUDIO
    TITLE "Confession of Madness"
    PERFORMER "Mekong Delta"
    INDEX 00 08:46:42
    INDEX 01 08:46:55
  TRACK 04 AUDIO
    TITLE "Hatred"
    PERFORMER "Mekong Delta"
    INDEX 00 12:41:27
    INDEX 01 12:41:32
  TRACK 05 AUDIO
    TITLE "Interludium (Begging For Mercy)"
    PERFORMER "Mekong Delta"
    INDEX 00 16:05:05
    INDEX 01 16:05:10
  TRACK 06 AUDIO
    TITLE "Prophecy"
    PERFORMER "Mekong Delta"
    INDEX 00 19:14:42
    INDEX 01 19:14:67
  TRACK 07 AUDIO
    TITLE "Memories of Tomorrow"
    PERFORMER "Mekong Delta"
    INDEX 00 23:12:05
    INDEX 01 23:12:15
  TRACK 08 AUDIO
    TITLE "I, King, Will Come"
    PERFORMER "Mekong Delta"
    INDEX 00 27:32:30
    INDEX 01 27:32:37
  TRACK 09 AUDIO
    TITLE "The Final Deluge"
    PERFORMER "Mekong Delta"
    INDEX 00 32:40:00
    INDEX 01 32:40:05
  TRACK 10 AUDIO
    TITLE "Epilogue"
    PERFORMER "Mekong Delta"
    INDEX 00 35:37:55
    INDEX 01 35:37:60
  TRACK 11 AUDIO
    TITLE "The Gnom"
    PERFORMER "Mekong Delta"
    INDEX 00 37:24:05
    INDEX 01 37:24:12
#777Лейбл: Aaarrg Records / Steamhammer Records / SPV USA
Страна-производитель диска: США
Год издания диска: 1988
Номер по каталогу: SHCD 7007
Mekong Delta - 1988 - The Music Of Erich Zann (Steamhammer 1988)
01. Age Of Agony (03:13)
02. True Lies (05:34)
03. Confession Of Madness (03:55)
04. Hatered (03:24)
05. Interludium (Begging For Mercy) (03:10)
06. Prophecy (03:58)
07. Memories Of Tomorrow (04:20)
08. I, King, Will Come (05:08)
09. The Final Deluge (02:58)
10. Epilogue (01:46)
11. The Gnom (02:57)
Продолжительность: 00:40:23
Код:
Exact Audio Copy V1.0 beta 4 from 7. December 2014
EAC extraction logfile from 20. March 2015, 11:06
Mekong Delta / The Music Of Erich Zann (Steamhammer 1988)
Used drive  : PLEXTOR CD-R   PX-240A   Adapter: 6  ID: 0
Read mode               : Secure
Utilize accurate stream : Yes
Defeat audio cache      : Yes
Make use of C2 pointers : No
Read offset correction                      : 6
Overread into Lead-In and Lead-Out          : No
Fill up missing offset samples with silence : Yes
Delete leading and trailing silent blocks   : No
Null samples used in CRC calculations       : Yes
Used interface                              : Installed external ASPI interface
Used output format : Internal WAV Routines
Sample format      : 44.100 Hz; 16 Bit; Stereo
TOC of the extracted CD
     Track |   Start  |  Length  | Start sector | End sector
    ---------------------------------------------------------
        1  |  0:00.00 |  3:12.62 |         0    |    14461
        2  |  3:12.62 |  5:34.35 |     14462    |    39546
        3  |  8:47.22 |  3:54.70 |     39547    |    57166
        4  | 12:42.17 |  3:23.68 |     57167    |    72459
        5  | 16:06.10 |  3:09.72 |     72460    |    86706
        6  | 19:16.07 |  3:57.43 |     86707    |   104524
        7  | 23:13.50 |  4:20.15 |    104525    |   124039
        8  | 27:33.65 |  5:08.17 |    124040    |   147156
        9  | 32:42.07 |  2:57.70 |    147157    |   160501
       10  | 35:40.02 |  1:46.38 |    160502    |   168489
       11  | 37:26.40 |  2:56.35 |    168490    |   181724
Range status and errors
Selected range
     Filename Z:\data\hexonut\Seeding\Mekong Delta\1988-The Music Of Erich Zann\1988-Steamhammer [US, SHCD007]\The Music Of Erich Zann (US).wav
     Peak level 80.3 %
     Extraction speed 8.1 X
     Range quality 100.0 %
     Test CRC B0E96F7B
     Copy CRC B0E96F7B
     Copy OK
No errors occurred
AccurateRip summary
Track  1  accurately ripped (confidence 2)  [072ECABC]  (AR v1)
Track  2  accurately ripped (confidence 2)  [3380D24B]  (AR v1)
Track  3  accurately ripped (confidence 2)  [5E2179CE]  (AR v1)
Track  4  accurately ripped (confidence 2)  [FBBB55E5]  (AR v1)
Track  5  accurately ripped (confidence 2)  [C464737D]  (AR v1)
Track  6  accurately ripped (confidence 2)  [9BDA14D6]  (AR v1)
Track  7  accurately ripped (confidence 2)  [4A9209D4]  (AR v1)
Track  8  accurately ripped (confidence 2)  [E0D54166]  (AR v1)
Track  9  accurately ripped (confidence 2)  [58ECDB70]  (AR v1)
Track 10  accurately ripped (confidence 2)  [0FBBE5EE]  (AR v1)
Track 11  accurately ripped (confidence 2)  [F9712165]  (AR v1)
All tracks accurately ripped
End of status report
==== Log checksum 22D63DA49A2947B69CBB80DF2191D49BFF97A7FB8DA29E6812DEFC202A653B4E ====
Код:
REM GENRE "Thrash Metal"
REM DATE 1988
REM DISCID A709770B
REM COMMENT "ExactAudioCopy v1.0b4"
PERFORMER "Mekong Delta"
TITLE "The Music Of Erich Zann (Steamhammer 1988)"
FILE "The Music Of Erich Zann (US).wav" WAVE
  TRACK 01 AUDIO
    TITLE "Age Of Agony"
    PERFORMER "Mekong Delta"
    INDEX 01 00:00:00
  TRACK 02 AUDIO
    TITLE "True Lies"
    PERFORMER "Mekong Delta"
    INDEX 00 03:12:60
    INDEX 01 03:12:62
  TRACK 03 AUDIO
    TITLE "Confession Of Madness"
    PERFORMER "Mekong Delta"
    INDEX 00 08:47:20
    INDEX 01 08:47:22
  TRACK 04 AUDIO
    TITLE "Hatered"
    PERFORMER "Mekong Delta"
    INDEX 00 12:42:15
    INDEX 01 12:42:17
  TRACK 05 AUDIO
    TITLE "Interludium (Begging For Mercy)"
    PERFORMER "Mekong Delta"
    INDEX 00 16:06:07
    INDEX 01 16:06:10
  TRACK 06 AUDIO
    TITLE "Prophecy"
    PERFORMER "Mekong Delta"
    INDEX 00 19:16:05
    INDEX 01 19:16:07
  TRACK 07 AUDIO
    TITLE "Memories Of Tomorrow"
    PERFORMER "Mekong Delta"
    INDEX 00 23:13:47
    INDEX 01 23:13:50
  TRACK 08 AUDIO
    TITLE "I, King, Will Come"
    PERFORMER "Mekong Delta"
    INDEX 00 27:33:62
    INDEX 01 27:33:65
  TRACK 09 AUDIO
    TITLE "The Final Deluge"
    PERFORMER "Mekong Delta"
    INDEX 00 32:42:05
    INDEX 01 32:42:07
  TRACK 10 AUDIO
    TITLE "Epilogue"
    PERFORMER "Mekong Delta"
    INDEX 00 35:40:00
    INDEX 01 35:40:02
  TRACK 11 AUDIO
    TITLE "The Gnom"
    PERFORMER "Mekong Delta"
    INDEX 00 37:26:37
    INDEX 01 37:26:40
#777Лейбл: Aaarrg Records / (SPV GmbH)
Страна-производитель диска: Австрия
Год издания диска: 1988 / 1990
Номер по каталогу: AAARRG 11
Mekong Delta - 1988 - The Music Of Erich Zann (Austria)
01. Age of Agony (03:13)
02. True Lies (05:34)
03. Confession of Madness (03:55)
04. Hatered (03:24)
05. Interludium (Begging For Mercy) (03:10)
06. Prophecy (03:57)
07. Memories of Tomorrow (04:20)
08. I, King, Will Come (05:08)
09. The Final Deluge (02:58)
10. Epilogue (01:46)
11. The Gnom (02:55)
Продолжительность: 00:40:19
Код:
Exact Audio Copy V1.0 beta 2 from 29. April 2011
EAC extraction logfile from 22. January 2013, 13:33
Mekong Delta / The Music Of Erich Zann
Used drive  : TSSTcorpCDRWDVD TS-H492C   Adapter: 0  ID: 0
Read mode               : Secure
Utilize accurate stream : Yes
Defeat audio cache      : Yes
Make use of C2 pointers : No
Read offset correction                      : 6
Overread into Lead-In and Lead-Out          : No
Fill up missing offset samples with silence : Yes
Delete leading and trailing silent blocks   : No
Null samples used in CRC calculations       : Yes
Used interface                              : Native Win32 interface for Win NT & 2000
Used output format : Internal WAV Routines
Sample format      : 44.100 Hz; 16 Bit; Stereo
TOC of the extracted CD
     Track |   Start  |  Length  | Start sector | End sector
    ---------------------------------------------------------
        1  |  0:00.00 |  3:12.50 |         0    |    14449
        2  |  3:12.50 |  5:34.12 |     14450    |    39511
        3  |  8:46.62 |  3:54.53 |     39512    |    57114
        4  | 12:41.40 |  3:23.50 |     57115    |    72389
        5  | 16:05.15 |  3:09.57 |     72390    |    86621
        6  | 19:14.72 |  3:57.33 |     86622    |   104429
        7  | 23:12.30 |  4:19.65 |    104430    |   123919
        8  | 27:32.20 |  5:07.65 |    123920    |   147009
        9  | 32:40.10 |  2:57.57 |    147010    |   160341
       10  | 35:37.67 |  1:46.23 |    160342    |   168314
       11  | 37:24.15 |  2:54.57 |    168315    |   181421
Range status and errors
Selected range
     Filename C:\Music\Mekong Delta\1988-The Music Of Erich Zann\The Music Of Erich Zann.wav
     Peak level 82.8 %
     Extraction speed 7.1 X
     Range quality 99.9 %
     Test CRC CE4EBE7E
     Copy CRC CE4EBE7E
     Copy OK
No errors occurred
AccurateRip summary
Track  1  accurately ripped (confidence 3)  [5051E76D]  (AR v1)
Track  2  accurately ripped (confidence 3)  [D1068667]  (AR v1)
Track  3  accurately ripped (confidence 3)  [4B61B79B]  (AR v1)
Track  4  accurately ripped (confidence 3)  [4C51FA50]  (AR v1)
Track  5  accurately ripped (confidence 3)  [A645CEF0]  (AR v1)
Track  6  accurately ripped (confidence 3)  [472E09F5]  (AR v1)
Track  7  accurately ripped (confidence 3)  [6A8944CF]  (AR v1)
Track  8  accurately ripped (confidence 3)  [AE67C1FB]  (AR v1)
Track  9  accurately ripped (confidence 3)  [F3434F52]  (AR v1)
Track 10  accurately ripped (confidence 3)  [A39E2F9D]  (AR v1)
Track 11  accurately ripped (confidence 3)  [383C70A0]  (AR v1)
All tracks accurately ripped
End of status report
==== Log checksum 109AE9AA1AACCB7A04FDD5026946427A835F9AA202F1A68ABB68BA1AABD699B4 ====
Код:
REM GENRE "Thrash Metal"
REM DATE 1988
REM DISCID A209720B
REM COMMENT "ExactAudioCopy v1.0b2"
PERFORMER "Mekong Delta"
TITLE "The Music Of Erich Zann (Austria)"
FILE "The Music Of Erich Zann (Austria).wav" WAVE
  TRACK 01 AUDIO
    TITLE "Age of Agony"
    PERFORMER "Mekong Delta"
    INDEX 01 00:00:00
  TRACK 02 AUDIO
    TITLE "True Lies"
    PERFORMER "Mekong Delta"
    INDEX 01 03:12:50
  TRACK 03 AUDIO
    TITLE "Confession of Madness"
    PERFORMER "Mekong Delta"
    INDEX 01 08:46:62
  TRACK 04 AUDIO
    TITLE "Hatered"
    PERFORMER "Mekong Delta"
    INDEX 01 12:41:40
  TRACK 05 AUDIO
    TITLE "Interludium (Begging For Mercy)"
    PERFORMER "Mekong Delta"
    INDEX 01 16:05:15
  TRACK 06 AUDIO
    TITLE "Prophecy"
    PERFORMER "Mekong Delta"
    INDEX 01 19:14:72
  TRACK 07 AUDIO
    TITLE "Memories of Tomorrow"
    PERFORMER "Mekong Delta"
    INDEX 01 23:12:30
  TRACK 08 AUDIO
    TITLE "I, King, Will Come"
    PERFORMER "Mekong Delta"
    INDEX 01 27:32:20
  TRACK 09 AUDIO
    TITLE "The Final Deluge"
    PERFORMER "Mekong Delta"
    INDEX 01 32:40:10
  TRACK 10 AUDIO
    TITLE "Epilogue"
    PERFORMER "Mekong Delta"
    INDEX 01 35:37:67
  TRACK 11 AUDIO
    TITLE "The Gnom"
    PERFORMER "Mekong Delta"
    INDEX 01 37:24:15
#777Лейбл: Zardoz Music / Fox Records / Intercord Tonträger GmbH
Страна-производитель диска: Германия
Год издания диска: 1988 / 1998
Номер по каталогу: ZARDOZ MUSIC 9722 / Nr. 2150055
Mekong Delta - 1988 - The Music Of Erich Zann [Zardoz 1998]
01. Age Of Agony (03:13)
02. True Lies (05:37)
03. Confession Of Madness (03:58)
04. Hatered (03:27)
05. Interludium (Begging For Mercy) (03:13)
06. Prophecy (03:55)
07. Memories Of Tomorrow (04:20)
08. I, King, Will Come (05:11)
09. The Final Deluge (03:01)
10. Epilogue (01:48)
11. The Gnom [Bonus Track] (02:59)
Продолжительность: 00:40:41
Код:
Exact Audio Copy V1.0 beta 4 from 7. December 2014
EAC extraction logfile from 19. March 2015, 19:07
Mekong Delta / The Music Of Erich Zann [Zardoz 1998]
Used drive  : LITE-ON DVDRW LH-20A1L   Adapter: 6  ID: 0
Read mode               : Secure
Utilize accurate stream : Yes
Defeat audio cache      : Yes
Make use of C2 pointers : No
Read offset correction                      : 6
Overread into Lead-In and Lead-Out          : No
Fill up missing offset samples with silence : Yes
Delete leading and trailing silent blocks   : No
Null samples used in CRC calculations       : Yes
Used interface                              : Installed external ASPI interface
Used output format : Internal WAV Routines
Sample format      : 44.100 Hz; 16 Bit; Stereo
TOC of the extracted CD
     Track |   Start  |  Length  | Start sector | End sector
    ---------------------------------------------------------
        1  |  0:00.00 |  3:15.45 |         0    |    14669
        2  |  3:15.45 |  5:37.12 |     14670    |    39956
        3  |  8:52.57 |  3:57.50 |     39957    |    57781
        4  | 12:50.32 |  3:26.60 |     57782    |    73291
        5  | 16:17.17 |  3:12.60 |     73292    |    87751
        6  | 19:30.02 |  3:55.44 |     87752    |   105420
        7  | 23:25.46 |  4:19.46 |    105421    |   124891
        8  | 27:45.17 |  5:10.70 |    124892    |   148211
        9  | 32:56.12 |  3:00.59 |    148212    |   161770
       10  | 35:56.71 |  1:48.50 |    161771    |   169920
       11  | 37:45.46 |  2:55.10 |    169921    |   183055
Range status and errors
Selected range
     Filename Z:\data\hexonut\Seeding\Mekong Delta\1988-The Music Of Erich Zann\1998-Zardoz Music [Germany, 2150055]\The Music Of Erich Zann [Zardoz 1998].wav
     Peak level 96.6 %
     Extraction speed 8.1 X
     Range quality 100.0 %
     Test CRC 93FDDE69
     Copy CRC 93FDDE69
     Copy OK
No errors occurred
AccurateRip summary
Track  1  accurately ripped (confidence 3)  [7ED43FB8]  (AR v2)
Track  2  accurately ripped (confidence 3)  [5039A4D7]  (AR v2)
Track  3  accurately ripped (confidence 3)  [D4EC6032]  (AR v2)
Track  4  accurately ripped (confidence 3)  [AFEFFA81]  (AR v2)
Track  5  accurately ripped (confidence 3)  [96015E1E]  (AR v2)
Track  6  accurately ripped (confidence 3)  [6A801222]  (AR v2)
Track  7  accurately ripped (confidence 3)  [36F2840E]  (AR v2)
Track  8  accurately ripped (confidence 3)  [5980F467]  (AR v2)
Track  9  accurately ripped (confidence 3)  [7B557B75]  (AR v2)
Track 10  accurately ripped (confidence 3)  [7ECE83C6]  (AR v2)
Track 11  accurately ripped (confidence 3)  [ED454211]  (AR v2)
All tracks accurately ripped
End of status report
==== Log checksum 5602FD0E138E72FC01403A568289A90E6D34D283C3618D2D745ED030A88E4B7C ====
Код:
REM GENRE "Thrash Metal"
REM DATE 1988
REM DISCID AD09880B
REM COMMENT "ExactAudioCopy v1.0b4"
CATALOG 0000000000000
PERFORMER "Mekong Delta"
TITLE "The Music Of Erich Zann [Zardoz 1998]"
FILE "The Music Of Erich Zann [Zardoz 1998].wav" WAVE
  TRACK 01 AUDIO
    TITLE "Age Of Agony"
    PERFORMER "Mekong Delta"
    INDEX 01 00:00:00
  TRACK 02 AUDIO
    TITLE "True Lies"
    PERFORMER "Mekong Delta"
    INDEX 00 03:12:50
    INDEX 01 03:15:45
  TRACK 03 AUDIO
    TITLE "Confession Of Madness"
    PERFORMER "Mekong Delta"
    INDEX 00 08:49:62
    INDEX 01 08:52:57
  TRACK 04 AUDIO
    TITLE "Hatered"
    PERFORMER "Mekong Delta"
    INDEX 00 12:47:41
    INDEX 01 12:50:32
  TRACK 05 AUDIO
    TITLE "Interludium (Begging For Mercy)"
    PERFORMER "Mekong Delta"
    INDEX 00 16:14:19
    INDEX 01 16:17:17
  TRACK 06 AUDIO
    TITLE "Prophecy"
    PERFORMER "Mekong Delta"
    INDEX 00 19:27:07
    INDEX 01 19:30:02
  TRACK 07 AUDIO
    TITLE "Memories Of Tomorrow"
    PERFORMER "Mekong Delta"
    INDEX 00 23:22:34
    INDEX 01 23:25:46
  TRACK 08 AUDIO
    TITLE "I, King, Will Come"
    PERFORMER "Mekong Delta"
    INDEX 00 27:42:22
    INDEX 01 27:45:17
  TRACK 09 AUDIO
    TITLE "The Final Deluge"
    PERFORMER "Mekong Delta"
    INDEX 00 32:53:20
    INDEX 01 32:56:12
  TRACK 10 AUDIO
    TITLE "Epilogue"
    PERFORMER "Mekong Delta"
    INDEX 00 35:54:00
    INDEX 01 35:56:71
  TRACK 11 AUDIO
    TITLE "The Gnom [Bonus Track]"
    PERFORMER "Mekong Delta"
    INDEX 00 37:41:71
    INDEX 01 37:45:46
#777Лейбл: Steamhammer Records / SPV GmbH
Страна-производитель диска: Германия
Год издания диска: 1988 / 2013
Номер по каталогу: SPV 265272 CD
Mekong Delta - 1988 - The Music Of Erich Zann (Steamhammer 2013)
01. Age Of Agony (03:13)
02. True Lies (05:36)
03. Confession Of Madness (03:57)
04. Hatered (03:26)
05. Interludium (Begging For Mercy) (03:12)
06. Prophecy (03:54)
07. Memories Of Tomorrow (04:19)
08. I, King, Will Come (05:10)
09. The Final Deluge (03:00)
10. Epilogue (01:47)
Продолжительность: 00:37:34
Код:
Exact Audio Copy V1.0 beta 4 from 7. December 2014
EAC extraction logfile from 19. March 2015, 19:22
Mekong Delta / The Music Of Erich Zann (Steamhammer 2013)
Used drive  : LITE-ON DVDRW LH-20A1L   Adapter: 6  ID: 0
Read mode               : Secure
Utilize accurate stream : Yes
Defeat audio cache      : Yes
Make use of C2 pointers : No
Read offset correction                      : 6
Overread into Lead-In and Lead-Out          : No
Fill up missing offset samples with silence : Yes
Delete leading and trailing silent blocks   : No
Null samples used in CRC calculations       : Yes
Used interface                              : Installed external ASPI interface
Used output format : Internal WAV Routines
Sample format      : 44.100 Hz; 16 Bit; Stereo
TOC of the extracted CD
     Track |   Start  |  Length  | Start sector | End sector
    ---------------------------------------------------------
        1  |  0:00.00 |  3:14.52 |         0    |    14601
        2  |  3:14.52 |  5:36.19 |     14602    |    39820
        3  |  8:50.71 |  3:56.60 |     39821    |    57580
        4  | 12:47.56 |  3:25.66 |     57581    |    73021
        5  | 16:13.47 |  3:11.66 |     73022    |    87412
        6  | 19:25.38 |  3:54.36 |     87413    |   104998
        7  | 23:19.74 |  4:18.53 |    104999    |   124401
        8  | 27:38.52 |  5:10.04 |    124402    |   147655
        9  | 32:48.56 |  2:59.66 |    147656    |   161146
       10  | 35:48.47 |  1:45.07 |    161147    |   169028
Range status and errors
Selected range
     Filename Z:\data\hexonut\Seeding\Mekong Delta\1988-The Music Of Erich Zann\2013-Steamhammer [Germany, SPV 265272 CD]\The Music Of Erich Zann (Steamhammer 2013).wav
     Peak level 96.6 %
     Extraction speed 8.3 X
     Range quality 100.0 %
     Test CRC 792BB64F
     Copy CRC 792BB64F
     Copy OK
No errors occurred
AccurateRip summary
Track  1  cannot be verified as accurate (confidence 1)  [2FA8AB94], AccurateRip returned [E7B6029E]  (AR v2)
Track  2  cannot be verified as accurate (confidence 1)  [63A55230], AccurateRip returned [BD840DC1]  (AR v2)
Track  3  cannot be verified as accurate (confidence 1)  [18335D68], AccurateRip returned [48D17216]  (AR v2)
Track  4  cannot be verified as accurate (confidence 1)  [AECF4FC4], AccurateRip returned [75A82AB9]  (AR v2)
Track  5  cannot be verified as accurate (confidence 1)  [BD9A54C2], AccurateRip returned [27144802]  (AR v2)
Track  6  cannot be verified as accurate (confidence 1)  [BFF8EFA0], AccurateRip returned [8E445838]  (AR v2)
Track  7  cannot be verified as accurate (confidence 1)  [0CB73A70], AccurateRip returned [67B4FF58]  (AR v2)
Track  8  cannot be verified as accurate (confidence 1)  [3659681E], AccurateRip returned [95A4448F]  (AR v2)
Track  9  cannot be verified as accurate (confidence 1)  [23AB39F1], AccurateRip returned [ED1B03AD]  (AR v2)
Track 10  cannot be verified as accurate (confidence 1)  [C1D7CDC6], AccurateRip returned [5243C4C0]  (AR v2)
No tracks could be verified as accurate
You may have a different pressing from the one(s) in the database
End of status report
==== Log checksum B86D0563C9B5BBAF3EA116827EB7656D848D7933AD827816A765B3AEA7BD1A98 ====
Код:
REM GENRE "Thrash Metal"
REM DATE 1988
REM DISCID 8208CD0A
REM COMMENT "ExactAudioCopy v1.0b4"
PERFORMER "Mekong Delta"
TITLE "The Music Of Erich Zann (Steamhammer 2013)"
FILE "The Music Of Erich Zann (Steamhammer 2013).wav" WAVE
  TRACK 01 AUDIO
    TITLE "Age Of Agony"
    PERFORMER "Mekong Delta"
    ISRC DEA451301940
    FLAGS DCP
    INDEX 01 00:00:00
  TRACK 02 AUDIO
    TITLE "True Lies"
    PERFORMER "Mekong Delta"
    ISRC DEA451301950
    FLAGS DCP
    INDEX 00 03:12:52
    INDEX 01 03:14:52
  TRACK 03 AUDIO
    TITLE "Confession Of Madness"
    PERFORMER "Mekong Delta"
    ISRC DEA451301960
    FLAGS DCP
    INDEX 00 08:48:71
    INDEX 01 08:50:71
  TRACK 04 AUDIO
    TITLE "Hatered"
    PERFORMER "Mekong Delta"
    ISRC DEA451301970
    FLAGS DCP
    INDEX 00 12:45:56
    INDEX 01 12:47:56
  TRACK 05 AUDIO
    TITLE "Interludium (Begging For Mercy)"
    PERFORMER "Mekong Delta"
    ISRC DEA451301980
    FLAGS DCP
    INDEX 00 16:11:47
    INDEX 01 16:13:47
  TRACK 06 AUDIO
    TITLE "Prophecy"
    PERFORMER "Mekong Delta"
    ISRC DEA451301990
    FLAGS DCP
    INDEX 00 19:23:38
    INDEX 01 19:25:38
  TRACK 07 AUDIO
    TITLE "Memories Of Tomorrow"
    PERFORMER "Mekong Delta"
    ISRC DEA451302000
    FLAGS DCP
    INDEX 00 23:17:74
    INDEX 01 23:19:74
  TRACK 08 AUDIO
    TITLE "I, King, Will Come"
    PERFORMER "Mekong Delta"
    ISRC DEA451302010
    FLAGS DCP
    INDEX 00 27:36:52
    INDEX 01 27:38:52
  TRACK 09 AUDIO
    TITLE "The Final Deluge"
    PERFORMER "Mekong Delta"
    ISRC DEA451302020
    FLAGS DCP
    INDEX 00 32:46:56
    INDEX 01 32:48:56
  TRACK 10 AUDIO
    TITLE "Epilogue"
    PERFORMER "Mekong Delta"
    ISRC DEA451302030
    FLAGS DCP
    INDEX 00 35:46:47
    INDEX 01 35:48:47
#777Лейбл: Archivist Records
Страна-производитель диска: Украина
Год издания диска: 1988 / 2019
Номер по каталогу: ARC. vol. XVII
Mekong Delta - 2019 - The Music Of Erich Zann (Archivist Reissue)
01. Age Of Agony (03:15)
02. True Lies (05:36)
03. Confession Of Madness (03:59)
04. Hatred (03:28)
05. Interludium (Begging For Mercy) (03:12)
06. Prophecy (03:56)
07. Memories Of Tomorrow (04:21)
08. I, King, Will Come (05:12)
09. The Final Deluge (03:02)
10. Epilogue (01:45)
Продолжительность: 00:37:46
Код:
Exact Audio Copy V1.1 from 23. June 2015
EAC extraction logfile from 18. June 2020, 11:54
Mekong Delta / The Music Of Erich Zann (Archivist Reissue
Used drive  : PLEXTOR CD-R   PX-240A   Adapter: 1  ID: 1
Read mode               : Secure
Utilize accurate stream : Yes
Defeat audio cache      : Yes
Make use of C2 pointers : No
Read offset correction                      : 6
Overread into Lead-In and Lead-Out          : No
Fill up missing offset samples with silence : Yes
Delete leading and trailing silent blocks   : No
Null samples used in CRC calculations       : Yes
Used interface                              : Native Win32 interface for Win NT & 2000
Used output format : Internal WAV Routines
Sample format      : 44.100 Hz; 16 Bit; Stereo
TOC of the extracted CD
     Track |   Start  |  Length  | Start sector | End sector
    ---------------------------------------------------------
        1  |  0:00.00 |  3:14.52 |         0    |    14601
        2  |  3:14.52 |  5:36.19 |     14602    |    39820
        3  |  8:50.71 |  3:58.60 |     39821    |    57730
        4  | 12:49.56 |  3:27.66 |     57731    |    73321
        5  | 16:17.47 |  3:11.66 |     73322    |    87712
        6  | 19:29.38 |  3:56.36 |     87713    |   105448
        7  | 23:25.74 |  4:20.53 |    105449    |   125001
        8  | 27:46.52 |  5:12.04 |    125002    |   148405
        9  | 32:58.56 |  3:01.66 |    148406    |   162046
       10  | 36:00.47 |  1:45.07 |    162047    |   169928
Range status and errors
Selected range
     Filename Z:\data\hexonut\Seeding\Mekong Delta\1988-The Music Of Erich Zann\2019-Archivist Records [Ukraine, ARC. vol. XVII]\The Music Of Erich Zann (Archivist Reissue.wav
     Peak level 96.6 %
     Extraction speed 8.3 X
     Range quality 100.0 %
     Test CRC 357B9D7B
     Copy CRC 357B9D7B
     Copy OK
No errors occurred
AccurateRip summary
Track  1  not present in database
Track  2  not present in database
Track  3  not present in database
Track  4  not present in database
Track  5  not present in database
Track  6  not present in database
Track  7  not present in database
Track  8  not present in database
Track  9  not present in database
Track 10  not present in database
None of the tracks are present in the AccurateRip database
End of status report
---- CUETools DB Plugin V2.1.6
[CTDB TOCID: YmrlVzA7TonxxOUy4Q83miFnpEU-] disk not present in database
Submit result: External component has thrown an exception.
==== Log checksum 6E1A96A3D9A14CC467DA0CB44942818CD9DBD468810F02C432F1916E19963B68 ====
Код:
REM GENRE "Thrash Metal"
REM DATE 2019
REM DISCID 8C08D90A
REM COMMENT "ExactAudioCopy v1.1"
PERFORMER "Mekong Delta"
TITLE "The Music Of Erich Zann (Archivist Reissue)"
FILE "The Music Of Erich Zann (Archivist Reissue).wav" WAVE
  TRACK 01 AUDIO
    TITLE "Age Of Agony"
    PERFORMER "Mekong Delta"
    INDEX 01 00:00:00
  TRACK 02 AUDIO
    TITLE "True Lies"
    PERFORMER "Mekong Delta"
    INDEX 01 03:14:52
  TRACK 03 AUDIO
    TITLE "Confession Of Madness"
    PERFORMER "Mekong Delta"
    INDEX 01 08:50:71
  TRACK 04 AUDIO
    TITLE "Hatred"
    PERFORMER "Mekong Delta"
    INDEX 01 12:49:56
  TRACK 05 AUDIO
    TITLE "Interludium (Begging For Mercy)"
    PERFORMER "Mekong Delta"
    INDEX 01 16:17:47
  TRACK 06 AUDIO
    TITLE "Prophecy"
    PERFORMER "Mekong Delta"
    INDEX 01 19:29:38
  TRACK 07 AUDIO
    TITLE "Memories Of Tomorrow"
    PERFORMER "Mekong Delta"
    INDEX 01 23:25:74
  TRACK 08 AUDIO
    TITLE "I, King, Will Come"
    PERFORMER "Mekong Delta"
    INDEX 01 27:46:52
  TRACK 09 AUDIO
    TITLE "The Final Deluge"
    PERFORMER "Mekong Delta"
    INDEX 01 32:58:56
  TRACK 10 AUDIO
    TITLE "Epilogue"
    PERFORMER "Mekong Delta"
    INDEX 01 36:00:47
#777Лейбл: Aaarrg Records / Major International / SPV GmbH
Страна-производитель диска: Германия
Год издания диска: 1989
Номер по каталогу: AAARRG 19
Mekong Delta - 1989 - The Principle Of Doubt
01. A Question Of Trust (03:27)
02. The Principle Of Doubt (04:48)
03. Once I Believed (04:30)
04. Ever Since Time Began (04:25)
05. Curse Of Reality (04:28)
06. Twilight Zone (03:30)
07. Shades Of Doom (04:04)
08. The Jester (05:52)
09. El Colibrí (01:16)
10. No Friend Of Mine (03:47)
Продолжительность: 00:40:07
Код:
Exact Audio Copy V1.0 beta 3 from 29. August 2011
EAC extraction logfile from 27. January 2012, 9:22
Mekong Delta / The Principle Of Doubt
Used drive  : LITE-ON DVDRW LH-20A1L   Adapter: 4  ID: 0
Read mode               : Secure
Utilize accurate stream : Yes
Defeat audio cache      : Yes
Make use of C2 pointers : No
Read offset correction                      : 6
Overread into Lead-In and Lead-Out          : No
Fill up missing offset samples with silence : Yes
Delete leading and trailing silent blocks   : No
Null samples used in CRC calculations       : Yes
Used interface                              : Installed external ASPI interface
Used output format : Internal WAV Routines
Sample format      : 44.100 Hz; 16 Bit; Stereo
TOC of the extracted CD
     Track |   Start  |  Length  | Start sector | End sector
    ---------------------------------------------------------
        1  |  0:00.00 |  3:27.37 |         0    |    15561
        2  |  3:27.37 |  4:48.18 |     15562    |    37179
        3  |  8:15.55 |  4:29.67 |     37180    |    57421
        4  | 12:45.47 |  4:24.43 |     57422    |    77264
        5  | 17:10.15 |  4:27.62 |     77265    |    97351
        6  | 21:38.02 |  3:29.55 |     97352    |   113081
        7  | 25:07.57 |  4:04.35 |    113082    |   131416
        8  | 29:12.17 |  5:52.00 |    131417    |   157816
        9  | 35:04.17 |  1:16.03 |    157817    |   163519
       10  | 36:20.20 |  3:46.60 |    163520    |   180529
Range status and errors
Selected range
     Filename Z:\data2\Seeding Archive\Mekong Delta\1989-The Principle Of Doubt\The Principle Of Doubt.wav
     Peak level 100.0 %
     Extraction speed 7.6 X
     Range quality 100.0 %
     Test CRC 08478FF7
     Copy CRC 08478FF7
     Copy OK
No errors occurred
AccurateRip summary
Track  1  accurately ripped (confidence 8)  [9BC01438]  (AR v1)
Track  2  accurately ripped (confidence 8)  [247F1B73]  (AR v1)
Track  3  accurately ripped (confidence 8)  [3EAB0D5E]  (AR v1)
Track  4  accurately ripped (confidence 8)  [E29BE421]  (AR v1)
Track  5  accurately ripped (confidence 8)  [D9163E23]  (AR v1)
Track  6  accurately ripped (confidence 8)  [2B7D79E9]  (AR v1)
Track  7  accurately ripped (confidence 8)  [47F63346]  (AR v1)
Track  8  accurately ripped (confidence 8)  [E0039745]  (AR v1)
Track  9  accurately ripped (confidence 8)  [4ABA24EA]  (AR v1)
Track 10  accurately ripped (confidence 8)  [561345DF]  (AR v1)
All tracks accurately ripped
End of status report
==== Log checksum E6CFACD7F940D2D5DF55AE5787F8E4CDB10E650B5DFC317E22B3F27A62AB12EB ====
Код:
REM GENRE "Thrash Metal"
REM DATE 1989
REM DISCID 7509670A
REM COMMENT "ExactAudioCopy v1.0b3"
CATALOG 0000000000000
PERFORMER "Mekong Delta"
TITLE "The Principle Of Doubt"
FILE "The Principle Of Doubt.wav" WAVE
  TRACK 01 AUDIO
    TITLE "A Question Of Trust"
    PERFORMER "Mekong Delta"
    INDEX 01 00:00:00
  TRACK 02 AUDIO
    TITLE "The Principle Of Doubt"
    PERFORMER "Mekong Delta"
    INDEX 01 03:27:37
  TRACK 03 AUDIO
    TITLE "Once I Believed"
    PERFORMER "Mekong Delta"
    INDEX 01 08:15:55
  TRACK 04 AUDIO
    TITLE "Ever Since Time Began"
    PERFORMER "Mekong Delta"
    INDEX 01 12:45:47
  TRACK 05 AUDIO
    TITLE "Curse Of Reality"
    PERFORMER "Mekong Delta"
    INDEX 01 17:10:15
  TRACK 06 AUDIO
    TITLE "Twilight Zone"
    PERFORMER "Mekong Delta"
    INDEX 01 21:38:02
  TRACK 07 AUDIO
    TITLE "Shades Of Doom"
    PERFORMER "Mekong Delta"
    INDEX 01 25:07:57
  TRACK 08 AUDIO
    TITLE "The Jester"
    PERFORMER "Mekong Delta"
    INDEX 01 29:12:17
  TRACK 09 AUDIO
    TITLE "El Colibrí"
    PERFORMER "Mekong Delta"
    INDEX 01 35:04:17
  TRACK 10 AUDIO
    TITLE "No Friend Of Mine"
    PERFORMER "Mekong Delta"
    INDEX 01 36:20:20
#777Лейбл: Aaarrg Records / Major International / Rough Trade
Страна-производитель диска: Австрия
Год издания диска: 1989 / 1990
Номер по каталогу: AAARRG 19 / RTD 312.0021.2 30
Mekong Delta - 1989 - The Principle Of Doubt (Austria)
01. A Question Of Trust (03:27)
02. The Principle Of Doubt (04:48)
03. Once I Believed (04:30)
04. Ever Since Time Began (04:25)
05. Curse Of Reality (04:27)
06. Twilight Zone (03:30)
07. Shades Of Doom (04:05)
08. The Jester (05:52)
09. El Colibrí (01:16)
10. No Friend Of Mine (03:48)
Продолжительность: 00:40:07
Код:
Exact Audio Copy V1.0 beta 4 from 7. December 2014
EAC extraction logfile from 14. May 2015, 18:57
Mekong Delta / The Principle Of Doubt (Austria)
Used drive  : LITE-ON DVDRW LH-20A1L   Adapter: 6  ID: 0
Read mode               : Secure
Utilize accurate stream : Yes
Defeat audio cache      : Yes
Make use of C2 pointers : No
Read offset correction                      : 6
Overread into Lead-In and Lead-Out          : No
Fill up missing offset samples with silence : Yes
Delete leading and trailing silent blocks   : No
Null samples used in CRC calculations       : Yes
Used interface                              : Installed external ASPI interface
Used output format : Internal WAV Routines
Sample format      : 44.100 Hz; 16 Bit; Stereo
TOC of the extracted CD
     Track |   Start  |  Length  | Start sector | End sector
    ---------------------------------------------------------
        1  |  0:00.00 |  3:27.22 |         0    |    15546
        2  |  3:27.22 |  4:48.53 |     15547    |    37199
        3  |  8:16.00 |  4:29.20 |     37200    |    57394
        4  | 12:45.20 |  4:25.07 |     57395    |    77276
        5  | 17:10.27 |  4:29.00 |     77277    |    97451
        6  | 21:39.27 |  3:28.45 |     97452    |   113096
        7  | 25:07.72 |  4:04.35 |    113097    |   131431
        8  | 29:12.32 |  5:51.70 |    131432    |   157826
        9  | 35:04.27 |  1:16.18 |    157827    |   163544
       10  | 36:20.45 |  3:46.47 |    163545    |   180541
Range status and errors
Selected range
     Filename Z:\data\hexonut\Seeding\Mekong Delta\1989-The Principle Of Doubt\1990-Aaarrg! Records [Austria, AAARRG 19]\The Principle Of Doubt (Austria).wav
     Peak level 100.0 %
     Extraction speed 8.1 X
     Range quality 100.0 %
     Test CRC 4BD6F155
     Copy CRC 4BD6F155
     Copy OK
No errors occurred
AccurateRip summary
Track  1  accurately ripped (confidence 2)  [487AD8B1]  (AR v2)
Track  2  accurately ripped (confidence 2)  [EF7F3514]  (AR v2)
Track  3  accurately ripped (confidence 2)  [7F305C45]  (AR v2)
Track  4  accurately ripped (confidence 2)  [47548DE7]  (AR v2)
Track  5  accurately ripped (confidence 2)  [1AA79A39]  (AR v2)
Track  6  accurately ripped (confidence 2)  [75B0BCCB]  (AR v2)
Track  7  accurately ripped (confidence 2)  [6B368430]  (AR v2)
Track  8  accurately ripped (confidence 2)  [10945978]  (AR v2)
Track  9  accurately ripped (confidence 2)  [2F3ED131]  (AR v2)
Track 10  accurately ripped (confidence 2)  [F347D430]  (AR v2)
All tracks accurately ripped
End of status report
==== Log checksum 6BBC0AEC3D7DB7C6789DD97930B184894355AD3A2A1C9474F44AD8A8668B99AA ====
Код:
REM GENRE "Thrash Metal"
REM DATE 1989
REM DISCID 7709670A
REM COMMENT "ExactAudioCopy v1.0b4"
PERFORMER "Mekong Delta"
TITLE "The Principle Of Doubt (Austria)"
FILE "The Principle Of Doubt (Austria).wav" WAVE
  TRACK 01 AUDIO
    TITLE "A Question Of Trust"
    PERFORMER "Mekong Delta"
    INDEX 01 00:00:00
  TRACK 02 AUDIO
    TITLE "The Principle Of Doubt"
    PERFORMER "Mekong Delta"
    INDEX 01 03:27:22
  TRACK 03 AUDIO
    TITLE "Once I Believed"
    PERFORMER "Mekong Delta"
    INDEX 00 08:15:27
    INDEX 01 08:16:00
  TRACK 04 AUDIO
    TITLE "Ever Since Time Began"
    PERFORMER "Mekong Delta"
    INDEX 00 12:45:02
    INDEX 01 12:45:20
  TRACK 05 AUDIO
    TITLE "Curse Of Reality"
    PERFORMER "Mekong Delta"
    INDEX 00 17:10:25
    INDEX 01 17:10:27
  TRACK 06 AUDIO
    TITLE "Twilight Zone"
    PERFORMER "Mekong Delta"
    INDEX 00 21:37:32
    INDEX 01 21:39:27
  TRACK 07 AUDIO
    TITLE "Shades Of Doom"
    PERFORMER "Mekong Delta"
    INDEX 00 25:07:22
    INDEX 01 25:07:72
  TRACK 08 AUDIO
    TITLE "The Jester"
    PERFORMER "Mekong Delta"
    INDEX 00 29:12:12
    INDEX 01 29:12:32
  TRACK 09 AUDIO
    TITLE "El Colibrí"
    PERFORMER "Mekong Delta"
    INDEX 00 35:03:50
    INDEX 01 35:04:27
  TRACK 10 AUDIO
    TITLE "No Friend Of Mine"
    PERFORMER "Mekong Delta"
    INDEX 00 36:19:32
    INDEX 01 36:20:45
#777#777Лейбл: Aaarrg Records / Metal Mania / Teichiku Records
Страна-производитель диска: Япония
Год издания диска: 1989 / 1990
Номер по каталогу: TECP-25494
Mekong Delta - 1990 - The Principle of Doubt + Toccata
01. A Question of Trust (03:28)
02. The Principle of Doubt (04:48)
03. Once I Believed (04:29)
04. Ever Since Time Began (04:25)
05. Curse of Reality (04:27)
06. Twilight Zone (03:30)
07. Shades of Doom (04:05)
08. The Jester (05:52)
09. El Colibrí (01:16)
10. No Friend of Mine (03:47)
11. Toccata (06:00)
12. Black Betty (02:50)
13. Interludium (2nd Version) (02:10)
Продолжительность: 00:51:07
Код:
Exact Audio Copy V1.0 beta 3 from 29. August 2011
EAC extraction logfile from 10. January 2012, 10:29
Mekong Delta / The Principle of Doubt + Toccata
Used drive  : LITE-ON DVDRW LH-20A1L   Adapter: 4  ID: 0
Read mode               : Secure
Utilize accurate stream : Yes
Defeat audio cache      : Yes
Make use of C2 pointers : No
Read offset correction                      : 6
Overread into Lead-In and Lead-Out          : No
Fill up missing offset samples with silence : Yes
Delete leading and trailing silent blocks   : No
Null samples used in CRC calculations       : Yes
Used interface                              : Installed external ASPI interface
Used output format : Internal WAV Routines
Sample format      : 44.100 Hz; 16 Bit; Stereo
TOC of the extracted CD
     Track |   Start  |  Length  | Start sector | End sector
    ---------------------------------------------------------
        1  |  0:00.00 |  3:27.52 |         0    |    15576
        2  |  3:27.52 |  4:48.10 |     15577    |    37186
        3  |  8:15.62 |  4:29.30 |     37187    |    57391
        4  | 12:45.17 |  4:25.08 |     57392    |    77274
        5  | 17:10.25 |  4:29.00 |     77275    |    97449
        6  | 21:39.25 |  3:28.45 |     97450    |   113094
        7  | 25:07.70 |  4:04.35 |    113095    |   131429
        8  | 29:12.30 |  5:51.72 |    131430    |   157826
        9  | 35:04.27 |  1:16.13 |    157827    |   163539
       10  | 36:20.40 |  3:46.30 |    163540    |   180519
       11  | 40:06.70 |  6:00.67 |    180520    |   207586
       12  | 46:07.62 |  2:52.10 |    207587    |   220496
       13  | 48:59.72 |  2:07.40 |    220497    |   230061
Range status and errors
Selected range
     Filename Z:\data2\Seeding Archive\Mekong Delta\1989-The Principle of Doubt + Toccata\The Principle of Doubt + Toccata.wav
     Peak level 100.0 %
     Extraction speed 8.2 X
     Range quality 100.0 %
     Test CRC 091DCA8A
     Copy CRC 091DCA8A
     Copy OK
No errors occurred
AccurateRip summary
Track  1  accurately ripped (confidence 1)  [ADB91365]  (AR v1)
Track  2  accurately ripped (confidence 1)  [10373A34]  (AR v1)
Track  3  accurately ripped (confidence 1)  [D5516AE6]  (AR v1)
Track  4  accurately ripped (confidence 1)  [18760368]  (AR v1)
Track  5  accurately ripped (confidence 1)  [48C7DA41]  (AR v1)
Track  6  accurately ripped (confidence 1)  [3DBDCC6E]  (AR v1)
Track  7  accurately ripped (confidence 1)  [92845159]  (AR v1)
Track  8  accurately ripped (confidence 1)  [A00CEC8D]  (AR v1)
Track  9  accurately ripped (confidence 1)  [5F08452E]  (AR v1)
Track 10  accurately ripped (confidence 1)  [3CC83197]  (AR v1)
Track 11  accurately ripped (confidence 1)  [A742ADA0]  (AR v1)
Track 12  accurately ripped (confidence 1)  [0A2E62C7]  (AR v1)
Track 13  accurately ripped (confidence 1)  [42C62F59]  (AR v1)
All tracks accurately ripped
End of status report
==== Log checksum 49B66E3E2590748426ED80E3EFADA1BE99C42A38191ABF6F9222AF606D93C267 ====
Код:
REM GENRE "Thrash Metal"
REM DATE 1990
REM DISCID AC0BFB0D
REM COMMENT "ExactAudioCopy v1.0b3"
PERFORMER "Mekong Delta"
TITLE "The Principle of Doubt + Toccata"
FILE "The Principle of Doubt + Toccata.wav" WAVE
  TRACK 01 AUDIO
    TITLE "A Question of Trust"
    PERFORMER "Mekong Delta"
    INDEX 01 00:00:00
  TRACK 02 AUDIO
    TITLE "The Principle of Doubt"
    PERFORMER "Mekong Delta"
    INDEX 01 03:27:52
  TRACK 03 AUDIO
    TITLE "Once I Believed"
    PERFORMER "Mekong Delta"
    INDEX 01 08:15:62
  TRACK 04 AUDIO
    TITLE "Ever Since Time Began"
    PERFORMER "Mekong Delta"
    INDEX 01 12:45:17
  TRACK 05 AUDIO
    TITLE "Curse of Reality"
    PERFORMER "Mekong Delta"
    INDEX 00 17:09:63
    INDEX 01 17:10:25
  TRACK 06 AUDIO
    TITLE "Twilight Zone"
    PERFORMER "Mekong Delta"
    INDEX 00 21:36:63
    INDEX 01 21:39:25
  TRACK 07 AUDIO
    TITLE "Shades of Doom"
    PERFORMER "Mekong Delta"
    INDEX 00 25:07:20
    INDEX 01 25:07:70
  TRACK 08 AUDIO
    TITLE "The Jester"
    PERFORMER "Mekong Delta"
    INDEX 01 29:12:30
  TRACK 09 AUDIO
    TITLE "El Colibrí"
    PERFORMER "Mekong Delta"
    INDEX 00 35:04:02
    INDEX 01 35:04:27
  TRACK 10 AUDIO
    TITLE "No Friend of Mine"
    PERFORMER "Mekong Delta"
    INDEX 00 36:19:65
    INDEX 01 36:20:40
  TRACK 11 AUDIO
    TITLE "Toccata"
    PERFORMER "Mekong Delta"
    INDEX 01 40:06:70
  TRACK 12 AUDIO
    TITLE "Black Betty"
    PERFORMER "Mekong Delta"
    INDEX 00 46:07:12
    INDEX 01 46:07:62
  TRACK 13 AUDIO
    TITLE "Interludium (2nd Version)"
    PERFORMER "Mekong Delta"
    INDEX 00 48:57:47
    INDEX 01 48:59:72
#777Лейбл: Zardoz Music / Fox Records / Intercord Tonträger GmbH
Страна-производитель диска: Германия
Год издания диска: 1989 / 1998
Номер по каталогу: ZARDOZ MUSIC 9723 / Nr. 2150053
Mekong Delta - 1989 - The Principle Of Doubt (Zardoz 1998)
01. A Question Of Trust (03:32)
02. The Principle Of Doubt (04:53)
03. Once I Believed (04:32)
04. Ever Since Time Began (04:36)
05. Curse Of Reality (04:40)
06. Twilight Zone (Lord Fouls Hort) (03:32)
07. Shades Of Doom (04:20)
08. The Jester (05:55)
09. El Colibrí (01:21)
10. No Friend Of Mine (03:50)
Продолжительность: 00:41:10
Код:
Exact Audio Copy V1.0 beta 4 from 7. December 2014
EAC extraction logfile from 19. March 2015, 18:55
Mekong Delta / The Principle Of Doubt (Zardoz 1998)
Used drive  : LITE-ON DVDRW LH-20A1L   Adapter: 6  ID: 0
Read mode               : Secure
Utilize accurate stream : Yes
Defeat audio cache      : Yes
Make use of C2 pointers : No
Read offset correction                      : 6
Overread into Lead-In and Lead-Out          : No
Fill up missing offset samples with silence : Yes
Delete leading and trailing silent blocks   : No
Null samples used in CRC calculations       : Yes
Used interface                              : Installed external ASPI interface
Used output format : Internal WAV Routines
Sample format      : 44.100 Hz; 16 Bit; Stereo
TOC of the extracted CD
     Track |   Start  |  Length  | Start sector | End sector
    ---------------------------------------------------------
        1  |  0:00.00 |  3:34.36 |         0    |    16085
        2  |  3:34.36 |  4:53.29 |     16086    |    38089
        3  |  8:27.65 |  4:31.70 |     38090    |    58484
        4  | 12:59.60 |  4:35.58 |     58485    |    79167
        5  | 17:35.43 |  4:39.66 |     79168    |   100158
        6  | 22:15.34 |  3:31.41 |    100159    |   116024
        7  | 25:47.00 |  4:19.51 |    116025    |   135500
        8  | 30:06.51 |  5:55.20 |    135501    |   162145
        9  | 36:01.71 |  1:20.50 |    162146    |   168195
       10  | 37:22.46 |  3:47.59 |    168196    |   185279
Range status and errors
Selected range
     Filename Z:\data\hexonut\Seeding\Mekong Delta\1989-The Principle Of Doubt\1998-Zardoz Music [Germany, 2150053]\The Principle Of Doubt (Zardoz 1998).wav
     Peak level 96.6 %
     Extraction speed 8.0 X
     Range quality 99.9 %
     Test CRC 6A075DEF
     Copy CRC 6A075DEF
     Copy OK
No errors occurred
AccurateRip summary
Track  1  accurately ripped (confidence 2)  [69A54542]  (AR v1)
Track  2  accurately ripped (confidence 2)  [4F408549]  (AR v1)
Track  3  accurately ripped (confidence 2)  [11B39AA5]  (AR v1)
Track  4  accurately ripped (confidence 2)  [10DFA3D5]  (AR v1)
Track  5  accurately ripped (confidence 2)  [EF5C47A2]  (AR v1)
Track  6  accurately ripped (confidence 2)  [182616A3]  (AR v1)
Track  7  accurately ripped (confidence 2)  [8ADDAD2C]  (AR v1)
Track  8  accurately ripped (confidence 2)  [FCC49962]  (AR v1)
Track  9  accurately ripped (confidence 2)  [9F09B8B0]  (AR v1)
Track 10  accurately ripped (confidence 2)  [B69B2C10]  (AR v1)
All tracks accurately ripped
End of status report
==== Log checksum 99CBB2CFABEFBB40F8E2BD66DF0BE27C3EDA7A5E5FD8771B40E2D9F6C5046678 ====
Код:
REM GENRE "Progressive Thrash Metal"
REM DATE 1989
REM DISCID 8009A60A
REM COMMENT "ExactAudioCopy v1.0b4"
CATALOG 0000000000000
PERFORMER "Mekong Delta"
TITLE "The Principle Of Doubt (Zardoz 1998)"
FILE "The Principle Of Doubt (Zardoz 1998).wav" WAVE
  TRACK 01 AUDIO
    TITLE "A Question Of Trust"
    PERFORMER "Mekong Delta"
    INDEX 01 00:00:00
  TRACK 02 AUDIO
    TITLE "The Principle Of Doubt"
    PERFORMER "Mekong Delta"
    INDEX 00 03:32:36
    INDEX 01 03:34:36
  TRACK 03 AUDIO
    TITLE "Once I Believed"
    PERFORMER "Mekong Delta"
    INDEX 00 08:25:65
    INDEX 01 08:27:65
  TRACK 04 AUDIO
    TITLE "Ever Since Time Began"
    PERFORMER "Mekong Delta"
    INDEX 00 12:57:60
    INDEX 01 12:59:60
  TRACK 05 AUDIO
    TITLE "Curse Of Reality"
    PERFORMER "Mekong Delta"
    INDEX 00 17:33:43
    INDEX 01 17:35:43
  TRACK 06 AUDIO
    TITLE "Twilight Zone (Lord Fouls Hort)"
    PERFORMER "Mekong Delta"
    INDEX 00 22:13:34
    INDEX 01 22:15:34
  TRACK 07 AUDIO
    TITLE "Shades Of Doom"
    PERFORMER "Mekong Delta"
    INDEX 00 25:45:00
    INDEX 01 25:47:00
  TRACK 08 AUDIO
    TITLE "The Jester"
    PERFORMER "Mekong Delta"
    INDEX 00 30:04:51
    INDEX 01 30:06:51
  TRACK 09 AUDIO
    TITLE "El Colibrí"
    PERFORMER "Mekong Delta"
    INDEX 00 35:59:71
    INDEX 01 36:01:71
  TRACK 10 AUDIO
    TITLE "No Friend Of Mine"
    PERFORMER "Mekong Delta"
    INDEX 00 37:20:46
    INDEX 01 37:22:46
#777Лейбл: Aaarrg Records / Steamhammer Records / SPV GmbH
Страна-производитель диска: Германия
Год издания диска: 1989 / 2013
Номер по каталогу: SPV 265282 CD
Аудио идентично изданию ZARDOZ MUSIC 2150053.
#777Лейбл: Aaarrg Records / (SPV GmbH)
Страна-производитель диска: Австрия
Год издания диска: 1989
Номер по каталогу: AAARRG 17
Mekong Delta - 1989 - Toccata
01. Toccata (05:58)
02. Black Betty (02:52)
03. Interludium (2nd Version) (02:10)
Продолжительность: 00:11:01
Код:
Exact Audio Copy V1.0 beta 4 from 7. December 2014
EAC extraction logfile from 18. March 2015, 10:33
Mekong Delta / Toccata
Used drive  : LITE-ON DVDRW LH-20A1L   Adapter: 6  ID: 0
Read mode               : Secure
Utilize accurate stream : Yes
Defeat audio cache      : Yes
Make use of C2 pointers : No
Read offset correction                      : 6
Overread into Lead-In and Lead-Out          : No
Fill up missing offset samples with silence : Yes
Delete leading and trailing silent blocks   : No
Null samples used in CRC calculations       : Yes
Used interface                              : Installed external ASPI interface
Used output format : Internal WAV Routines
Sample format      : 44.100 Hz; 16 Bit; Stereo
TOC of the extracted CD
     Track |   Start  |  Length  | Start sector | End sector
    ---------------------------------------------------------
        1  |  0:00.00 |  6:01.07 |         0    |    27081
        2  |  6:01.07 |  2:52.05 |     27082    |    39986
        3  |  8:53.12 |  2:07.50 |     39987    |    49561
Range status and errors
Selected range
     Filename Z:\data\hexonut\Seeding\Mekong Delta\1988-Toccata\Toccata.wav
     Peak level 100.0 %
     Extraction speed 2.1 X
     Range quality 100.0 %
     Test CRC 7B9D0245
     Copy CRC 7B9D0245
     Copy OK
No errors occurred
AccurateRip summary
Track  1  accurately ripped (confidence 5)  [EA8902D6]  (AR v2)
Track  2  accurately ripped (confidence 5)  [D4AF091C]  (AR v2)
Track  3  accurately ripped (confidence 5)  [C4CF3E22]  (AR v2)
All tracks accurately ripped
End of status report
==== Log checksum BCB8FAAEDC9670C3FF4A0F4B86CED9E4274440CC65D25F0F39368E9AF8E2275B ====
Код:
REM GENRE "Heavy Metal"
REM DATE 1989
REM DISCID 1B029403
REM COMMENT "ExactAudioCopy v1.0b4"
PERFORMER "Mekong Delta"
TITLE "Toccata"
FILE "Toccata.wav" WAVE
  TRACK 01 AUDIO
    TITLE "Toccata"
    PERFORMER "Mekong Delta"
    INDEX 01 00:00:00
  TRACK 02 AUDIO
    TITLE "Black Betty"
    PERFORMER "Mekong Delta"
    INDEX 00 05:58:17
    INDEX 01 06:01:07
  TRACK 03 AUDIO
    TITLE "Interludium (2nd Version)"
    PERFORMER "Mekong Delta"
    INDEX 00 08:50:45
    INDEX 01 08:53:12
#777Лейбл: Aaarrg Records / Major Records / Zardoz Musikverlag / Neue Welt Musikverlag
Страна-производитель диска: Австрия
Год издания диска: 1990
Номер по каталогу: AAARRG 23/034-2
Mekong Delta - 1990 - Dances Of Death
01. Dances Of Death (Introduction) (01:11)
02. Eruption (01:35)
03. Beyond the Gates (04:52)
04. Outburst (01:19)
05. Days Of Betrayal (04:14)
06. Restless (00:53)
07. Sanctuary (03:00)
08. Finale (02:07)
09. Transgressor (03:17)
10. True Believers (05:25)
11. Night On The Bare Mountain (10:24)
Продолжительность: 00:38:19
Код:
Exact Audio Copy V1.0 beta 3 from 29. August 2011
EAC extraction logfile from 10. January 2012, 10:30
Mekong Delta / Dances Of Death
Used drive  : PLEXTOR DVDR   PX-760A   Adapter: 0  ID: 1
Read mode               : Secure
Utilize accurate stream : Yes
Defeat audio cache      : Yes
Make use of C2 pointers : No
Read offset correction                      : 30
Overread into Lead-In and Lead-Out          : Yes
Fill up missing offset samples with silence : Yes
Delete leading and trailing silent blocks   : No
Null samples used in CRC calculations       : Yes
Used interface                              : Installed external ASPI interface
Used output format : Internal WAV Routines
Sample format      : 44.100 Hz; 16 Bit; Stereo
TOC of the extracted CD
     Track |   Start  |  Length  | Start sector | End sector
    ---------------------------------------------------------
        1  |  0:00.00 |  1:11.25 |         0    |     5349
        2  |  1:11.25 |  1:34.45 |      5350    |    12444
        3  |  2:45.70 |  4:52.32 |     12445    |    34376
        4  |  7:38.27 |  1:19.08 |     34377    |    40309
        5  |  8:57.35 |  4:14.30 |     40310    |    59389
        6  | 13:11.65 |  0:53.07 |     59390    |    63371
        7  | 14:04.72 |  3:00.05 |     63372    |    76876
        8  | 17:05.02 |  2:06.40 |     76877    |    86366
        9  | 19:11.42 |  3:17.33 |     86367    |   101174
       10  | 22:29.00 |  5:25.32 |    101175    |   125581
       11  | 27:54.32 | 10:24.33 |    125582    |   172414
Range status and errors
Selected range
     Filename Z:\data2\Seeding Archive\Mekong Delta\1990-Dances Of Death (And Other Walking Shadows)\Dances Of Death.wav
     Peak level 92.9 %
     Extraction speed 7.3 X
     Range quality 100.0 %
     Test CRC AFDE29C3
     Copy CRC AFDE29C3
     Copy OK
No errors occurred
AccurateRip summary
Track  1  accurately ripped (confidence 13)  [6C6D5D43]  (AR v1)
Track  2  accurately ripped (confidence 12)  [BF6FAE9F]  (AR v1)
Track  3  accurately ripped (confidence 13)  [DBA7F762]  (AR v1)
Track  4  accurately ripped (confidence 13)  [1FC6C369]  (AR v1)
Track  5  accurately ripped (confidence 13)  [579E2332]  (AR v1)
Track  6  accurately ripped (confidence 13)  [EC473ED8]  (AR v1)
Track  7  accurately ripped (confidence 13)  [65669275]  (AR v1)
Track  8  accurately ripped (confidence 13)  [9F1D4CE2]  (AR v1)
Track  9  accurately ripped (confidence 13)  [5D7F34AC]  (AR v1)
Track 10  accurately ripped (confidence 13)  [5084747A]  (AR v1)
Track 11  accurately ripped (confidence 13)  [9794A44F]  (AR v1)
All tracks accurately ripped
End of status report
==== Log checksum AF65F3323360C90217E9574287890FCBB8DFDCE15CA18585F3175235914EC038 ====
Код:
REM GENRE "Progressive Metal"
REM DATE 1990
REM DISCID 8C08FA0B
REM COMMENT "ExactAudioCopy v1.0b3"
PERFORMER "Mekong Delta"
TITLE "Dances Of Death"
FILE "Dances Of Death.wav" WAVE
  TRACK 01 AUDIO
    TITLE "Dances Of Death (Introduction)"
    PERFORMER "Mekong Delta"
    INDEX 01 00:00:00
  TRACK 02 AUDIO
    TITLE "Eruption"
    PERFORMER "Mekong Delta"
    INDEX 00 01:11:22
    INDEX 01 01:11:25
  TRACK 03 AUDIO
    TITLE "Beyond the Gates"
    PERFORMER "Mekong Delta"
    INDEX 00 02:45:67
    INDEX 01 02:45:70
  TRACK 04 AUDIO
    TITLE "Outburst"
    PERFORMER "Mekong Delta"
    INDEX 00 07:38:25
    INDEX 01 07:38:27
  TRACK 05 AUDIO
    TITLE "Days Of Betrayal"
    PERFORMER "Mekong Delta"
    INDEX 00 08:57:32
    INDEX 01 08:57:35
  TRACK 06 AUDIO
    TITLE "Restless"
    PERFORMER "Mekong Delta"
    INDEX 00 13:11:62
    INDEX 01 13:11:65
  TRACK 07 AUDIO
    TITLE "Sanctuary"
    PERFORMER "Mekong Delta"
    INDEX 00 14:04:70
    INDEX 01 14:04:72
  TRACK 08 AUDIO
    TITLE "Finale"
    PERFORMER "Mekong Delta"
    INDEX 00 17:05:00
    INDEX 01 17:05:02
  TRACK 09 AUDIO
    TITLE "Transgressor"
    PERFORMER "Mekong Delta"
    INDEX 00 19:11:40
    INDEX 01 19:11:42
  TRACK 10 AUDIO
    TITLE "True Believers"
    PERFORMER "Mekong Delta"
    INDEX 00 22:28:72
    INDEX 01 22:29:00
  TRACK 11 AUDIO
    TITLE "Night On The Bare Mountain"
    PERFORMER "Mekong Delta"
    INDEX 00 27:54:30
    INDEX 01 27:54:32
#777Лейбл: Aaarrg Records / Metal Mania / Teichiku Records / Zardoz Musikverlag / Neue Welt Musikverlag
Страна-производитель диска: Япония
Год издания диска: 1990 / 1991
Номер по каталогу: TECP-25592
Mekong Delta - 1990 - Dances Of Death [Japan]
01. Dances Of Death (19:10)
02. Transgressor (03:18)
03. True Believers (05:25)
04. Night On A Bare Mountain (10:24)
Продолжительность: 00:38:18
Код:
Exact Audio Copy V1.0 beta 4 from 7. December 2014
EAC extraction logfile from 30. March 2015, 19:55
Mekong Delta / Dances Of Death [Japan]
Used drive  : PLEXTOR CD-R   PX-240A   Adapter: 0  ID: 0
Read mode               : Secure
Utilize accurate stream : Yes
Defeat audio cache      : Yes
Make use of C2 pointers : No
Read offset correction                      : 6
Overread into Lead-In and Lead-Out          : No
Fill up missing offset samples with silence : Yes
Delete leading and trailing silent blocks   : No
Null samples used in CRC calculations       : Yes
Used interface                              : Installed external ASPI interface
Used output format : Internal WAV Routines
Sample format      : 44.100 Hz; 16 Bit; Stereo
TOC of the extracted CD
     Track |   Start  |  Length  | Start sector | End sector
    ---------------------------------------------------------
        1  |  0:00.00 | 19:11.05 |         0    |    86329
        2  | 19:11.05 |  3:17.42 |     86330    |   101146
        3  | 22:28.47 |  5:25.33 |    101147    |   125554
        4  | 27:54.05 | 10:24.00 |    125555    |   172354
Range status and errors
Selected range
     Filename Z:\data\hexonut\Seeding\Mekong Delta\1990-Dances Of Death (And Other Walking Shadows)\1990-Teichiku Records [Japan, TECP-25592]\Dances Of Death (Japan).wav
     Peak level 97.2 %
     Extraction speed 7.8 X
     Range quality 99.9 %
     Test CRC 15116588
     Copy CRC 15116588
     Copy OK
No errors occurred
AccurateRip summary
Track  1  accurately ripped (confidence 2)  [AA4FEA93]  (AR v2)
Track  2  accurately ripped (confidence 2)  [5CECF94B]  (AR v2)
Track  3  accurately ripped (confidence 2)  [667B20DA]  (AR v2)
Track  4  accurately ripped (confidence 2)  [9788B482]  (AR v2)
All tracks accurately ripped
End of status report
==== Log checksum 2147E2A73068CF364B54C0C47A8914D5052B6B0D63505204B5B08373B89F432C ====
Код:
REM GENRE Rock
REM DATE 1990
REM DISCID 2908FA04
REM COMMENT "ExactAudioCopy v1.0b4"
PERFORMER "Mekong Delta"
TITLE "Dances Of Death [Japan]"
FILE "Dances Of Death (Japan).wav" WAVE
  TRACK 01 AUDIO
    TITLE "Dances Of Death"
    PERFORMER "Mekong Delta"
    INDEX 01 00:00:00
  TRACK 02 AUDIO
    TITLE "Transgressor"
    PERFORMER "Mekong Delta"
    INDEX 00 19:10:35
    INDEX 01 19:11:05
  TRACK 03 AUDIO
    TITLE "True Believers"
    PERFORMER "Mekong Delta"
    INDEX 01 22:28:47
  TRACK 04 AUDIO
    TITLE "Night On A Bare Mountain"
    PERFORMER "Mekong Delta"
    INDEX 01 27:54:05
#777Лейбл: Zardoz Music / Intercord Tonträger GmbH
Страна-производитель диска: Германия
Год издания диска: 1990 / 1998
Номер по каталогу: ZARDOZ MUSIC 9724 / Nr. 2150054
Mekong Delta - 1990 - Dances Of Death (And Other Walking Shadows) (Zardoz 1998)
01. Dances Of Death (19:44)
02. Transgressor (03:26)
03. True Believers (05:32)
04. Night On A Bare Mountain (Instrumental) (10:40)
05. The Gnom (Bonus Track) (02:58)
Продолжительность: 00:42:19
Код:
Exact Audio Copy V1.0 beta 4 from 7. December 2014
EAC extraction logfile from 20. March 2015, 12:46
Mekong Delta / Dances Of Death (And Other Walking Shadows) (Zardoz 1998)
Used drive  : LITE-ON DVDRW LH-20A1L   Adapter: 5  ID: 0
Read mode               : Secure
Utilize accurate stream : Yes
Defeat audio cache      : Yes
Make use of C2 pointers : No
Read offset correction                      : 6
Overread into Lead-In and Lead-Out          : No
Fill up missing offset samples with silence : Yes
Delete leading and trailing silent blocks   : No
Null samples used in CRC calculations       : Yes
Used interface                              : Installed external ASPI interface
Used output format : Internal WAV Routines
Sample format      : 44.100 Hz; 16 Bit; Stereo
TOC of the extracted CD
     Track |   Start  |  Length  | Start sector | End sector
    ---------------------------------------------------------
        1  |  0:00.00 | 19:44.56 |         0    |    88855
        2  | 19:44.56 |  3:24.49 |     88856    |   104204
        3  | 23:09.30 |  5:32.57 |    104205    |   129161
        4  | 28:42.12 | 10:42.28 |    129162    |   177339
        5  | 39:24.40 |  2:54.70 |    177340    |   190459
Range status and errors
Selected range
     Filename Z:\data\hexonut\Seeding\Mekong Delta\1990-Dances Of Death (And Other Walking Shadows)\1998-Zardoz Music [Germany, 2150054]\Dances Of Death (Zardoz 1998).wav
     Peak level 96.6 %
     Extraction speed 8.0 X
     Range quality 99.9 %
     Test CRC 2FD6973F
     Copy CRC 2FD6973F
     Copy OK
No errors occurred
AccurateRip summary
Track  1  accurately ripped (confidence 2)  [8D39FA67]  (AR v2)
Track  2  accurately ripped (confidence 2)  [8B0A915A]  (AR v2)
Track  3  accurately ripped (confidence 2)  [DF073F9E]  (AR v2)
Track  4  accurately ripped (confidence 2)  [77688CAE]  (AR v2)
Track  5  accurately ripped (confidence 2)  [C491269A]  (AR v2)
All tracks accurately ripped
End of status report
==== Log checksum FAFEC54571A863F7B234E9E6D5B1220464EF3F965286878591B923BA6C76BF31 ====
Код:
REM GENRE "Progressive Thrash Metal"
REM DATE 1990
REM DISCID 3F09EB05
REM COMMENT "ExactAudioCopy v1.0b4"
CATALOG 0000000000000
PERFORMER "Mekong Delta"
TITLE "Dances Of Death (And Other Walking Shadows) (Zardoz 1998)"
FILE "Dances Of Death (Zardoz 1998).wav" WAVE
  TRACK 01 AUDIO
    TITLE "Dances Of Death"
    PERFORMER "Mekong Delta"
    INDEX 01 00:00:00
  TRACK 02 AUDIO
    TITLE "Transgressor"
    PERFORMER "Mekong Delta"
    INDEX 00 19:43:56
    INDEX 01 19:44:56
  TRACK 03 AUDIO
    TITLE "True Believers"
    PERFORMER "Mekong Delta"
    INDEX 01 23:09:30
  TRACK 04 AUDIO
    TITLE "Night On A Bare Mountain (Instrumental)"
    PERFORMER "Mekong Delta"
    INDEX 00 28:41:12
    INDEX 01 28:42:12
  TRACK 05 AUDIO
    TITLE "The Gnom (Bonus Track)"
    PERFORMER "Mekong Delta"
    INDEX 00 39:21:40
    INDEX 01 39:24:40
#777Лейбл: Aaarrg Records / Steamhammer Records / SPV GmbH
Страна-производитель диска: Германия
Год издания диска: 1990 / 2013
Номер по каталогу: SPV 265292 CD
Mekong Delta - 1990 - Dances Of Death (Steamhammer 2013)
01. Dances Of Death (19:43)
02. Transgressor (03:27)
03. True Believers (05:34)
04. Night On A Bare Mountain (10:41)
Продолжительность: 00:39:25
Код:
Exact Audio Copy V1.0 beta 4 from 7. December 2014
EAC extraction logfile from 11. March 2015, 23:00
Mekong Delta / Danes Of Death (Steamhammer 2013)
Used drive  : LITE-ON DVDRW LH-20A1L   Adapter: 6  ID: 0
Read mode               : Secure
Utilize accurate stream : Yes
Defeat audio cache      : Yes
Make use of C2 pointers : No
Read offset correction                      : 6
Overread into Lead-In and Lead-Out          : No
Fill up missing offset samples with silence : Yes
Delete leading and trailing silent blocks   : No
Null samples used in CRC calculations       : Yes
Used interface                              : Installed external ASPI interface
Used output format : Internal WAV Routines
Sample format      : 44.100 Hz; 16 Bit; Stereo
TOC of the extracted CD
     Track |   Start  |  Length  | Start sector | End sector
    ---------------------------------------------------------
        1  |  0:00.00 | 19:45.07 |         0    |    88881
        2  | 19:45.07 |  3:26.52 |     88882    |   104383
        3  | 23:11.59 |  5:33.56 |    104384    |   129414
        4  | 28:45.40 | 10:39.23 |    129415    |   177362
Range status and errors
Selected range
     Filename Z:\data\hexonut\Seeding\Mekong Delta\1990-Dances Of Death (And Other Walking Shadows)\2013-Steamhammer [Germany, SPV 265292 CD]\Danes Of Death (Steamhammer 2013).wav
     Peak level 96.6 %
     Extraction speed 8.3 X
     Range quality 99.9 %
     Test CRC CD9B6110
     Copy CRC CD9B6110
     Copy OK
No errors occurred
AccurateRip summary
Track  1  cannot be verified as accurate (confidence 1)  [1A84AF26], AccurateRip returned [D35AE6EE]  (AR v2)
Track  2  cannot be verified as accurate (confidence 1)  [E3449746], AccurateRip returned [91F9C001]  (AR v2)
Track  3  cannot be verified as accurate (confidence 1)  [90216055], AccurateRip returned [E86AF12D]  (AR v2)
Track  4  cannot be verified as accurate (confidence 1)  [41425CC8], AccurateRip returned [6987C775]  (AR v2)
No tracks could be verified as accurate
You may have a different pressing from the one(s) in the database
End of status report
==== Log checksum 80F0220BB0EB02CC68F2A87407E99146F358D6E03B56E1EB987A35F4C55276D0 ====
Код:
REM GENRE Metal
REM DATE 1990
REM DISCID 34093C04
REM COMMENT "ExactAudioCopy v1.0b4"
PERFORMER "Mekong Delta"
TITLE "Dances Of Death (Steamhammer 2013)"
FILE "Dances Of Death (Steamhammer 2013).wav" WAVE
  TRACK 01 AUDIO
    TITLE "Dances Of Death"
    PERFORMER "Mekong Delta"
    ISRC DEA451301820
    INDEX 01 00:00:00
  TRACK 02 AUDIO
    TITLE "Transgressor"
    PERFORMER "Mekong Delta"
    ISRC DEA451301910
    INDEX 00 19:43:07
    INDEX 01 19:45:07
  TRACK 03 AUDIO
    TITLE "True Believers"
    PERFORMER "Mekong Delta"
    ISRC DEA451301920
    INDEX 00 23:09:59
    INDEX 01 23:11:59
  TRACK 04 AUDIO
    TITLE "Night On A Bare Mountain"
    PERFORMER "Mekong Delta"
    ISRC DEA451301930
    INDEX 00 28:43:40
    INDEX 01 28:45:40
Правила, инструкции, FAQ!!!
Торрент  Добавлен [27 мар 2021, 08:53] Скачать торрент Магнет ссылка
Скачать торрент
[ Размер 957.97 КБ / Просмотров 2 ]

Статус
Проверен 
 
Размер  17.18 ГБ
Приватный: Нет (DHT включён)
.torrent скачан  0
 


     Отправить личное сообщение
   
Страница 1 из 1
Показать сообщения за:  Поле сортировки  
Начать новую тему Ответить на тему


Сейчас этот форум просматривают: нет зарегистрированных пользователей и гости: 0


Вы не можете начинать темы
Вы не можете отвечать на сообщения
Вы не можете редактировать свои сообщения
Вы не можете удалять свои сообщения
Вы не можете добавлять вложения

Перейти:  
cron