Начать новую тему Ответить на тему
Статистика раздачи
Размер: 314.97 МБ | Добавлен: 26 мар 2019, 19:25 | Скачали: 0
Сидеров: 0  [0 байт/сек]    Личеров: 0  [0 байт/сек]
Пред. тема | След. тема 

Автор
Сообщение

СообщениеДобавлено: 26 мар 2019, 19:25 

Ответить с цитатой 

Rebecca St. James -1991 - Refresh My Heart
Жанр: Praise & Worship / Rock / Soul / Pop
Носитель: CD
Страна-производитель диска (релиза): Australia
Год издания: 1991
Издатель (лейбл): Not On Label
Номер по каталогу: none
Страна исполнителя (группы): Australia
Аудиокодек: FLAC (*.flac)
Тип рипа: image+.cue
Битрейт аудио: lossless
Продолжительность: 54:51
Источник (релизер): собственный рип
Наличие сканов в содержимом раздачи: да
Треклист:
01 - I Am Your Child (4:48)
02 - The Rock Medley (The Power Of God / God Didn't Gave Me A Spirit Of Fear / As The Coming Of The Lord) (7:13)
03 - Show Your Glory (4:38)
04 - Blessing, Honour (4:25)
05 - We Will Not Bow To The World (3:48)
06 - Refresh My Heart (3:25)
07 - Soul Medley (The Enemy's Defeated / I Am Not Ashamed / I Walk By Faith) (7:13)
08 - Children Of The King (3:59)
09 - I Will Lift My Voice (6:38)
10 - And We Behold Him (3:08)
11 - Who Is He (4:58)
12 - Refresh My Heart (Reprise) (0:22)
Код:
Exact Audio Copy V1.3 from 2. September 2016
Отчёт EAC об извлечении, выполненном 2. декабря 2016, 22:35
Rebecca St. James / Refresh My Heart
Дисковод: Optiarc DVD RW AD-7200S   Adapter: 1  ID: 0
Режим чтения                 : Достоверность
Использование точного потока : Да
Отключение кэша аудио        : Да
Использование указателей C2  : Нет
Коррекция смещения при чтении                     : 48
Способность читать области Lead-in и Lead-out     : Нет
Заполнение пропущенных сэмплов тишиной            : Да
Удаление блоков с тишиной в начале и конце        : Нет
При вычислениях CRC использовались нулевые сэмплы : Да
Интерфейс                                         : Встроенный Win32-интерфейс для Win NT/2000
Выходной формат          : Пользовательский кодировщик
Выбранный битрейт        : 896 kBit/s
Качество                 : Высокий
Добавление ID3-тега      : Да
Утилита сжатия           : C:\Program Files (x86)\Exact Audio Copy\Flac\flac.exe
Дополнительные параметры : -V -5 -T "Date=%year%" -T "Genre=%genre%" %source%
TOC извлечённого CD
     Трек |   Старт  | Длительность | Начальный сектор | Конечный сектор
    ---------------------------------------------------------------------
       1  |  0:00.00 |    4:51.17   |           0      |      21841
       2  |  4:51.17 |    7:15.35   |       21842      |      54501
       3  | 12:06.52 |    4:38.25   |       54502      |      75376
       4  | 16:45.02 |    4:26.68   |       75377      |      95394
       5  | 21:11.70 |    3:49.47   |       95395      |     112616
       6  | 25:01.42 |    3:25.30   |      112617      |     128021
       7  | 28:26.72 |    7:13.65   |      128022      |     160561
       8  | 35:40.62 |    4:01.05   |      160562      |     178641
       9  | 39:41.67 |    6:39.73   |      178642      |     208639
      10  | 46:21.65 |    3:07.45   |      208640      |     222709
      11  | 49:29.35 |    4:58.70   |      222710      |     245129
      12  | 54:28.30 |    0:22.12   |      245130      |     246791
Характеристики диапазона извлечения и сообщения об ошибках
Выбранный диапазон
     Имя файла D:\Music\Rebecca St. James - Refresh My Heart.wav
     Пиковый уровень 97.9 %
     Скорость извлечения 1.1 X
     Качество диапазона 99.9 %
     CRC теста 1CBE2EBB
     CRC копии 1CBE2EBB
     Копирование... OK
Ошибок не произошло
Конец отчёта
---- CUETools DB Plugin V2.1.6
[CTDB TOCID: iCYJFx1H.ItXk0a8reRwXAnHMDI-] found
Submit result: iCYJFx1H.ItXk0a8reRwXAnHMDI- has been confirmed
Track | CTDB Status
  1   | (3/3) Accurately ripped
  2   | (3/3) Accurately ripped
  3   | (3/3) Accurately ripped
  4   | (3/3) Accurately ripped
  5   | (3/3) Accurately ripped
  6   | (3/3) Accurately ripped
  7   | (3/3) Accurately ripped
  8   | (3/3) Accurately ripped
  9   | (3/3) Accurately ripped
 10   | (2/3) Accurately ripped
 11   | (3/3) Accurately ripped
 12   | (3/3) Accurately ripped
==== Контрольная сумма отчёта 69E35E6815BAAC27D7334CC489B1A6EC052F003627805E02EA0F6A54C72F1722 ====
Код:
REM GENRE "Praise & Worship"
REM DATE 1991
REM DISCID 9B0CDA0C
REM COMMENT "ExactAudioCopy v1.3"
PERFORMER "Rebecca St. James"
TITLE "Refresh My Heart"
FILE "Rebecca St. James - 1991 - Refresh My Heart.flac" WAVE
  TRACK 01 AUDIO
    TITLE "I Am Your Child"
    PERFORMER "Rebecca St. James"
    INDEX 01 00:00:00
  TRACK 02 AUDIO
    TITLE "The Rock Medley (The Power Of God / God Didn't Gave Me A Spirit Of Fear / As The Coming Of The Lord)"
    PERFORMER "Rebecca St. James"
    INDEX 00 04:49:50
    INDEX 01 04:51:17
  TRACK 03 AUDIO
    TITLE "Show Your Glory"
    PERFORMER "Rebecca St. James"
    INDEX 00 12:04:32
    INDEX 01 12:06:52
  TRACK 04 AUDIO
    TITLE "Blessing, Honour"
    PERFORMER "Rebecca St. James"
    INDEX 01 16:45:02
  TRACK 05 AUDIO
    TITLE "We Will Not Bow To The World"
    PERFORMER "Rebecca St. James"
    INDEX 00 21:10:60
    INDEX 01 21:11:70
  TRACK 06 AUDIO
    TITLE "Refresh My Heart"
    PERFORMER "Rebecca St. James"
    INDEX 00 25:00:05
    INDEX 01 25:01:42
  TRACK 07 AUDIO
    TITLE "Soul Medley (The Enemy's Defeated / I Am Not Ashamed / I Walk By Faith)"
    PERFORMER "Rebecca St. James"
    INDEX 01 28:26:72
  TRACK 08 AUDIO
    TITLE "Children Of The King"
    PERFORMER "Rebecca St. James"
    INDEX 01 35:40:62
  TRACK 09 AUDIO
    TITLE "I Will Lift My Voice"
    PERFORMER "Rebecca St. James"
    INDEX 00 39:40:22
    INDEX 01 39:41:67
  TRACK 10 AUDIO
    TITLE "And We Behold Him"
    PERFORMER "Rebecca St. James"
    INDEX 00 46:20:37
    INDEX 01 46:21:65
  TRACK 11 AUDIO
    TITLE "Who Is He"
    PERFORMER "Rebecca St. James"
    INDEX 01 49:29:35
  TRACK 12 AUDIO
    TITLE "Refresh My Heart (Reprise)"
    PERFORMER "Rebecca St. James"
    INDEX 01 54:28:30
Код:
AUDIOCHECKER v2.0 beta (build 457) - by Dester - opdester@freemail.hu
~~~~~~~~~~~~~~~~~~~~~~~~~~~~~~~~~~
-=== DO NOT EDIT THIS FILE! ===-
Path: ...\Rebecca St. James - 1991 - Refresh My Heart
1 -=- Rebecca St. James - 1991 - Refresh My Heart.flac -=- CDDA (100%)
135377044
Доп. информация: Диск приобретён на https://www.soundmass.com .
Это австралийский интернет-магазин, занимающийся продажей редких записей христианских исполнителей (в основном прошлых лет) на компактах и виниле, а также некоторой атрибутики и сувенирной продукции - в общем всего, чего нынче уже почти нигде больше и не сыщешь.
Сам диск скорее всего является переизданием оригинальной записи, которая в год выпуска выходила на кассете.
https://www.discogs.com/Rebecca-St-James-Refresh-My-Heart/master/1080928
Это её первый альбом, который она записала ещё в возрасте тринадцати лет под именем Rebecca Jean.
Правила, инструкции, FAQ!!!
Торрент  Добавлен [26 мар 2019, 19:25] Скачать торрент Магнет ссылка
Скачать торрент
[ Размер 13.29 КБ / Просмотров 4 ]

Статус
Проверен 
 
Размер  314.97 МБ
Приватный: Нет (DHT включён)
.torrent скачан  0
 


     Отправить личное сообщение
   
Страница 1 из 1
Показать сообщения за:  Поле сортировки  
Начать новую тему Ответить на тему


Сейчас этот форум просматривают: нет зарегистрированных пользователей и гости: 0


Вы не можете начинать темы
Вы не можете отвечать на сообщения
Вы не можете редактировать свои сообщения
Вы не можете удалять свои сообщения
Вы не можете добавлять вложения

Перейти:  
cron