Начать новую тему Ответить на тему
Статистика раздачи
Размер: 364.8 МБ | Добавлен: 15 май 2020, 16:39 | Скачали: 0
Сидеров: 0  [0 байт/сек]    Личеров: 0  [0 байт/сек]
Пред. тема | След. тема 

Автор
Сообщение

СообщениеДобавлено: 15 май 2020, 16:39 

Ответить с цитатой 

The Plimsouls / Live! Beg, Borrow & Steal (October 31, 1981 Whiskey A Go Go)
Жанр: Power Pop
Носитель: CD
Страна-производитель диска (релиза): U.S.A.
Год издания: 2010
Издатель (лейбл): Alive Records
Номер по каталогу: Alive Records
Страна исполнителя (группы): U.S.A.
Аудиокодек: FLAC (*.flac)
Тип рипа: image+.cue
Продолжительность: 00:53:53
Источник: собственный рип
Наличие сканов в содержимом раздачи: да
Треклист:
01. Hush Hush
02. Shaky City
03. Lost Time
04. Inch By Inch
05. Sorry
06. Now
07. Women
08. A Million Miles Away
09. I'll Get Lucky
10. Zero Hour
11. I Want You Back
12. Everyday Things
13. Jump Jive & Harmonize
14. Come On Now
15. Dizzy Miss Lizzy
16. New Orleans
17. Hey! Hey! Hey! Hey!
18. Run Run Run/Who Do You Love?
Код:
Exact Audio Copy V1.5 from 20. February 2020
EAC extraction logfile from 4. May 2020, 17:15
The Plimsouls / Live! Beg, Borrow & Steal (October 31, 1981 Whiskey A Go Go)
Used drive  : ASUS    BW-16D1H-U   Adapter: 1  ID: 0
Read mode               : Secure
Utilize accurate stream : Yes
Defeat audio cache      : Yes
Make use of C2 pointers : No
Read offset correction                      : 6
Overread into Lead-In and Lead-Out          : No
Fill up missing offset samples with silence : Yes
Delete leading and trailing silent blocks   : No
Null samples used in CRC calculations       : Yes
Used interface                              : Native Win32 interface for Win NT & 2000
Used output format              : User Defined Encoder
Selected bitrate                : 768 kBit/s
Quality                         : High
Add ID3 tag                     : No
Command line compressor         : C:\Program Files (x86)\Exact Audio Copy\FLAC\FLAC.EXE
Additional command line options : -8 -V -T "TITLE=%title%" -T "ARTIST=%artist%" -T "ALBUMARTIST=%albumartist%" -T "ALBUM=%albumtitle%" -T "DATE=%year%" -T "TRACKNUMBER=%tracknr%" -T "TRACKTOTAL=%numtracks%" -T "GENRE=%genre%" -T "COMMENT=%comment%" -T "PERFORMER=%albuminterpret%" -T "COMPOSER=%composer%" %source% -o %dest%
TOC of the extracted CD
     Track |   Start  |  Length  | Start sector | End sector
    ---------------------------------------------------------
        1  |  0:00.00 |  2:44.13 |         0    |    12312
        2  |  2:44.13 |  2:46.54 |     12313    |    24816
        3  |  5:30.67 |  3:25.69 |     24817    |    40260
        4  |  8:56.61 |  2:30.28 |     40261    |    51538
        5  | 11:27.14 |  2:15.25 |     51539    |    61688
        6  | 13:42.39 |  2:58.13 |     61689    |    75051
        7  | 16:40.52 |  3:12.09 |     75052    |    89460
        8  | 19:52.61 |  3:32.51 |     89461    |   105411
        9  | 23:25.37 |  2:40.11 |    105412    |   117422
       10  | 26:05.48 |  2:41.52 |    117423    |   129549
       11  | 28:47.25 |  2:27.72 |    129550    |   140646
       12  | 31:15.22 |  2:18.11 |    140647    |   151007
       13  | 33:33.33 |  2:43.24 |    151008    |   163256
       14  | 36:16.57 |  3:47.34 |    163257    |   180315
       15  | 40:04.16 |  2:50.20 |    180316    |   193085
       16  | 42:54.36 |  3:27.35 |    193086    |   208645
       17  | 46:21.71 |  2:54.33 |    208646    |   221728
       18  | 49:16.29 |  4:37.27 |    221729    |   242530
Range status and errors
Selected range
     Filename H:\The Plimsouls - Live! Beg, Borrow & Steal (October 31, 1981 Whiskey A Go Go) (2010)\The Plimsouls - Live! Beg, Borrow & Steal (October 31, 1981 Whiskey A Go Go).wav
     Peak level 100.0 %
     Extraction speed 7.2 X
     Range quality 100.0 %
     Test CRC 590E8627
     Copy CRC 590E8627
     Copy OK
No errors occurred
AccurateRip summary
Track  1  accurately ripped (confidence 8)  [06960B9A]  (AR v2)
Track  2  accurately ripped (confidence 8)  [E5072981]  (AR v2)
Track  3  accurately ripped (confidence 8)  [35ED0AEB]  (AR v2)
Track  4  accurately ripped (confidence 8)  [16DFBC7E]  (AR v2)
Track  5  accurately ripped (confidence 8)  [EC99B512]  (AR v2)
Track  6  accurately ripped (confidence 8)  [856D3282]  (AR v2)
Track  7  accurately ripped (confidence 8)  [7D9A3C56]  (AR v2)
Track  8  accurately ripped (confidence 8)  [AB55A912]  (AR v2)
Track  9  accurately ripped (confidence 8)  [169E986D]  (AR v2)
Track 10  accurately ripped (confidence 8)  [45558735]  (AR v2)
Track 11  accurately ripped (confidence 8)  [EA3733A6]  (AR v2)
Track 12  accurately ripped (confidence 8)  [13FAC3DF]  (AR v2)
Track 13  accurately ripped (confidence 8)  [4EE9C665]  (AR v2)
Track 14  accurately ripped (confidence 8)  [750E7A4F]  (AR v2)
Track 15  accurately ripped (confidence 8)  [2217D8E1]  (AR v2)
Track 16  accurately ripped (confidence 7)  [FA1B9A3D]  (AR v2)
Track 17  accurately ripped (confidence 8)  [3E333776]  (AR v2)
Track 18  accurately ripped (confidence 8)  [32F0CC5F]  (AR v2)
All tracks accurately ripped
End of status report
---- CUETools DB Plugin V2.1.6
[CTDB TOCID: GDdNbRXi6D6e4BrwfV2ysxGX9Wo-] found
Submit result: GDdNbRXi6D6e4BrwfV2ysxGX9Wo- has been confirmed
Track | CTDB Status
  1   | (12/12) Accurately ripped
  2   | (12/12) Accurately ripped
  3   | (12/12) Accurately ripped
  4   | (12/12) Accurately ripped
  5   | (12/12) Accurately ripped
  6   | (12/12) Accurately ripped
  7   | (12/12) Accurately ripped
  8   | (12/12) Accurately ripped
  9   | (12/12) Accurately ripped
 10   | (12/12) Accurately ripped
 11   | (12/12) Accurately ripped
 12   | (12/12) Accurately ripped
 13   | (12/12) Accurately ripped
 14   | (12/12) Accurately ripped
 15   | (12/12) Accurately ripped
 16   | (11/12) Accurately ripped
 17   | (12/12) Accurately ripped
 18   | (12/12) Accurately ripped
==== Log checksum E1248EE7492F0939CAF3EC406BDD3822F94DB9881742386E946EA541B7E35F85 ====
Код:
REM GENRE "Power Pop"
REM DATE 2010
REM DISCID 0E0CA112
REM COMMENT "ExactAudioCopy v1.5"
PERFORMER "The Plimsouls"
TITLE "Live! Beg, Borrow & Steal (October 31, 1981 Whiskey A Go Go)"
REM COMPOSER ""
FILE "The Plimsouls - Live! Beg, Borrow & Steal (October 31, 1981 Whiskey A Go Go).flac" WAVE
  TRACK 01 AUDIO
    TITLE "Hush Hush"
    PERFORMER "The Plimsouls"
    REM COMPOSER ""
    INDEX 01 00:00:00
  TRACK 02 AUDIO
    TITLE "Shaky City"
    PERFORMER "The Plimsouls"
    REM COMPOSER ""
    INDEX 01 02:44:13
  TRACK 03 AUDIO
    TITLE "Lost Time"
    PERFORMER "The Plimsouls"
    REM COMPOSER ""
    INDEX 01 05:30:67
  TRACK 04 AUDIO
    TITLE "Inch By Inch"
    PERFORMER "The Plimsouls"
    REM COMPOSER ""
    INDEX 01 08:56:61
  TRACK 05 AUDIO
    TITLE "Sorry"
    PERFORMER "The Plimsouls"
    REM COMPOSER ""
    INDEX 01 11:27:14
  TRACK 06 AUDIO
    TITLE "Now"
    PERFORMER "The Plimsouls"
    REM COMPOSER ""
    INDEX 01 13:42:39
  TRACK 07 AUDIO
    TITLE "Women"
    PERFORMER "The Plimsouls"
    REM COMPOSER ""
    INDEX 01 16:40:52
  TRACK 08 AUDIO
    TITLE "A Million Miles Away"
    PERFORMER "The Plimsouls"
    REM COMPOSER ""
    INDEX 01 19:52:61
  TRACK 09 AUDIO
    TITLE "I'll Get Lucky"
    PERFORMER "The Plimsouls"
    REM COMPOSER ""
    INDEX 01 23:25:37
  TRACK 10 AUDIO
    TITLE "Zero Hour"
    PERFORMER "The Plimsouls"
    REM COMPOSER ""
    INDEX 01 26:05:48
  TRACK 11 AUDIO
    TITLE "I Want You Back"
    PERFORMER "The Plimsouls"
    REM COMPOSER ""
    INDEX 01 28:47:25
  TRACK 12 AUDIO
    TITLE "Everyday Things"
    PERFORMER "The Plimsouls"
    REM COMPOSER ""
    INDEX 01 31:15:22
  TRACK 13 AUDIO
    TITLE "Jump Jive & Harmonize"
    PERFORMER "The Plimsouls"
    REM COMPOSER ""
    INDEX 01 33:33:33
  TRACK 14 AUDIO
    TITLE "Come On Now"
    PERFORMER "The Plimsouls"
    REM COMPOSER ""
    INDEX 01 36:16:57
  TRACK 15 AUDIO
    TITLE "Dizzy Miss Lizzy"
    PERFORMER "The Plimsouls"
    REM COMPOSER ""
    INDEX 01 40:04:16
  TRACK 16 AUDIO
    TITLE "New Orleans"
    PERFORMER "The Plimsouls"
    REM COMPOSER ""
    INDEX 01 42:54:36
  TRACK 17 AUDIO
    TITLE "Hey! Hey! Hey! Hey!"
    PERFORMER "The Plimsouls"
    REM COMPOSER ""
    INDEX 01 46:21:71
  TRACK 18 AUDIO
    TITLE "Run Run Run/Who Do You Love?"
    PERFORMER "The Plimsouls"
    REM COMPOSER ""
    INDEX 01 49:16:29
Правила, инструкции, FAQ!!!
Торрент  Добавлен [15 май 2020, 16:39] Скачать торрент Магнет ссылка
Скачать торрент
[ Размер 29.83 КБ / Просмотров 4 ]

Статус
Проверен 
 
Размер  364.8 МБ
Приватный: Нет (DHT включён)
.torrent скачан  0
 


     Отправить личное сообщение
   
Страница 1 из 1
Показать сообщения за:  Поле сортировки  
Начать новую тему Ответить на тему


Сейчас этот форум просматривают: нет зарегистрированных пользователей и гости: 0


Вы не можете начинать темы
Вы не можете отвечать на сообщения
Вы не можете редактировать свои сообщения
Вы не можете удалять свои сообщения
Вы не можете добавлять вложения

Перейти:  
cron