Начать новую тему Ответить на тему
Статистика раздачи
Размер: 265.45 МБ | Добавлен: 15 май 2020, 16:39 | Скачали: 0
Сидеров: 0  [0 байт/сек]    Личеров: 0  [0 байт/сек]
Пред. тема | След. тема 

Автор
Сообщение

СообщениеДобавлено: 15 май 2020, 16:39 

Ответить с цитатой 

The Plimsouls / Everywhere At Once (1983)
Жанр: Power Pop
Носитель: CD
Страна-производитель диска (релиза): U.S.A.
Год издания: 1992
Издатель (лейбл): Geffen Goldline/Geffen
Номер по каталогу: GEFD-24481
Страна исполнителя (группы): U.S.A.
Аудиокодек: FLAC (*.flac)
Тип рипа: image+.cue
Продолжительность: 00:37:40
Источник: собственный рип
Наличие сканов в содержимом раздачи: да
Треклист:
01. Shaky City
02. Magic Touch
03. Oldest Story in the World
04. Lie, Beg, Borrow and Steal
05. Play the Breaks
06. How Long Will It Take?
07. A Million Miles Away
08. My Life Isn't Easy
09. Inch by Inch
10. I'll Get Lucky
11. Everywhere at Once
12. Hobo
Код:
Exact Audio Copy V1.5 from 20. February 2020
EAC extraction logfile from 4. May 2020, 14:55
The Plimsouls / Everywhere At Once
Used drive  : ASUS    BW-16D1H-U   Adapter: 1  ID: 0
Read mode               : Secure
Utilize accurate stream : Yes
Defeat audio cache      : Yes
Make use of C2 pointers : No
Read offset correction                      : 6
Overread into Lead-In and Lead-Out          : No
Fill up missing offset samples with silence : Yes
Delete leading and trailing silent blocks   : No
Null samples used in CRC calculations       : Yes
Used interface                              : Native Win32 interface for Win NT & 2000
Used output format              : User Defined Encoder
Selected bitrate                : 768 kBit/s
Quality                         : High
Add ID3 tag                     : No
Command line compressor         : C:\Program Files (x86)\Exact Audio Copy\FLAC\FLAC.EXE
Additional command line options : -8 -V -T "TITLE=%title%" -T "ARTIST=%artist%" -T "ALBUMARTIST=%albumartist%" -T "ALBUM=%albumtitle%" -T "DATE=%year%" -T "TRACKNUMBER=%tracknr%" -T "TRACKTOTAL=%numtracks%" -T "GENRE=%genre%" -T "COMMENT=%comment%" -T "PERFORMER=%albuminterpret%" -T "COMPOSER=%composer%" %source% -o %dest%
TOC of the extracted CD
     Track |   Start  |  Length  | Start sector | End sector
    ---------------------------------------------------------
        1  |  0:00.00 |  2:37.47 |         0    |    11821
        2  |  2:37.47 |  3:10.10 |     11822    |    26081
        3  |  5:47.57 |  3:21.15 |     26082    |    41171
        4  |  9:08.72 |  2:46.03 |     41172    |    53624
        5  | 11:55.00 |  4:19.57 |     53625    |    73106
        6  | 16:14.57 |  2:31.63 |     73107    |    84494
        7  | 18:46.45 |  3:35.15 |     84495    |   100634
        8  | 22:21.60 |  2:37.17 |    100635    |   112426
        9  | 24:59.02 |  3:15.73 |    112427    |   127124
       10  | 28:15.00 |  2:43.05 |    127125    |   139354
       11  | 30:58.05 |  3:18.52 |    139355    |   154256
       12  | 34:16.57 |  3:23.28 |    154257    |   169509
Range status and errors
Selected range
     Filename H:\The Plimsouls - Everywhere At Once (1983) [1992]\The Plimsouls - Everywhere At Once.wav
     Peak level 100.0 %
     Extraction speed 1.7 X
     Range quality 100.0 %
     Test CRC FC9BF2B1
     Copy CRC FC9BF2B1
     Copy OK
No errors occurred
AccurateRip summary
Track  1  accurately ripped (confidence 30)  [11C90871]  (AR v2)
Track  2  accurately ripped (confidence 30)  [F063BE8F]  (AR v2)
Track  3  accurately ripped (confidence 30)  [46BE9222]  (AR v2)
Track  4  accurately ripped (confidence 30)  [F9567522]  (AR v2)
Track  5  accurately ripped (confidence 30)  [B17628BC]  (AR v2)
Track  6  accurately ripped (confidence 30)  [32ECE09A]  (AR v2)
Track  7  accurately ripped (confidence 30)  [0FE6AB33]  (AR v2)
Track  8  accurately ripped (confidence 31)  [A2A9A762]  (AR v2)
Track  9  accurately ripped (confidence 31)  [D2D03E95]  (AR v2)
Track 10  accurately ripped (confidence 31)  [66687FE5]  (AR v2)
Track 11  accurately ripped (confidence 31)  [2C739D2C]  (AR v2)
Track 12  accurately ripped (confidence 31)  [F30A5323]  (AR v2)
All tracks accurately ripped
End of status report
---- CUETools DB Plugin V2.1.6
[CTDB TOCID: 28dtburKXZR0ARkWgc7RpLeZpmk-] found
Submit result: 28dtburKXZR0ARkWgc7RpLeZpmk- has been confirmed
Track | CTDB Status
  1   | (46/46) Accurately ripped
  2   | (46/46) Accurately ripped
  3   | (39/46) Accurately ripped
  4   | (39/46) Accurately ripped
  5   | (46/46) Accurately ripped
  6   | (39/46) Accurately ripped
  7   | (46/46) Accurately ripped
  8   | (46/46) Accurately ripped
  9   | (46/46) Accurately ripped
 10   | (39/46) Accurately ripped
 11   | (46/46) Accurately ripped
 12   | (45/46) Accurately ripped
==== Log checksum 7355950990BB99F850E133A46920D3C0DE39381BB78E482402D1A0E464D0999A ====
Код:
REM GENRE "Power Pop"
REM DATE 1983
REM DISCID A308D40C
REM COMMENT "ExactAudioCopy v1.5"
PERFORMER "The Plimsouls"
TITLE "Everywhere At Once"
REM COMPOSER ""
FILE "The Plimsouls - Everywhere At Once.flac" WAVE
  TRACK 01 AUDIO
    TITLE "Shaky City"
    PERFORMER "The Plimsouls"
    REM COMPOSER "E. Munoz/P. Case"
    INDEX 01 00:00:00
  TRACK 02 AUDIO
    TITLE "Magic Touch"
    PERFORMER "The Plimsouls"
    REM COMPOSER "E. Munoz/P. Case"
    INDEX 01 02:37:47
  TRACK 03 AUDIO
    TITLE "Oldest Story in the World"
    PERFORMER "The Plimsouls"
    REM COMPOSER "Peter Case"
    INDEX 01 05:47:57
  TRACK 04 AUDIO
    TITLE "Lie, Beg, Borrow and Steal"
    PERFORMER "The Plimsouls"
    REM COMPOSER "Ronnie Weiss"
    INDEX 01 09:08:72
  TRACK 05 AUDIO
    TITLE "Play the Breaks"
    PERFORMER "The Plimsouls"
    REM COMPOSER "D. Pahoa/E. Munoz/J. Eyrich/L. Ramirez/P. Case"
    INDEX 01 11:55:00
  TRACK 06 AUDIO
    TITLE "How Long Will It Take?"
    PERFORMER "The Plimsouls"
    REM COMPOSER "Peter Case"
    INDEX 01 16:14:57
  TRACK 07 AUDIO
    TITLE "A Million Miles Away"
    PERFORMER "The Plimsouls"
    REM COMPOSER "C. Fradkin/J. Alkes/P. Case"
    INDEX 01 18:46:45
  TRACK 08 AUDIO
    TITLE "My Life Isn't Easy"
    PERFORMER "The Plimsouls"
    REM COMPOSER "D. Gordon/E. Grant/L. Gordon"
    INDEX 01 22:21:60
  TRACK 09 AUDIO
    TITLE "Inch by Inch"
    PERFORMER "The Plimsouls"
    REM COMPOSER "A. Williams/Caffey/P. Case"
    INDEX 01 24:59:02
  TRACK 10 AUDIO
    TITLE "I'll Get Lucky"
    PERFORMER "The Plimsouls"
    REM COMPOSER "Peter Case"
    INDEX 01 28:15:00
  TRACK 11 AUDIO
    TITLE "Everywhere at Once"
    PERFORMER "The Plimsouls"
    REM COMPOSER "Peter Case"
    INDEX 01 30:58:05
  TRACK 12 AUDIO
    TITLE "Hobo"
    PERFORMER "The Plimsouls"
    REM COMPOSER "D. Pahoa/E. Munoz/J. Eyrich/L. Ramirez/P. Case"
    INDEX 01 34:16:57
Правила, инструкции, FAQ!!!
Торрент  Добавлен [15 май 2020, 16:39] Скачать торрент Магнет ссылка
Скачать торрент
[ Размер 21.9 КБ / Просмотров 0 ]

Статус
Проверен 
 
Размер  265.45 МБ
Приватный: Нет (DHT включён)
.torrent скачан  0
 


     Отправить личное сообщение
   
Страница 1 из 1
Показать сообщения за:  Поле сортировки  
Начать новую тему Ответить на тему


Сейчас этот форум просматривают: нет зарегистрированных пользователей и гости: 0


Вы не можете начинать темы
Вы не можете отвечать на сообщения
Вы не можете редактировать свои сообщения
Вы не можете удалять свои сообщения
Вы не можете добавлять вложения

Перейти:  
cron