Начать новую тему Ответить на тему
Статистика раздачи
Размер: 392.81 МБ | Добавлен: 15 май 2020, 16:39 | Скачали: 0
Сидеров: 0  [0 байт/сек]    Личеров: 0  [0 байт/сек]
Пред. тема | След. тема 

Автор
Сообщение

СообщениеДобавлено: 15 май 2020, 16:39 

Ответить с цитатой 

The Plimsouls / Beach Town Confidential (Live at the Golden Bear 1983)
Жанр: Power Pop
Носитель: CD
Страна-производитель диска (релиза): U.S.A.
Год издания: 2012
Издатель (лейбл): Alive Records
Номер по каталогу: ALIVE0128-2
Страна исполнителя (группы): U.S.A.
Аудиокодек: FLAC (*.flac)
Тип рипа: image+.cue
Продолжительность: 00:51:52
Источник: собственный рип
Наличие сканов в содержимом раздачи: да
Треклист:
01. Introduction
02. Shaky City
03. Making Time
04. Zero Hour
05. Hobo
06. Who's Gonna Break the Ice?
07. Fall On You
08. Oldest Story in the World
09. Magic Touch
10. A Million Miles Away
11. Jump Jive and Harmonize
12. Jumpin' in the Night
13. Now
14. How Long Will It Take?
15. In This Town
16. Price of Love
17. You Can't Judge a Book
Код:
Exact Audio Copy V1.5 from 20. February 2020
EAC extraction logfile from 4. May 2020, 16:12
The Plimsouls / Beach Town Confidential (Live at the Golden Bear 1983)
Used drive  : ASUS    BW-16D1H-U   Adapter: 1  ID: 0
Read mode               : Secure
Utilize accurate stream : Yes
Defeat audio cache      : Yes
Make use of C2 pointers : No
Read offset correction                      : 6
Overread into Lead-In and Lead-Out          : No
Fill up missing offset samples with silence : Yes
Delete leading and trailing silent blocks   : No
Null samples used in CRC calculations       : Yes
Used interface                              : Native Win32 interface for Win NT & 2000
Used output format              : User Defined Encoder
Selected bitrate                : 768 kBit/s
Quality                         : High
Add ID3 tag                     : No
Command line compressor         : C:\Program Files (x86)\Exact Audio Copy\FLAC\FLAC.EXE
Additional command line options : -8 -V -T "TITLE=%title%" -T "ARTIST=%artist%" -T "ALBUMARTIST=%albumartist%" -T "ALBUM=%albumtitle%" -T "DATE=%year%" -T "TRACKNUMBER=%tracknr%" -T "TRACKTOTAL=%numtracks%" -T "GENRE=%genre%" -T "COMMENT=%comment%" -T "PERFORMER=%albuminterpret%" -T "COMPOSER=%composer%" %source% -o %dest%
TOC of the extracted CD
     Track |   Start  |  Length  | Start sector | End sector
    ---------------------------------------------------------
        1  |  0:00.00 |  0:11.57 |         0    |      881
        2  |  0:11.57 |  2:32.44 |       882    |    12325
        3  |  2:44.26 |  2:36.04 |     12326    |    24029
        4  |  5:20.30 |  2:37.69 |     24030    |    35873
        5  |  7:58.24 |  3:38.46 |     35874    |    52269
        6  | 11:36.70 |  4:01.24 |     52270    |    70368
        7  | 15:38.19 |  2:16.66 |     70369    |    80634
        8  | 17:55.10 |  3:37.08 |     80635    |    96917
        9  | 21:32.18 |  3:16.11 |     96918    |   111628
       10  | 24:48.29 |  4:00.10 |    111629    |   129638
       11  | 28:48.39 |  4:39.08 |    129639    |   150571
       12  | 33:27.47 |  4:22.67 |    150572    |   170288
       13  | 37:50.39 |  3:19.55 |    170289    |   185268
       14  | 41:10.19 |  2:40.20 |    185269    |   197288
       15  | 43:50.39 |  2:29.16 |    197289    |   208479
       16  | 46:19.55 |  2:23.22 |    208480    |   219226
       17  | 48:43.02 |  3:09.54 |    219227    |   233455
Range status and errors
Selected range
     Filename H:\The Plimsouls - Beach Town Confidential (Live at the Golden Bear 1983) (2012)\The Plimsouls - Beach Town Confidential (Live at the Golden Bear 1983).wav
     Peak level 95.5 %
     Extraction speed 7.0 X
     Range quality 100.0 %
     Test CRC EE179C91
     Copy CRC EE179C91
     Copy OK
No errors occurred
AccurateRip summary
Track  1  accurately ripped (confidence 8)  [C1238B19]  (AR v2)
Track  2  accurately ripped (confidence 8)  [0C249960]  (AR v2)
Track  3  accurately ripped (confidence 8)  [3236F7D7]  (AR v2)
Track  4  accurately ripped (confidence 8)  [4BF510FC]  (AR v2)
Track  5  accurately ripped (confidence 8)  [E3FCD58F]  (AR v2)
Track  6  accurately ripped (confidence 8)  [992731A7]  (AR v2)
Track  7  accurately ripped (confidence 8)  [65C73077]  (AR v2)
Track  8  accurately ripped (confidence 8)  [647CCEFB]  (AR v2)
Track  9  accurately ripped (confidence 8)  [9C6B8382]  (AR v2)
Track 10  accurately ripped (confidence 8)  [78955CC2]  (AR v2)
Track 11  accurately ripped (confidence 8)  [F25F6D9A]  (AR v2)
Track 12  accurately ripped (confidence 8)  [F8C11D32]  (AR v2)
Track 13  accurately ripped (confidence 8)  [0E97FD5B]  (AR v2)
Track 14  accurately ripped (confidence 8)  [A7348744]  (AR v2)
Track 15  accurately ripped (confidence 8)  [524E57B4]  (AR v2)
Track 16  accurately ripped (confidence 8)  [051FA19C]  (AR v2)
Track 17  accurately ripped (confidence 8)  [3C844254]  (AR v2)
All tracks accurately ripped
End of status report
---- CUETools DB Plugin V2.1.6
[CTDB TOCID: FNx6Kdn2GCwcD2L9schzclZCTEc-] found
Submit result: FNx6Kdn2GCwcD2L9schzclZCTEc- has been confirmed
Track | CTDB Status
  1   | (9/9) Accurately ripped
  2   | (9/9) Accurately ripped
  3   | (9/9) Accurately ripped
  4   | (9/9) Accurately ripped
  5   | (9/9) Accurately ripped
  6   | (9/9) Accurately ripped
  7   | (9/9) Accurately ripped
  8   | (9/9) Accurately ripped
  9   | (9/9) Accurately ripped
 10   | (9/9) Accurately ripped
 11   | (9/9) Accurately ripped
 12   | (9/9) Accurately ripped
 13   | (9/9) Accurately ripped
 14   | (9/9) Accurately ripped
 15   | (9/9) Accurately ripped
 16   | (9/9) Accurately ripped
 17   | (9/9) Accurately ripped
==== Log checksum 80BD84C1DFBA098E693137DAFFDE6BD559CD3A754220409D96CAF238FED6E7E3 ====
Код:
REM GENRE "Power Pop"
REM DATE 2012
REM DISCID DA0C2811
REM COMMENT "ExactAudioCopy v1.5"
PERFORMER "The Plimsouls"
TITLE "Beach Town Confidential (Live at the Golden Bear 1983)"
REM COMPOSER ""
FILE "The Plimsouls - Beach Town Confidential (Live at the Golden Bear 1983).flac" WAVE
  TRACK 01 AUDIO
    TITLE "Introduction"
    PERFORMER "The Plimsouls"
    REM COMPOSER ""
    INDEX 01 00:00:00
  TRACK 02 AUDIO
    TITLE "Shaky City"
    PERFORMER "The Plimsouls"
    REM COMPOSER ""
    INDEX 01 00:11:57
  TRACK 03 AUDIO
    TITLE "Making Time"
    PERFORMER "The Plimsouls"
    REM COMPOSER ""
    INDEX 01 02:44:26
  TRACK 04 AUDIO
    TITLE "Zero Hour"
    PERFORMER "The Plimsouls"
    REM COMPOSER ""
    INDEX 01 05:20:30
  TRACK 05 AUDIO
    TITLE "Hobo"
    PERFORMER "The Plimsouls"
    REM COMPOSER ""
    INDEX 01 07:58:24
  TRACK 06 AUDIO
    TITLE "Who's Gonna Break the Ice?"
    PERFORMER "The Plimsouls"
    REM COMPOSER ""
    INDEX 01 11:36:70
  TRACK 07 AUDIO
    TITLE "Fall On You"
    PERFORMER "The Plimsouls"
    REM COMPOSER ""
    INDEX 01 15:38:19
  TRACK 08 AUDIO
    TITLE "Oldest Story in the World"
    PERFORMER "The Plimsouls"
    REM COMPOSER ""
    INDEX 01 17:55:10
  TRACK 09 AUDIO
    TITLE "Magic Touch"
    PERFORMER "The Plimsouls"
    REM COMPOSER ""
    INDEX 01 21:32:18
  TRACK 10 AUDIO
    TITLE "A Million Miles Away"
    PERFORMER "The Plimsouls"
    REM COMPOSER ""
    INDEX 01 24:48:29
  TRACK 11 AUDIO
    TITLE "Jump Jive and Harmonize"
    PERFORMER "The Plimsouls"
    REM COMPOSER ""
    INDEX 01 28:48:39
  TRACK 12 AUDIO
    TITLE "Jumpin' in the Night"
    PERFORMER "The Plimsouls"
    REM COMPOSER ""
    INDEX 01 33:27:47
  TRACK 13 AUDIO
    TITLE "Now"
    PERFORMER "The Plimsouls"
    REM COMPOSER ""
    INDEX 01 37:50:39
  TRACK 14 AUDIO
    TITLE "How Long Will It Take?"
    PERFORMER "The Plimsouls"
    REM COMPOSER ""
    INDEX 01 41:10:19
  TRACK 15 AUDIO
    TITLE "In This Town"
    PERFORMER "The Plimsouls"
    REM COMPOSER ""
    INDEX 01 43:50:39
  TRACK 16 AUDIO
    TITLE "Price of Love"
    PERFORMER "The Plimsouls"
    REM COMPOSER ""
    INDEX 01 46:19:55
  TRACK 17 AUDIO
    TITLE "You Can't Judge a Book"
    PERFORMER "The Plimsouls"
    REM COMPOSER ""
    INDEX 01 48:43:02
Правила, инструкции, FAQ!!!
Торрент  Добавлен [15 май 2020, 16:39] Скачать торрент Магнет ссылка
Скачать торрент
[ Размер 32.06 КБ / Просмотров 2 ]

Статус
Проверен 
 
Размер  392.81 МБ
Приватный: Нет (DHT включён)
.torrent скачан  0
 


     Отправить личное сообщение
   
Страница 1 из 1
Показать сообщения за:  Поле сортировки  
Начать новую тему Ответить на тему


Сейчас этот форум просматривают: нет зарегистрированных пользователей и гости: 0


Вы не можете начинать темы
Вы не можете отвечать на сообщения
Вы не можете редактировать свои сообщения
Вы не можете удалять свои сообщения
Вы не можете добавлять вложения

Перейти:  
cron