Начать новую тему Ответить на тему
Статистика раздачи
Размер: 476.69 МБ | Добавлен: 26 мар 2019, 19:15 | Скачали: 0
Сидеров: 0  [0 байт/сек]    Личеров: 0  [0 байт/сек]
Пред. тема | След. тема 

Автор
Сообщение

СообщениеДобавлено: 26 мар 2019, 19:15 

Ответить с цитатой 

The Paley Brothers - The Complete Recordings
Жанр: Power Pop
Страна-производитель диска: USA
Год издания диска: 2013
Издатель (лейбл): Real Gone Music
Номер по каталогу: RGM-0182
Страна: UK
Аудиокодек: FLAC (*.flac)
Тип рипа: tracks+.cue
Битрейт аудио: lossless
Продолжительность: 01:16:24
Источник (релизер): Rob
Наличие сканов в содержимом раздачи:
Треклист:
01. Here Comes My Baby (Unreleased) 03:11
02. Meet The Invisible Man (Unreleased) 05:52
03. Too Good To Be True 02:59
04. Boomerang (Unreleased) 03:11
05. Felicia (Unreleased, Live At Madison Square Garden) 02:11
06. Come Out And Play 02:33
07. She's Eighteen Tonight (Unreleased) 02:17
08. Running In The Rain (Unreleased) 03:05
09. Sapphire Eyes (Unreleased) 03:47
10. Come On Let's Go (with the Ramones) 02:09
11. I Heard The Bluebirds Sing 02:47
12. Down The Line 02:42
13. Sheila (Unreleased, Live At Madison Square Garden) 01:54
14. You're The Best 03:11
15. Stick With Me Baby 02:19
16. Hide & Seek 02:41
17. Lovin' Eyes Can't Lie 03:19
18. Spring Fever (Unreleased) 02:15
19. Rendezvous 02:50
20. Jacques Cousteau (As The Young Jacques) 02:35
21. Tell Me Tonight 04:19
22. Magic Power 02:57
23. Turn The Tide 03:12
24. Ecstasy 02:34
25. Theme From Fireball XL-5 (Unreleased) 02:39
26. Baby, Let's Stick Together (Unreleased) 02:55
Код:
Exact Audio Copy V1.0 beta 3 from 29. August 2011
EAC extraction logfile from 13. September 2013, 23:42
The Paley Brothers / The Complete Recordings
Used drive  : ASUS    BW-12D1S-U   Adapter: 3  ID: 0
Read mode               : Secure
Utilize accurate stream : Yes
Defeat audio cache      : Yes
Make use of C2 pointers : No
Read offset correction                      : 667
Overread into Lead-In and Lead-Out          : No
Fill up missing offset samples with silence : Yes
Delete leading and trailing silent blocks   : No
Null samples used in CRC calculations       : Yes
Used interface                              : Native Win32 interface for Win NT & 2000
Gap handling                                : Appended to previous track
Used output format              : User Defined Encoder
Selected bitrate                : 1024 kBit/s
Quality                         : High
Add ID3 tag                     : No
Command line compressor         : C:\Program Files (x86)\Exact Audio Copy\Flac\flac.exe
Additional command line options : -8 -V -T "ARTIST=%artist%" -T "TITLE=%title%" -T "ALBUM=%albumtitle%" -T "DATE=%year%" -T "TRACKNUMBER=%tracknr%" -T "GENRE=%genre%" -T "PERFORMER=%albuminterpret%" -T "COMPOSER=%composer%" %haslyrics%--tag-from-file=LYRICS="%lyricsfile%"%haslyrics% -T "ALBUMARTIST=%albumartist%" -T "DISCNUMBER=%cdnumber%" -T "TOTALDISCS=%totalcds%" -T "TOTALTRACKS=%numtracks%" -T "COMMENT=%comment%" %source% -o %dest%
TOC of the extracted CD
     Track |   Start  |  Length  | Start sector | End sector
    ---------------------------------------------------------
        1  |  0:00.00 |  3:11.32 |         0    |    14356
        2  |  3:11.32 |  5:52.33 |     14357    |    40789
        3  |  9:03.65 |  2:58.68 |     40790    |    54207
        4  | 12:02.58 |  3:11.02 |     54208    |    68534
        5  | 15:13.60 |  2:11.30 |     68535    |    78389
        6  | 17:25.15 |  2:32.40 |     78390    |    89829
        7  | 19:57.55 |  2:16.74 |     89830    |   100103
        8  | 22:14.54 |  3:04.47 |    100104    |   113950
        9  | 25:19.26 |  3:47.16 |    113951    |   130991
       10  | 29:06.42 |  2:09.34 |    130992    |   140700
       11  | 31:16.01 |  2:47.31 |    140701    |   153256
       12  | 34:03.32 |  2:42.35 |    153257    |   165441
       13  | 36:45.67 |  1:54.15 |    165442    |   174006
       14  | 38:40.07 |  3:10.39 |    174007    |   188295
       15  | 41:50.46 |  2:19.37 |    188296    |   198757
       16  | 44:10.08 |  2:41.29 |    198758    |   210861
       17  | 46:51.37 |  3:18.65 |    210862    |   225776
       18  | 50:10.27 |  2:15.10 |    225777    |   235911
       19  | 52:25.37 |  2:49.50 |    235912    |   248636
       20  | 55:15.12 |  2:34.73 |    248637    |   260259
       21  | 57:50.10 |  4:18.53 |    260260    |   279662
       22  | 62:08.63 |  2:57.17 |    279663    |   292954
       23  | 65:06.05 |  3:11.53 |    292955    |   307332
       24  | 68:17.58 |  2:34.02 |    307333    |   318884
       25  | 70:51.60 |  2:39.32 |    318885    |   330841
       26  | 73:31.17 |  2:55.21 |    330842    |   343987
Track  1
     Filename C:\Users\Rob\Music\The Paley Brothers - The Complete Recordings - 2013 [FLAC]\01 - The Paley Brothers - Here Comes My Baby (Unreleased).wav
     Pre-gap length  0:00:02.00
     Peak level 97.7 %
     Extraction speed 4.7 X
     Track quality 100.0 %
     Test CRC 3CFB44C8
     Copy CRC 3CFB44C8
     Track not present in AccurateRip database
     Copy OK
Track  2
     Filename C:\Users\Rob\Music\The Paley Brothers - The Complete Recordings - 2013 [FLAC]\02 - The Paley Brothers - Meet The Invisible Man (Unreleased).wav
     Pre-gap length  0:00:01.58
     Peak level 98.8 %
     Extraction speed 5.5 X
     Track quality 100.0 %
     Test CRC 4798642F
     Copy CRC 4798642F
     Track not present in AccurateRip database
     Copy OK
Track  3
     Filename C:\Users\Rob\Music\The Paley Brothers - The Complete Recordings - 2013 [FLAC]\03 - The Paley Brothers - Too Good To Be True.wav
     Pre-gap length  0:00:01.01
     Peak level 98.8 %
     Extraction speed 5.4 X
     Track quality 100.0 %
     Test CRC A0811EB2
     Copy CRC A0811EB2
     Track not present in AccurateRip database
     Copy OK
Track  4
     Filename C:\Users\Rob\Music\The Paley Brothers - The Complete Recordings - 2013 [FLAC]\04 - The Paley Brothers - Boomerang (Unreleased).wav
     Pre-gap length  0:00:01.10
     Peak level 98.8 %
     Extraction speed 5.7 X
     Track quality 100.0 %
     Test CRC 44C6324E
     Copy CRC 44C6324E
     Track not present in AccurateRip database
     Copy OK
Track  5
     Filename C:\Users\Rob\Music\The Paley Brothers - The Complete Recordings - 2013 [FLAC]\05 - The Paley Brothers - Felicia (Unreleased, live at Madison Square Garden).wav
     Pre-gap length  0:00:01.58
     Peak level 97.7 %
     Extraction speed 5.5 X
     Track quality 100.0 %
     Test CRC E693AA1D
     Copy CRC E693AA1D
     Track not present in AccurateRip database
     Copy OK
Track  6
     Filename C:\Users\Rob\Music\The Paley Brothers - The Complete Recordings - 2013 [FLAC]\06 - The Paley Brothers - Come Out And Play.wav
     Pre-gap length  0:00:01.60
     Peak level 98.8 %
     Extraction speed 5.9 X
     Track quality 100.0 %
     Test CRC 6CDA6428
     Copy CRC 6CDA6428
     Track not present in AccurateRip database
     Copy OK
Track  7
     Filename C:\Users\Rob\Music\The Paley Brothers - The Complete Recordings - 2013 [FLAC]\07 - The Paley Brothers - She's Eighteen Tonight (Unreleased).wav
     Pre-gap length  0:00:01.60
     Peak level 98.8 %
     Extraction speed 5.9 X
     Track quality 100.0 %
     Test CRC 9B6439F2
     Copy CRC 9B6439F2
     Track not present in AccurateRip database
     Copy OK
Track  8
     Filename C:\Users\Rob\Music\The Paley Brothers - The Complete Recordings - 2013 [FLAC]\08 - The Paley Brothers - Running In The Rain (Unreleased).wav
     Pre-gap length  0:00:01.52
     Peak level 98.8 %
     Extraction speed 6.4 X
     Track quality 100.0 %
     Test CRC C2C0DD49
     Copy CRC C2C0DD49
     Track not present in AccurateRip database
     Copy OK
Track  9
     Filename C:\Users\Rob\Music\The Paley Brothers - The Complete Recordings - 2013 [FLAC]\09 - The Paley Brothers - Sapphire Eyes (Unreleased).wav
     Pre-gap length  0:00:01.57
     Peak level 97.7 %
     Extraction speed 6.8 X
     Track quality 100.0 %
     Test CRC D9C42500
     Copy CRC D9C42500
     Track not present in AccurateRip database
     Copy OK
Track 10
     Filename C:\Users\Rob\Music\The Paley Brothers - The Complete Recordings - 2013 [FLAC]\10 - The Paley Brothers with The Ramones - Come On Let's Go (with the Ramones).wav
     Pre-gap length  0:00:01.58
     Peak level 98.8 %
     Extraction speed 5.2 X
     Track quality 99.9 %
     Test CRC 7A2F0C98
     Copy CRC 7A2F0C98
     Track not present in AccurateRip database
     Copy OK
Track 11
     Filename C:\Users\Rob\Music\The Paley Brothers - The Complete Recordings - 2013 [FLAC]\11 - The Paley Brothers - I Heard The Bluebirds Sing.wav
     Pre-gap length  0:00:01.57
     Peak level 98.8 %
     Extraction speed 6.8 X
     Track quality 100.0 %
     Test CRC EC7213F6
     Copy CRC EC7213F6
     Track not present in AccurateRip database
     Copy OK
Track 12
     Filename C:\Users\Rob\Music\The Paley Brothers - The Complete Recordings - 2013 [FLAC]\12 - The Paley Brothers - Down The Line.wav
     Pre-gap length  0:00:01.57
     Peak level 98.8 %
     Extraction speed 6.9 X
     Track quality 100.0 %
     Test CRC 20A68C14
     Copy CRC 20A68C14
     Track not present in AccurateRip database
     Copy OK
Track 13
     Filename C:\Users\Rob\Music\The Paley Brothers - The Complete Recordings - 2013 [FLAC]\13 - The Paley Brothers - Sheila (Unreleased, live at Madison Square Garden).wav
     Pre-gap length  0:00:01.57
     Peak level 98.6 %
     Extraction speed 5.3 X
     Track quality 99.9 %
     Test CRC 891575B1
     Copy CRC 891575B1
     Track not present in AccurateRip database
     Copy OK
Track 14
     Filename C:\Users\Rob\Music\The Paley Brothers - The Complete Recordings - 2013 [FLAC]\14 - The Paley Brothers - You're The Best.wav
     Pre-gap length  0:00:01.54
     Peak level 98.8 %
     Extraction speed 7.3 X
     Track quality 100.0 %
     Test CRC 10E56BCD
     Copy CRC 10E56BCD
     Track not present in AccurateRip database
     Copy OK
Track 15
     Filename C:\Users\Rob\Music\The Paley Brothers - The Complete Recordings - 2013 [FLAC]\15 - The Paley Brothers - Stick With Me Baby.wav
     Pre-gap length  0:00:01.33
     Peak level 98.8 %
     Extraction speed 7.1 X
     Track quality 100.0 %
     Test CRC B5D32477
     Copy CRC B5D32477
     Track not present in AccurateRip database
     Copy OK
Track 16
     Filename C:\Users\Rob\Music\The Paley Brothers - The Complete Recordings - 2013 [FLAC]\16 - The Paley Brothers - Hide & Seek.wav
     Pre-gap length  0:00:01.62
     Peak level 98.8 %
     Extraction speed 7.3 X
     Track quality 100.0 %
     Test CRC 73B11DE3
     Copy CRC 73B11DE3
     Track not present in AccurateRip database
     Copy OK
Track 17
     Filename C:\Users\Rob\Music\The Paley Brothers - The Complete Recordings - 2013 [FLAC]\17 - The Paley Brothers - Lovin' Eyes Can't Lie.wav
     Pre-gap length  0:00:01.78
     Peak level 89.9 %
     Extraction speed 6.8 X
     Track quality 99.9 %
     Test CRC BDFAF920
     Copy CRC BDFAF920
     Track not present in AccurateRip database
     Copy OK
Track 18
     Filename C:\Users\Rob\Music\The Paley Brothers - The Complete Recordings - 2013 [FLAC]\18 - The Paley Brothers - Spring Fever (Unreleased).wav
     Pre-gap length  0:00:01.58
     Peak level 98.8 %
     Extraction speed 6.0 X
     Track quality 99.9 %
     Test CRC C6B96A08
     Copy CRC C6B96A08
     Track not present in AccurateRip database
     Copy OK
Track 19
     Filename C:\Users\Rob\Music\The Paley Brothers - The Complete Recordings - 2013 [FLAC]\19 - The Paley Brothers - Rendezvous.wav
     Pre-gap length  0:00:01.60
     Peak level 98.8 %
     Extraction speed 6.6 X
     Track quality 99.9 %
     Test CRC F1F1C5DE
     Copy CRC F1F1C5DE
     Track not present in AccurateRip database
     Copy OK
Track 20
     Filename C:\Users\Rob\Music\The Paley Brothers - The Complete Recordings - 2013 [FLAC]\20 - The Paley Brothers - Jacques Cousteau - (The Young Jacques).wav
     Pre-gap length  0:00:01.62
     Peak level 98.8 %
     Extraction speed 7.6 X
     Track quality 100.0 %
     Test CRC 7631F23B
     Copy CRC 7631F23B
     Track not present in AccurateRip database
     Copy OK
Track 21
     Filename C:\Users\Rob\Music\The Paley Brothers - The Complete Recordings - 2013 [FLAC]\21 - The Paley Brothers - Tell Me Tonight.wav
     Pre-gap length  0:00:01.60
     Peak level 98.8 %
     Extraction speed 8.6 X
     Track quality 100.0 %
     Test CRC 081415ED
     Copy CRC 081415ED
     Track not present in AccurateRip database
     Copy OK
Track 22
     Filename C:\Users\Rob\Music\The Paley Brothers - The Complete Recordings - 2013 [FLAC]\22 - The Paley Brothers - Magic Power.wav
     Pre-gap length  0:00:01.56
     Peak level 98.8 %
     Extraction speed 8.2 X
     Track quality 100.0 %
     Test CRC 2D13AC28
     Copy CRC 2D13AC28
     Track not present in AccurateRip database
     Copy OK
Track 23
     Filename C:\Users\Rob\Music\The Paley Brothers - The Complete Recordings - 2013 [FLAC]\23 - The Paley Brothers - Turn The Tide.wav
     Pre-gap length  0:00:01.56
     Peak level 98.8 %
     Extraction speed 8.6 X
     Track quality 100.0 %
     Test CRC D4D3B3AD
     Copy CRC D4D3B3AD
     Track not present in AccurateRip database
     Copy OK
Track 24
     Filename C:\Users\Rob\Music\The Paley Brothers - The Complete Recordings - 2013 [FLAC]\24 - The Paley Brothers - Ecstasy.wav
     Pre-gap length  0:00:01.57
     Peak level 98.8 %
     Extraction speed 6.9 X
     Track quality 99.9 %
     Test CRC 85615D49
     Copy CRC 85615D49
     Track not present in AccurateRip database
     Copy OK
Track 25
     Filename C:\Users\Rob\Music\The Paley Brothers - The Complete Recordings - 2013 [FLAC]\25 - The Paley Brothers - Theme From Fireball XL-5 (Unreleased).wav
     Pre-gap length  0:00:01.08
     Peak level 98.8 %
     Extraction speed 8.5 X
     Track quality 100.0 %
     Test CRC F212361D
     Copy CRC F212361D
     Track not present in AccurateRip database
     Copy OK
Track 26
     Filename C:\Users\Rob\Music\The Paley Brothers - The Complete Recordings - 2013 [FLAC]\26 - The Paley Brothers - Baby, Let's Stick Together (Unreleased).wav
     Pre-gap length  0:00:01.56
     Peak level 97.7 %
     Extraction speed 7.4 X
     Track quality 99.9 %
     Test CRC A442E4EC
     Copy CRC A442E4EC
     Track not present in AccurateRip database
     Copy OK
None of the tracks are present in the AccurateRip database
No errors occurred
End of status report
---- CUETools DB Plugin V2.1.3
[CTDB TOCID: 9qFSnqZvOhr6RosGJpHVT1IL7W0-] disk not present in database, Submit result: 9qFSnqZvOhr6RosGJpHVT1IL7W0- has been uploaded
==== Log checksum 2E8A01BC55997AA021C1B37E0EBD11AFBA657FF31EC9FBBB9BDC8FCD80E91EC0 ====
Код:
REM GENRE Rock
REM DATE 2013
REM DISCID 6611EA1A
REM COMMENT "ExactAudioCopy v1.0b3"
CATALOG 0848064001829
PERFORMER "The Paley Brothers"
TITLE "The Complete Recordings"
FILE "01 Here Comes My Baby (Unreleased).wav" WAVE
  TRACK 01 AUDIO
    TITLE "Here Comes My Baby (Unreleased)"
    PERFORMER "The Paley Brothers"
    ISRC QMUBV1300480
    INDEX 01 00:00:00
  TRACK 02 AUDIO
    TITLE "Meet The Invisible Man (Unreleased)"
    PERFORMER "The Paley Brothers"
    ISRC QMUBV1300481
    INDEX 00 03:09:63
FILE "02 Meet The Invisible Man (Unreleased).wav" WAVE
    INDEX 01 00:00:00
  TRACK 03 AUDIO
    TITLE "Too Good To Be True"
    PERFORMER "The Paley Brothers"
    ISRC USWB10202314
    INDEX 00 05:51:32
FILE "03 Too Good To Be True.wav" WAVE
    INDEX 01 00:00:00
  TRACK 04 AUDIO
    TITLE "Boomerang (Unreleased)"
    PERFORMER "The Paley Brothers"
    ISRC QMUBV1300482
    INDEX 00 02:57:60
FILE "04 Boomerang (Unreleased).wav" WAVE
    INDEX 01 00:00:00
  TRACK 05 AUDIO
    TITLE "Felicia (Unreleased, live at Madison Square Garden)"
    PERFORMER "The Paley Brothers"
    ISRC QMUBV1300483
    INDEX 00 03:09:33
FILE "05 Felicia (Unreleased, live at Madison Square Garden).wav" WAVE
    INDEX 01 00:00:00
  TRACK 06 AUDIO
    TITLE "Come Out And Play"
    PERFORMER "The Paley Brothers"
    ISRC USWB10202321
    INDEX 00 02:09:60
FILE "06 Come Out And Play.wav" WAVE
    INDEX 01 00:00:00
  TRACK 07 AUDIO
    TITLE "She's Eighteen Tonight (Unreleased)"
    PERFORMER "The Paley Brothers"
    ISRC QMUBV1300484
    INDEX 00 02:30:70
FILE "07 She's Eighteen Tonight (Unreleased).wav" WAVE
    INDEX 01 00:00:00
  TRACK 08 AUDIO
    TITLE "Running In The Rain (Unreleased)"
    PERFORMER "The Paley Brothers"
    ISRC QMUBV1300485
    INDEX 00 02:15:35
FILE "08 Running In The Rain (Unreleased).wav" WAVE
    INDEX 01 00:00:00
  TRACK 09 AUDIO
    TITLE "Sapphire Eyes (Unreleased)"
    PERFORMER "The Paley Brothers"
    ISRC QMUBV1300486
    INDEX 00 03:03:04
FILE "09 Sapphire Eyes (Unreleased).wav" WAVE
    INDEX 01 00:00:00
  TRACK 10 AUDIO
    TITLE "Come On Let's Go (with the Ramones)"
    PERFORMER "The Paley Brothers with The Ramones"
    ISRC USWB10102838
    INDEX 00 03:45:47
FILE "10 Come On Let's Go (with the Ramones).wav" WAVE
    INDEX 01 00:00:00
  TRACK 11 AUDIO
    TITLE "I Heard The Bluebirds Sing"
    PERFORMER "The Paley Brothers"
    ISRC USWB10202315
    INDEX 00 02:07:66
FILE "11 I Heard The Bluebirds Sing.wav" WAVE
    INDEX 01 00:00:00
  TRACK 12 AUDIO
    TITLE "Down The Line"
    PERFORMER "The Paley Brothers"
    ISRC USWB10202322
    INDEX 00 02:45:63
FILE "12 Down The Line.wav" WAVE
    INDEX 01 00:00:00
  TRACK 13 AUDIO
    TITLE "Sheila (Unreleased, live at Madison Square Garden)"
    PERFORMER "The Paley Brothers"
    ISRC QMUBV1300487
    INDEX 00 02:40:67
FILE "13 Sheila (Unreleased, live at Madison Square Garden).wav" WAVE
    INDEX 01 00:00:00
  TRACK 14 AUDIO
    TITLE "You're The Best"
    PERFORMER "The Paley Brothers"
    ISRC USWB10202313
    INDEX 00 01:52:49
FILE "14 You're The Best.wav" WAVE
    INDEX 01 00:00:00
  TRACK 15 AUDIO
    TITLE "Stick With Me Baby"
    PERFORMER "The Paley Brothers"
    ISRC USWB10202318
    INDEX 00 03:09:14
FILE "15 Stick With Me Baby.wav" WAVE
    INDEX 01 00:00:00
  TRACK 16 AUDIO
    TITLE "Hide & Seek"
    PERFORMER "The Paley Brothers"
    ISRC USWB11302700
    INDEX 00 02:17:65
FILE "16 Hide & Seek.wav" WAVE
    INDEX 01 00:00:00
  TRACK 17 AUDIO
    TITLE "Lovin' Eyes Can't Lie"
    PERFORMER "The Paley Brothers"
    ISRC USWB10202320
    INDEX 00 02:39:45
FILE "17 Lovin' Eyes Can't Lie.wav" WAVE
    INDEX 01 00:00:00
  TRACK 18 AUDIO
    TITLE "Spring Fever (Unreleased)"
    PERFORMER "The Paley Brothers"
    ISRC QMUBV1300488
    INDEX 00 03:17:21
FILE "18 Spring Fever (Unreleased).wav" WAVE
    INDEX 01 00:00:00
  TRACK 19 AUDIO
    TITLE "Rendezvous"
    PERFORMER "The Paley Brothers"
    ISRC USWB11302701
    INDEX 00 02:13:40
FILE "19 Rendezvous.wav" WAVE
    INDEX 01 00:00:00
  TRACK 20 AUDIO
    TITLE "Jacques Cousteau - (The Young Jacques)"
    PERFORMER "The Paley Brothers"
    ISRC QMUBV1300489
    INDEX 00 02:48:03
FILE "20 Jacques Cousteau - (The Young Jacques).wav" WAVE
    INDEX 01 00:00:00
  TRACK 21 AUDIO
    TITLE "Tell Me Tonight"
    PERFORMER "The Paley Brothers"
    ISRC USWB10202319
    INDEX 00 02:33:28
FILE "21 Tell Me Tonight.wav" WAVE
    INDEX 01 00:00:00
  TRACK 22 AUDIO
    TITLE "Magic Power"
    PERFORMER "The Paley Brothers"
    ISRC USWB10202316
    INDEX 00 04:17:11
FILE "22 Magic Power.wav" WAVE
    INDEX 01 00:00:00
  TRACK 23 AUDIO
    TITLE "Turn The Tide"
    PERFORMER "The Paley Brothers"
    ISRC USWB10202317
    INDEX 00 02:55:50
FILE "23 Turn The Tide.wav" WAVE
    INDEX 01 00:00:00
  TRACK 24 AUDIO
    TITLE "Ecstasy"
    PERFORMER "The Paley Brothers"
    ISRC USWB11302702
    INDEX 00 03:10:10
FILE "24 Ecstasy.wav" WAVE
    INDEX 01 00:00:00
  TRACK 25 AUDIO
    TITLE "Theme From Fireball XL-5 (Unreleased)"
    PERFORMER "The Paley Brothers"
    ISRC QMUBV1300490
    INDEX 00 02:32:71
FILE "25 -Theme From Fireball XL-5 (Unreleased).wav" WAVE
    INDEX 01 00:00:00
  TRACK 26 AUDIO
    TITLE "Baby, Let's Stick Together (Unreleased)"
    PERFORMER "The Paley Brothers"
    ISRC USWB11302703
    INDEX 00 02:37:65
FILE "26 Baby, Let's Stick Together (Unreleased).wav" WAVE
    INDEX 01 00:00:00
Код:
-----------------------
DON'T MODIFY THIS FILE
-----------------------
PERFORMER: auCDtect Task Manager, ver. 1.5.1RC4 build 1.5.1.5
Copyright (c) 2008-2010 y-soft. All rights reserved
[url=http://y-soft.org]http://y-soft.org[/url]
ANALYZER: auCDtect: CD records authenticity detector, version 0.8.2
Copyright (c) 2004 Oleg Berngardt. All rights reserved.
Copyright (c) 2004 Alexander Djourik. All rights reserved.
FILE: 26 Baby, Let's Stick Together (Unreleased).flac
  Size: 19745270 Hash: B756BAE824148831737188CC5EC3BD57 Accuracy: -m0
  Conclusion: CDDA 99%
  Signature: BCDB0EEC6F6B2040637FE5077C38591239AF8983
FILE: 25 Theme From Fireball XL-5 (Unreleased).flac
  Size: 16756256 Hash: 4D4D56506A2469C668DBAAAB02FC4A26 Accuracy: -m0
  Conclusion: CDDA 100%
  Signature: 2D695FC0E273D0565FCD354C0B0555EAFF446332
FILE: 24 Ecstasy.flac
  Size: 15999985 Hash: AE3B56B30728B9930D72400616792F4F Accuracy: -m0
  Conclusion: CDDA 99%
  Signature: E79A8198602D98F0E476F880D3B1E67C70C99E57
FILE: 23 Turn The Tide.flac
  Size: 19724220 Hash: 6F390AA802B2084383A64BBAA4436AFA Accuracy: -m0
  Conclusion: CDDA 100%
  Signature: DED5D3070EE76B9B7347EAAC15D863165DB7CD39
FILE: 22 Magic Power.flac
  Size: 18319436 Hash: 305983FD9DB4CD519473383F7BCC219D Accuracy: -m0
  Conclusion: CDDA 100%
  Signature: DD81813EFEAE359175CF6EC3D70A0F9CC12AB7D9
FILE: 21 Tell Me Tonight.flac
  Size: 30360218 Hash: 983E7F7A8B93B491A6CFDE25B4C27956 Accuracy: -m0
  Conclusion: CDDA 100%
  Signature: 24E58DA4FFCAAC94849DD4F2668B5BB443E96FF6
FILE: 20 Jacques Cousteau - (The Young Jacques).flac
  Size: 18029923 Hash: 0C2730D746E37E71A59DAABE8F89465B Accuracy: -m0
  Conclusion: CDDA 100%
  Signature: 6A7A238BB447CAA1DADDF3106EDA3169060CE7C7
FILE: 19 Rendezvous.flac
  Size: 17723742 Hash: 14996B2B6CDAC4FE918FEC29E3BDA287 Accuracy: -m0
  Conclusion: CDDA 100%
  Signature: EF398C03505632A9E246516F90C302306AB3953E
FILE: 18 Spring Fever (Unreleased).flac
  Size: 14093962 Hash: 17CC0F72803254BA6BEE2740EF80D288 Accuracy: -m0
  Conclusion: CDDA 100%
  Signature: 825A8FC9C95D89A2540AADB0728DE327E085F988
FILE: 17 Lovin' Eyes Can't Lie.flac
  Size: 24861649 Hash: DB2C606B33D3103C145672663A0B4E04 Accuracy: -m0
  Conclusion: CDDA 100%
  Signature: 897FA71D27ABFE8EB46190EB0AA637DBDFD11D37
FILE: 16 Hide & Seek.flac
  Size: 18109501 Hash: DEF363B9454D3186CB4A87BAB9BD0451 Accuracy: -m0
  Conclusion: CDDA 100%
  Signature: B159140372FF319BF2746673A8099A5D26B25E2F
FILE: 15 Stick With Me Baby.flac
  Size: 14333103 Hash: 6FF4C3AA905437FA97065CF72DB0F7B3 Accuracy: -m0
  Conclusion: CDDA 100%
  Signature: C0B4F9A6630FCC876119D1B7AF6A6BA5B4C7F643
FILE: 14 You're The Best.flac
  Size: 18678152 Hash: 746491F5BA8CEDC4D0247FF192DF359B Accuracy: -m0
  Conclusion: CDDA 100%
  Signature: 1851FBDBBA1327EDF23BB956E6F7C79B61785DE5
FILE: 13 Sheila (Unreleased, live at Madison Square Garden).flac
  Size: 9407031 Hash: 688C05920EDED99C9AE74383167B8A30 Accuracy: -m0
  Conclusion: CDDA 100%
  Signature: FC4DD949C5586B3F950B8413E4C8AA80DD9BEAA0
FILE: 12 Down The Line.flac
  Size: 19623260 Hash: 0B0526B3C6B295A7A971F2C38CD8676E Accuracy: -m0
  Conclusion: CDDA 100%
  Signature: 529CCA47D0B490B82F2BEF0CED0ABAABBE503797
FILE: 11 I Heard The Bluebirds Sing.flac
  Size: 15143824 Hash: C2AA25841EF2E9D9B87545A5AEC6C8AF Accuracy: -m0
  Conclusion: CDDA 99%
  Signature: 8B4CB445D7243655A9D5385ADDFE204D719B276D
FILE: 10 Come On Let's Go (with the Ramones).flac
  Size: 15567178 Hash: 4E380F057C4A1E714FABADBEFCD0C7D2 Accuracy: -m0
  Conclusion: CDDA 100%
  Signature: 4A0FCCE51F7EAFA1BFE94147C6642C4E63FABF91
FILE: 09 Sapphire Eyes (Unreleased).flac
  Size: 25732152 Hash: 5860EE8032F0D1C874D0F8B724E2C07D Accuracy: -m0
  Conclusion: CDDA 100%
  Signature: AC6695AF58518C0150025D46B0ADC8B6F5AFA509
FILE: 08 Running In The Rain (Unreleased).flac
  Size: 19508623 Hash: BFB8D25EEB2B16313B6D3C657BE35930 Accuracy: -m0
  Conclusion: CDDA 100%
  Signature: 6D126FDF9BDEB60AD99E8DFAECCDF1BCD4BF7970
FILE: 07 She's Eighteen Tonight (Unreleased).flac
  Size: 15049878 Hash: 47A2992C9EF2B3F9302CA70DD0E2261B Accuracy: -m0
  Conclusion: CDDA 100%
  Signature: 1828C81F8F008CFBF68A0D507A06D2D400396B67
FILE: 06 Come Out And Play.flac
  Size: 16330584 Hash: BFF34A1E5F557D0BA67C68810C7BE8E8 Accuracy: -m0
  Conclusion: CDDA 100%
  Signature: A1BCBB23A5BE8D5EA43CEE0D6D2064916AD21A10
FILE: 05 Felicia (Unreleased, live at Madison Square Garden).flac
  Size: 12661406 Hash: 7F06206020CBA17AB574C0CF8C7E67E5 Accuracy: -m0
  Conclusion: CDDA 100%
  Signature: 1D05DE22EF63C85F00081BBDD65B3CEFE5BDC728
FILE: 04 Boomerang (Unreleased).flac
  Size: 21494121 Hash: 14B9DD59C29DFC910C38C674AAF414BC Accuracy: -m0
  Conclusion: CDDA 100%
  Signature: E406026766826D5E3A93EA6D7C208481A1D2B598
FILE: 03 Too Good To Be True.flac
  Size: 18039550 Hash: 76EB3F79120CBCE10C20D44582D529AC Accuracy: -m0
  Conclusion: CDDA 100%
  Signature: 7B0AF1FB153C2BB8F69AF4955F4F61D74208476F
FILE: 02 Meet The Invisible Man (Unreleased).flac
  Size: 43202539 Hash: 6656547A2A86DDDAD2C9BF57C07F74DE Accuracy: -m0
  Conclusion: CDDA 100%
  Signature: 26FA3EC7E2F7000638A94A2A2819443D0040B372
FILE: 01 Here Comes My Baby (Unreleased).flac
  Size: 20756805 Hash: 0C584C283F51C17BB0739606C6357D99 Accuracy: -m0
  Conclusion: CDDA 100%
  Signature: 353DCD6549BCFCE976D11EAD5938E980F5F01774
Код:
[CUETools log; Date: 23.12.2015 21:42:54; Version: 2.1.4]
HDCD: peak extend: none, transient filter: none, gain: none
[CTDB TOCID: 9qFSnqZvOhr6RosGJpHVT1IL7W0-] found.
Track | CTDB Status
  1   | (6/6) Accurately ripped
  2   | (6/6) Accurately ripped
  3   | (6/6) Accurately ripped
  4   | (6/6) Accurately ripped
  5   | (6/6) Accurately ripped
  6   | (6/6) Accurately ripped
  7   | (6/6) Accurately ripped
  8   | (6/6) Accurately ripped
  9   | (6/6) Accurately ripped
 10   | (6/6) Accurately ripped
 11   | (6/6) Accurately ripped
 12   | (6/6) Accurately ripped
 13   | (6/6) Accurately ripped
 14   | (6/6) Accurately ripped
 15   | (6/6) Accurately ripped
 16   | (6/6) Accurately ripped
 17   | (6/6) Accurately ripped
 18   | (6/6) Accurately ripped
 19   | (6/6) Accurately ripped
 20   | (6/6) Accurately ripped
 21   | (6/6) Accurately ripped
 22   | (6/6) Accurately ripped
 23   | (6/6) Accurately ripped
 24   | (6/6) Accurately ripped
 25   | (6/6) Accurately ripped
 26   | (6/6) Accurately ripped
[AccurateRip ID: 0048bc0c-05390020-6611ea1a] found.
Track   [  CRC   |   V2   ] Status
 01     [cad3d901|15e5f4b9] (00+11/11) Accurately ripped
 02     [7e72dbb9|7dbbf292] (00+11/11) Accurately ripped
 03     [3171fdf4|93e601bb] (00+11/11) Accurately ripped
 04     [7d461ac9|d17cf9d3] (00+11/11) Accurately ripped
 05     [6473936c|e98c47ae] (00+11/11) Accurately ripped
 06     [a87b921f|686a0dbe] (00+11/11) Accurately ripped
 07     [81ececa7|14cb7604] (00+11/11) Accurately ripped
 08     [11e8f6e8|61f397a7] (00+11/11) Accurately ripped
 09     [fef87d8a|a0425e5b] (00+11/11) Accurately ripped
 10     [16f226f1|de50a8f5] (00+11/11) Accurately ripped
 11     [ea79b465|81fcde44] (00+11/11) Accurately ripped
 12     [ccd15103|a45346b9] (00+11/11) Accurately ripped
 13     [cf8a9db9|7619a22f] (00+11/11) Accurately ripped
 14     [517a2798|99007470] (00+11/11) Accurately ripped
 15     [5abc5f6c|11e089c4] (00+11/11) Accurately ripped
 16     [f7f3b299|6729d6ca] (00+11/11) Accurately ripped
 17     [7f33a413|c6a56520] (00+11/11) Accurately ripped
 18     [9cbe732c|264bf349] (00+11/11) Accurately ripped
 19     [432c80d9|1350d4f8] (00+11/11) Accurately ripped
 20     [ea3f28a0|13bab6eb] (00+11/11) Accurately ripped
 21     [9df9c52e|34f2bc9f] (00+11/11) Accurately ripped
 22     [c3430bb1|1bc25fc5] (00+11/11) Accurately ripped
 23     [01ed8406|927f27bb] (00+11/11) Accurately ripped
 24     [1883dfab|50d7d1f6] (00+11/11) Accurately ripped
 25     [216113f9|eaf93c7c] (00+11/11) Accurately ripped
 26     [114693cf|182c196b] (00+11/11) Accurately ripped
Track Peak [ CRC32  ] [W/O NULL] [  LOG   ]
 --   98,8 [05640133] [C12F2FBC]
 01   97,7 [3CFB44C8] [24579A09]   CRC32
 02   98,8 [4798642F] [224B3403]   CRC32
 03   98,8 [A0811EB2] [E934B8A9]   CRC32
 04   98,8 [44C6324E] [4293037B]   CRC32
 05   97,7 [E693AA1D] [39ACFBC0]   CRC32
 06   98,8 [6CDA6428] [BE287E44]   CRC32
 07   98,8 [9B6439F2] [975DB3AF]   CRC32
 08   98,8 [C2C0DD49] [34A0F19F]   CRC32
 09   97,7 [D9C42500] [7A6DBB4D]   CRC32
 10   98,8 [7A2F0C98] [4F269D80]   CRC32
 11   98,8 [EC7213F6] [1493DA04]   CRC32
 12   98,8 [20A68C14] [663F04ED]   CRC32
 13   98,6 [891575B1] [6D776799]   CRC32
 14   98,8 [10E56BCD] [6F94A2C7]   CRC32
 15   98,8 [B5D32477] [497CA03E]   CRC32
 16   98,8 [73B11DE3] [D1F44829]   CRC32
 17   89,9 [BDFAF920] [ED0EB216]   CRC32
 18   98,8 [C6B96A08] [52B0892F]   CRC32
 19   98,8 [F1F1C5DE] [0768EC70]   CRC32
 20   98,8 [7631F23B] [8975FDB2]   CRC32
 21   98,8 [081415ED] [B82D6AC9]   CRC32
 22   98,8 [2D13AC28] [9660DFAD]   CRC32
 23   98,8 [D4D3B3AD] [585A460F]   CRC32
 24   98,8 [85615D49] [61778838]   CRC32
 25   98,8 [F212361D] [E97EA3AC]   CRC32
 26   97,7 [A442E4EC] [6DB20EE7]   CRC32
Код:
foobar2000 1.3.9 / Замер динамического диапазона (DR) 1.1.1
Дата отчёта:  2015-12-23 21:34:01
--------------------------------------------------------------------------------
Анализ:   Paley Brothers with The Ramones / The Complete Recordings (2013 Collection) (1)
          Paley Brothers / The Complete Recordings (2013 Collection) (2-26)
--------------------------------------------------------------------------------
DR         Пики         RMS           Продолжительность трека
--------------------------------------------------------------------------------
DR7       -0.10 дБ    -8.47 дБ      2:09 10/26-Come On Let's Go (with the Ramones)
DR5       -0.20 дБ    -7.01 дБ      3:11 1/26-Here Comes My Baby (Unreleased)
DR7       -0.10 дБ    -9.28 дБ      5:52 2/26-Meet The Invisible Man (Unreleased)
DR7       -0.10 дБ    -9.16 дБ      2:59 3/26-Too Good To Be True
DR6       -0.10 дБ    -8.66 дБ      3:11 4/26-Boomerang (Unreleased)
DR7       -0.20 дБ    -8.47 дБ      2:11 5/26-Felicia (Unreleased, live at Madison Square Garden)
DR8       -0.10 дБ    -9.10 дБ      2:33 6/26-Come Out And Play
DR6       -0.10 дБ    -8.07 дБ      2:17 7/26-She's Eighteen Tonight (Unreleased)
DR7       -0.10 дБ    -8.58 дБ      3:05 8/26-Running In The Rain (Unreleased)
DR6       -0.20 дБ    -8.76 дБ      3:47 9/26-Sapphire Eyes (Unreleased)
DR9       -0.10 дБ   -10.70 дБ      2:47 11/26-I Heard The Bluebirds Sing
DR6       -0.10 дБ    -8.52 дБ      2:42 12/26-Down The Line
DR7       -0.12 дБ    -9.56 дБ      1:54 13/26-Sheila (Unreleased, live at Madison Square Garden)
DR8       -0.10 дБ    -9.90 дБ      3:11 14/26-You're The Best
DR8       -0.10 дБ    -9.64 дБ      2:19 15/26-Stick With Me Baby
DR7       -0.10 дБ    -9.04 дБ      2:41 16/26-Hide & Seek
DR7       -0.92 дБ    -9.60 дБ      3:19 17/26-Lovin' Eyes Can't Lie
DR6       -0.10 дБ    -7.84 дБ      2:15 18/26-Spring Fever (Unreleased)
DR8       -0.10 дБ   -10.27 дБ      2:50 19/26-Rendezvous
DR7       -0.10 дБ    -8.26 дБ      2:35 20/26-Jacques Cousteau - (The Young Jacques)
DR7       -0.10 дБ    -9.39 дБ      4:19 21/26-Tell Me Tonight
DR6       -0.10 дБ    -8.93 дБ      2:57 22/26-Magic Power
DR8       -0.10 дБ   -10.63 дБ      3:12 23/26-Turn The Tide
DR6       -0.10 дБ    -8.03 дБ      2:34 24/26-Ecstasy
DR8       -0.10 дБ   -10.31 дБ      2:39 25/26-Theme From Fireball XL-5 (Unreleased)
DR7       -0.20 дБ    -8.05 дБ      2:55 26/26-Baby, Let's Stick Together (Unreleased)
--------------------------------------------------------------------------------
Количество треков: 26
Реальные значения DR: DR7
Частота:   44100 Гц
Каналов:   2
Разрядность:   16
Битрейт:   894 кбит/с
Кодек:   FLAC
================================================================================
Доп. информация
For power pop fans and aficionados of the mid-to-late-‘70s Boston and downtown New York scenes, news that at last a CD is coming out containing ALL of the sides the Paley Brothers released on the Sire label would be reason enough for rejoicing. But news that said CD also contains 11 unreleased bonus tracks drawn straight from the band’s archives…well, that’s cause for a national holiday among certain quarters of rock ‘n’ roll fandom! Andy Paley was the lead singer and songwriter for the legendary Boston band the Sidewinders and played with the Modern Lovers, while Jonathan was a member of CBGB’s fixture Mong before the siblings formed the Paley Brothers in 1975, and were signed to Sire Records soon thereafter. However, while the band was a favorite of Sire label owner Seymour Stein, and their good looks put them on the covers of teeny bopper magazines, the Paley Brothers only recorded one LP and several singles of sweetly harmonious power pop for Sire that have since become serious cult classics. The brothers then went their separate ways: Andy went on to produce and/or write for such acts as Madonna, k.d. lang, Brian Wilson, Jerry Lee Lewis, Elton John, Brenda Lee, Little Richard, and SpongeBob SquarePants, and Jonathan played with and/or produced such bands as the Nervous Eaters, the Dogmatics, Band 19, Skirt, Shrapnel, Classic Ruins, and the Reflectors as well as composing for soundtracks. Now, 35 years after the release of their lone album, the Paley Brothers are back with a collection of 26 tracks they compiled and polished in the studio, their complete recordings including the entire 1978 self-titled release on Sire produced by Earl Mankey and the singles they recorded for the label produced by Jimmy Iovine, plus the version of “Come On Let’s Go” they recorded with the Ramones that was on the Rock and Roll High School soundtrack; the song “Jacques Cousteau” they recorded under the name The Young Jacques; and 11 unreleased tracks, highlighted by two from their 1978 Madison Square Garden gig opening for Shaun Cassidy and a track they recorded for Sire, “Baby, Let’s Stick Together,” that was produced by none other than Phil Spector. Gene Sculatti’s liner notes include copious quotes from the Paley Brothers, testimonials from such luminaries as Seymour Stein, and photos from their private archive. The power pop release of the year, decade or even century!
The vastly-overlooked but totally wonderful work of The Paley Brothers – a pair of siblings with a great ear for a hook, working here in a style that's a bit power pop, a bit old school rock, and mighty tight throughout! Given that their work was issued on late 70s Sire Records, the duo were probably too cheery to catch on like their punkish contemporaries on the label – but there's a really timeless feel to the record that makes their music well worth discovering all these many years later! Songs are extremely tuneful, and really put together with a punch that hammers the hooks right home, right away – then sews things up even tighter with some sharp and catchy guitar work. These guys definitely have echoes of The Beach Boys or Everly Brothers – but they also have that same sort of energy you'd find in more underground power pop acts that were beginning to emerge at the same time. The CD brings together the singles and albums from the brothers' Sire years, plus lots of unreleased tracks, and even a few live numbers too. 26 cuts in all – with tracks that include "Down The Line", "Sheila", "Stick With Me Baby", "Hide & Seek", "Lovin Eyes Can't Lie", "Spring Fever", "Jacques Cousteau", "Too Good To Be True", "Meet The Invisible Man", and "Come Out & Play".
https://en.wikipedia.org/wiki/The_Paley_Brothers
Правила, инструкции, FAQ!!!
Торрент  Добавлен [26 мар 2019, 19:15] Скачать торрент Магнет ссылка
Скачать торрент
[ Размер 21.29 КБ / Просмотров 1 ]

Статус
Проверен 
 
Размер  476.69 МБ
Приватный: Нет (DHT включён)
.torrent скачан  0
 


     Отправить личное сообщение
   
Страница 1 из 1
Показать сообщения за:  Поле сортировки  
Начать новую тему Ответить на тему


Сейчас этот форум просматривают: нет зарегистрированных пользователей и гости: 0


Вы не можете начинать темы
Вы не можете отвечать на сообщения
Вы не можете редактировать свои сообщения
Вы не можете удалять свои сообщения
Вы не можете добавлять вложения

Перейти:  
cron