Начать новую тему Ответить на тему
Статистика раздачи
Размер: 234.02 МБ | Добавлен: 26 мар 2019, 20:07 | Скачали: 0
Сидеров: 0  [0 байт/сек]    Личеров: 0  [0 байт/сек]
Пред. тема | След. тема 

Автор
Сообщение

СообщениеДобавлено: 26 мар 2019, 20:07 

Ответить с цитатой 

Pugwash - Eleven Modern Antiquities
Жанр: Power Pop
Год выпуска диска: 2008
Производитель диска: Ireland
Аудио кодек: FLAC
Тип рипа: tracks+.cue
Битрейт аудио: lossless
Продолжительность: 37:27
Трэклист:
01. Take Me Away (3:35)
02. Cluster Bomb (2:46)
03. Here (3:14)
04. Its So Fine (3:25)
05. Song For You (2:51)
06. My Genius (4:06)
07. Limerance (3:46)
08. Your Friend (3:09)
09. The Cannon And The Bell (1:48)
10. At The Sea (3:19)
11. Landsdowne Valley (5:28)
Доп. информация: What.cd
REM GENRE Rock
REM DATE 2008
REM DISCID 9708CC0B
REM COMMENT "ExactAudioCopy v0.99pb4"
FILE "Pugwash - [2008] - Eleven Modern Antiquities [FLAC]\01 - Pugwash - Take Me Away.wav" WAVE
TRACK 01 AUDIO
INDEX 01 00:00:00
FILE "Pugwash - [2008] - Eleven Modern Antiquities [FLAC]\02 - Pugwash - Cluster Bomb.wav" WAVE
TRACK 02 AUDIO
INDEX 01 00:00:00
FILE "Pugwash - [2008] - Eleven Modern Antiquities [FLAC]\03 - Pugwash - Here.wav" WAVE
TRACK 03 AUDIO
INDEX 01 00:00:00
FILE "Pugwash - [2008] - Eleven Modern Antiquities [FLAC]\04 - Pugwash - It's So Fine.wav" WAVE
TRACK 04 AUDIO
INDEX 01 00:00:00
FILE "Pugwash - [2008] - Eleven Modern Antiquities [FLAC]\05 - Pugwash - Song for You.wav" WAVE
TRACK 05 AUDIO
INDEX 01 00:00:00
FILE "Pugwash - [2008] - Eleven Modern Antiquities [FLAC]\06 - Pugwash - My Genius.wav" WAVE
TRACK 06 AUDIO
INDEX 01 00:00:00
FILE "Pugwash - [2008] - Eleven Modern Antiquities [FLAC]\07 - Pugwash - Limerance.wav" WAVE
TRACK 07 AUDIO
INDEX 01 00:00:00
FILE "Pugwash - [2008] - Eleven Modern Antiquities [FLAC]\08 - Pugwash - Your Friend.wav" WAVE
TRACK 08 AUDIO
INDEX 01 00:00:00
FILE "Pugwash - [2008] - Eleven Modern Antiquities [FLAC]\09 - Pugwash - The Cannon and the Bell.wav" WAVE
TRACK 09 AUDIO
INDEX 01 00:00:00
FILE "Pugwash - [2008] - Eleven Modern Antiquities [FLAC]\10 - Pugwash - At the Sea.wav" WAVE
TRACK 10 AUDIO
INDEX 01 00:00:00
FILE "Pugwash - [2008] - Eleven Modern Antiquities [FLAC]\11 - Pugwash - Landsdowne Valley.wav" WAVE
TRACK 11 AUDIO
INDEX 01 00:00:00
Exact Audio Copy V0.99 prebeta 4 from 23. January 2008
EAC extraction logfile from 4. August 2009, 14:02
Pugwash / Eleven Modern Antiquities
Used drive : TSSTcorpCDDVDW SH-S223F Adapter: 5 ID: 0
Read mode : Secure
Utilize accurate stream : Yes
Defeat audio cache : Yes
Make use of C2 pointers : No
Read offset correction : 6
Overread into Lead-In and Lead-Out : No
Fill up missing offset samples with silence : Yes
Delete leading and trailing silent blocks : No
Null samples used in CRC calculations : Yes
Used interface : Native Win32 interface for Win NT & 2000
Gap handling : Appended to previous track
Used output format : User Defined Encoder
Selected bitrate : 1024 kBit/s
Quality : High
Add ID3 tag : No
Command line compressor : C:\Program Files (x86)\Exact Audio Copy\FLAC\FLAC.EXE
Additional command line options : -V -8 -T "artist=%a" -T "title=%t" -T "album=%g" -T "date=%y" -T "tracknumber=%n" -T "genre=%m" %s
TOC of the extracted CD
Track | Start | Length | Start sector | End sector
---------------------------------------------------------
1 | 0:00.00 | 3:35.37 | 0 | 16161
2 | 3:35.37 | 2:46.35 | 16162 | 28646
3 | 6:21.72 | 3:14.45 | 28647 | 43241
4 | 9:36.42 | 3:25.10 | 43242 | 58626
5 | 13:01.52 | 2:51.48 | 58627 | 71499
6 | 15:53.25 | 4:06.20 | 71500 | 89969
7 | 19:59.45 | 3:46.47 | 89970 | 106966
8 | 23:46.17 | 3:09.58 | 106967 | 121199
9 | 26:56.00 | 1:48.10 | 121200 | 129309
10 | 28:44.10 | 3:19.27 | 129310 | 144261
11 | 32:03.37 | 5:28.40 | 144262 | 168901
Track 1
Filename M:\F L A C R I P S 3\VA\Pugwash - [2008] - Eleven Modern Antiquities [FLAC]\01 - Pugwash - Take Me Away.wav
Pre-gap length 0:00:02.00
Copy aborted
Track 2
Copy aborted
Track 3
Copy aborted
Track 4
Copy aborted
Track 5
Copy aborted
Track 6
Copy aborted
Track 7
Copy aborted
Track 8
Copy aborted
Track 9
Copy aborted
Track 10
Copy aborted
Track 11
Copy aborted
No tracks could be verified as accurate
There were errors
End of status report
------------------------------------------------------------
Exact Audio Copy V0.99 prebeta 4 from 23. January 2008
EAC extraction logfile from 4. August 2009, 14:36
Pugwash / Eleven Modern Antiquities
Used drive : TSSTcorpCDDVDW SH-S223F Adapter: 5 ID: 0
Read mode : Secure
Utilize accurate stream : Yes
Defeat audio cache : Yes
Make use of C2 pointers : No
Read offset correction : 6
Overread into Lead-In and Lead-Out : No
Fill up missing offset samples with silence : Yes
Delete leading and trailing silent blocks : No
Null samples used in CRC calculations : Yes
Used interface : Native Win32 interface for Win NT & 2000
Gap handling : Appended to previous track
Used output format : User Defined Encoder
Selected bitrate : 1024 kBit/s
Quality : High
Add ID3 tag : No
Command line compressor : C:\Program Files (x86)\Exact Audio Copy\FLAC\FLAC.EXE
Additional command line options : -V -8 -T "artist=%a" -T "title=%t" -T "album=%g" -T "date=%y" -T "tracknumber=%n" -T "genre=%m" %s
TOC of the extracted CD
Track | Start | Length | Start sector | End sector
---------------------------------------------------------
1 | 0:00.00 | 3:35.37 | 0 | 16161
2 | 3:35.37 | 2:46.35 | 16162 | 28646
3 | 6:21.72 | 3:14.45 | 28647 | 43241
4 | 9:36.42 | 3:25.10 | 43242 | 58626
5 | 13:01.52 | 2:51.48 | 58627 | 71499
6 | 15:53.25 | 4:06.20 | 71500 | 89969
7 | 19:59.45 | 3:46.47 | 89970 | 106966
8 | 23:46.17 | 3:09.58 | 106967 | 121199
9 | 26:56.00 | 1:48.10 | 121200 | 129309
10 | 28:44.10 | 3:19.27 | 129310 | 144261
11 | 32:03.37 | 5:28.40 | 144262 | 168901
Track 1
Filename M:\F L A C R I P S 3\VA\Pugwash - [2008] - Eleven Modern Antiquities [FLAC]\01 - Pugwash - Take Me Away.wav
Pre-gap length 0:00:02.00
Peak level 95.6 %
Track quality 99.9 %
Test CRC E793282B
Copy CRC E793282B
Accurately ripped (confidence 4) [DD5C912C]
Copy OK
Track 2
Filename M:\F L A C R I P S 3\VA\Pugwash - [2008] - Eleven Modern Antiquities [FLAC]\02 - Pugwash - Cluster Bomb.wav
Peak level 100.0 %
Track quality 100.0 %
Test CRC 038EF5F6
Copy CRC 038EF5F6
Accurately ripped (confidence 4) [87BCCA54]
Copy OK
Track 3
Filename M:\F L A C R I P S 3\VA\Pugwash - [2008] - Eleven Modern Antiquities [FLAC]\03 - Pugwash - Here.wav
Peak level 98.1 %
Track quality 99.9 %
Test CRC BF2DD519
Copy CRC BF2DD519
Accurately ripped (confidence 4) [A8BD72B1]
Copy OK
Track 4
Filename M:\F L A C R I P S 3\VA\Pugwash - [2008] - Eleven Modern Antiquities [FLAC]\04 - Pugwash - It's So Fine.wav
Peak level 94.0 %
Track quality 100.0 %
Test CRC F4BDDAEC
Copy CRC F4BDDAEC
Accurately ripped (confidence 4) [2E816FCF]
Copy OK
Track 5
Filename M:\F L A C R I P S 3\VA\Pugwash - [2008] - Eleven Modern Antiquities [FLAC]\05 - Pugwash - Song for You.wav
Peak level 95.7 %
Track quality 100.0 %
Test CRC 6178EEAC
Copy CRC 6178EEAC
Accurately ripped (confidence 4) [9A2AADC1]
Copy OK
Track 6
Filename M:\F L A C R I P S 3\VA\Pugwash - [2008] - Eleven Modern Antiquities [FLAC]\06 - Pugwash - My Genius.wav
Peak level 87.5 %
Track quality 100.0 %
Test CRC 7B58B333
Copy CRC 7B58B333
Accurately ripped (confidence 4) [A0D448B7]
Copy OK
Track 7
Filename M:\F L A C R I P S 3\VA\Pugwash - [2008] - Eleven Modern Antiquities [FLAC]\07 - Pugwash - Limerance.wav
Peak level 97.8 %
Track quality 100.0 %
Test CRC A42D6DD2
Copy CRC A42D6DD2
Accurately ripped (confidence 3) [EF9B2BB0]
Copy OK
Track 8
Filename M:\F L A C R I P S 3\VA\Pugwash - [2008] - Eleven Modern Antiquities [FLAC]\08 - Pugwash - Your Friend.wav
Peak level 90.2 %
Track quality 100.0 %
Test CRC 72968468
Copy CRC 72968468
Accurately ripped (confidence 4) [89B5EC6D]
Copy OK
Track 9
Filename M:\F L A C R I P S 3\VA\Pugwash - [2008] - Eleven Modern Antiquities [FLAC]\09 - Pugwash - The Cannon and the Bell.wav
Peak level 81.5 %
Track quality 100.0 %
Test CRC B973E8B8
Copy CRC B973E8B8
Accurately ripped (confidence 4) [2E526F4F]
Copy OK
Track 10
Filename M:\F L A C R I P S 3\VA\Pugwash - [2008] - Eleven Modern Antiquities [FLAC]\10 - Pugwash - At the Sea.wav
Peak level 95.0 %
Track quality 100.0 %
Test CRC B68F7CFE
Copy CRC B68F7CFE
Accurately ripped (confidence 4) [AB5B1E09]
Copy OK
Track 11
Filename M:\F L A C R I P S 3\VA\Pugwash - [2008] - Eleven Modern Antiquities [FLAC]\11 - Pugwash - Landsdowne Valley.wav
Peak level 95.5 %
Track quality 100.0 %
Test CRC 9109B7C0
Copy CRC 9109B7C0
Accurately ripped (confidence 4) [584B4C3C]
Copy OK
All tracks accurately ripped
No errors occurred
End of status report
Правила, инструкции, FAQ!!!
Торрент  Добавлен [26 мар 2019, 20:07] Скачать торрент Магнет ссылка
Скачать торрент
[ Размер 19.6 КБ / Просмотров 0 ]

Статус
Проверен 
 
Размер  234.02 МБ
Приватный: Нет (DHT включён)
.torrent скачан  0
 


     Отправить личное сообщение
   
Страница 1 из 1
Показать сообщения за:  Поле сортировки  
Начать новую тему Ответить на тему


Сейчас этот форум просматривают: нет зарегистрированных пользователей и гости: 0


Вы не можете начинать темы
Вы не можете отвечать на сообщения
Вы не можете редактировать свои сообщения
Вы не можете удалять свои сообщения
Вы не можете добавлять вложения

Перейти:  
cron