Начать новую тему Ответить на тему
Статистика раздачи
Размер: 257.16 МБ | Добавлен: 15 май 2020, 16:39 | Скачали: 0
Сидеров: 0  [0 байт/сек]    Личеров: 0  [0 байт/сек]
Пред. тема | След. тема 

Автор
Сообщение

СообщениеДобавлено: 15 май 2020, 16:39 

Ответить с цитатой 

The Romantics / Rhythm Romance
Жанр: Power Pop/Pop Rock
Носитель: CD
Страна-производитель диска (релиза): USA
Год издания: 1985
Издатель (лейбл): Nemperor Records
Номер по каталогу: ZK 40106
Страна исполнителя (группы): USA
Аудиокодек: FLAC (*.flac)
Тип рипа: tracks+.cue
Продолжительность: 00:35:37
Источник: private tracker
Наличие сканов в содержимом раздачи: нет

Треклист:
01. Let's Get Started
02. Mystified
03. Be My Everything
04. Test Of Time
05. I Got It If You Want It
06. Rhythm Romance
07. Never Thought It Would Be Like This
08. Better Make A Move
09. Make It Last
10. Poison Ivy
Код:
Exact Audio Copy V1.1 from 23. June 2015
EAC extraction logfile from 12. March 2016, 20:42
The Romantics / Rhythm Romance
Used drive  : HL-DT-STBD-RE  WH14NS40   Adapter: 1  ID: 0
Read mode               : Secure
Utilize accurate stream : Yes
Defeat audio cache      : Yes
Make use of C2 pointers : No
Read offset correction                      : 6
Overread into Lead-In and Lead-Out          : No
Fill up missing offset samples with silence : Yes
Delete leading and trailing silent blocks   : No
Null samples used in CRC calculations       : Yes
Used interface                              : Native Win32 interface for Win NT & 2000
Gap handling                                : Appended to previous track
Used output format              : User Defined Encoder
Selected bitrate                : 1024 kBit/s
Quality                         : High
Add ID3 tag                     : No
Command line compressor         : C:\Program Files (x86)\Exact Audio Copy\Flac\flac.exe
Additional command line options : -8 -e -V -T "ARTIST=%artist%" -T "TITLE=%title%" -T "ALBUM=%albumtitle%" -T "DATE=%year%" -T "TRACKNUMBER=%tracknr%" -T "GENRE=%genre%" -T "PERFORMER=%albuminterpret%" -T "COMPOSER=%composer%" %haslyrics%--tag-from-file=LYRICS="%lyricsfile%"%haslyrics% -T "ALBUMARTIST=%albumartist%" -T "DISCNUMBER=%cdnumber%" -T "TOTALDISCS=%totalcds%" -T "TOTALTRACKS=%numtracks%" -T "COMMENT=%comment%" %source% -o %dest%
TOC of the extracted CD
     Track |   Start  |  Length  | Start sector | End sector
    ---------------------------------------------------------
        1  |  0:00.00 |  4:00.02 |         0    |    18001
        2  |  4:00.02 |  3:33.03 |     18002    |    33979
        3  |  7:33.05 |  3:53.52 |     33980    |    51506
        4  | 11:26.57 |  3:24.03 |     51507    |    66809
        5  | 14:50.60 |  3:28.10 |     66810    |    82419
        6  | 18:18.70 |  3:48.00 |     82420    |    99519
        7  | 22:06.70 |  3:34.47 |     99520    |   115616
        8  | 25:41.42 |  3:19.55 |    115617    |   130596
        9  | 29:01.22 |  3:41.28 |    130597    |   147199
       10  | 32:42.50 |  2:57.32 |    147200    |   160506
Track  1
     Filename C:\EAC\Rips\The Romantics - Rhythm Romance (1985) [FLAC]\01 - Let's Get Started.wav
     Pre-gap length  0:00:02.00
     Peak level 93.7 %
     Extraction speed 1.8 X
     Track quality 99.9 %
     Test CRC 6F36AB6C
     Copy CRC 6F36AB6C
     Accurately ripped (confidence 3)  [D6F035F7]  (AR v2)
     Copy OK
Track  2
     Filename C:\EAC\Rips\The Romantics - Rhythm Romance (1985) [FLAC]\02 - Mystified.wav
     Peak level 91.0 %
     Extraction speed 2.2 X
     Track quality 100.0 %
     Test CRC 9865D511
     Copy CRC 9865D511
     Accurately ripped (confidence 3)  [39D657E3]  (AR v2)
     Copy OK
Track  3
     Filename C:\EAC\Rips\The Romantics - Rhythm Romance (1985) [FLAC]\03 - Be My Everything.wav
     Peak level 87.8 %
     Extraction speed 2.1 X
     Track quality 99.9 %
     Test CRC 382B12D1
     Copy CRC 382B12D1
     Accurately ripped (confidence 3)  [EE1E760A]  (AR v2)
     Copy OK
Track  4
     Filename C:\EAC\Rips\The Romantics - Rhythm Romance (1985) [FLAC]\04 - Test of Time.wav
     Pre-gap length  0:00:01.16
     Peak level 95.3 %
     Extraction speed 2.5 X
     Track quality 100.0 %
     Test CRC CCEA2BB9
     Copy CRC CCEA2BB9
     Accurately ripped (confidence 3)  [24C6A222]  (AR v2)
     Copy OK
Track  5
     Filename C:\EAC\Rips\The Romantics - Rhythm Romance (1985) [FLAC]\05 - I Got It If You Want It.wav
     Pre-gap length  0:00:00.77
     Peak level 87.9 %
     Extraction speed 2.3 X
     Track quality 99.9 %
     Test CRC B5630147
     Copy CRC B5630147
     Accurately ripped (confidence 3)  [F8C96C8A]  (AR v2)
     Copy OK
Track  6
     Filename C:\EAC\Rips\The Romantics - Rhythm Romance (1985) [FLAC]\06 - Rhythm Romance.wav
     Pre-gap length  0:00:01.46
     Peak level 93.6 %
     Extraction speed 2.8 X
     Track quality 100.0 %
     Test CRC 77043944
     Copy CRC 77043944
     Accurately ripped (confidence 3)  [5CD4C28D]  (AR v2)
     Copy OK
Track  7
     Filename C:\EAC\Rips\The Romantics - Rhythm Romance (1985) [FLAC]\07 - Never Thought It Would Be Like This.wav
     Peak level 71.5 %
     Extraction speed 2.9 X
     Track quality 100.0 %
     Test CRC 250DB14A
     Copy CRC 250DB14A
     Accurately ripped (confidence 3)  [9636DBB8]  (AR v2)
     Copy OK
Track  8
     Filename C:\EAC\Rips\The Romantics - Rhythm Romance (1985) [FLAC]\08 - Better Make a Move.wav
     Peak level 80.2 %
     Extraction speed 3.0 X
     Track quality 100.0 %
     Test CRC FA56919E
     Copy CRC FA56919E
     Accurately ripped (confidence 3)  [6BBAAC38]  (AR v2)
     Copy OK
Track  9
     Filename C:\EAC\Rips\The Romantics - Rhythm Romance (1985) [FLAC]\09 - Make It Last.wav
     Peak level 88.3 %
     Extraction speed 1.8 X
     Track quality 100.0 %
     Test CRC 247304E8
     Copy CRC 247304E8
     Accurately ripped (confidence 3)  [8CC86F55]  (AR v2)
     Copy OK
Track 10
     Filename C:\EAC\Rips\The Romantics - Rhythm Romance (1985) [FLAC]\10 - Poison Ivy.wav
     Peak level 78.4 %
     Extraction speed 1.8 X
     Track quality 100.0 %
     Test CRC 1564A7B2
     Copy CRC 1564A7B2
     Accurately ripped (confidence 3)  [C256C0A8]  (AR v2)
     Copy OK
All tracks accurately ripped
No errors occurred
End of status report
---- CUETools DB Plugin V2.1.6
[CTDB TOCID: L3OZESK8.DM1uyBxlmBZH1Y2t3c-] disk not present in database
Submit result: L3OZESK8.DM1uyBxlmBZH1Y2t3c- has been uploaded
==== Log checksum 739AC94C562639EC984D11F2115E14F6A16AC0B51AD387615D1B509173535222 ====
Код:
REM GENRE Rock
REM DATE 1985
REM DISCID 81085C0A
REM COMMENT "ExactAudioCopy v1.1"
PERFORMER "The Romantics"
TITLE "Rhythm Romance"
FILE "01 - Let's Get Started.wav" WAVE
  TRACK 01 AUDIO
    TITLE "Let's Get Started"
    PERFORMER "The Romantics"
    INDEX 01 00:00:00
FILE "02 - Mystified.wav" WAVE
  TRACK 02 AUDIO
    TITLE "Mystified"
    PERFORMER "The Romantics"
    INDEX 01 00:00:00
FILE "03 - Be My Everything.wav" WAVE
  TRACK 03 AUDIO
    TITLE "Be My Everything"
    PERFORMER "The Romantics"
    INDEX 01 00:00:00
  TRACK 04 AUDIO
    TITLE "Test of Time"
    PERFORMER "The Romantics"
    INDEX 00 03:52:40
FILE "04 - Test of Time.wav" WAVE
    INDEX 01 00:00:00
  TRACK 05 AUDIO
    TITLE "I Got It If You Want It"
    PERFORMER "The Romantics"
    INDEX 00 03:23:20
FILE "05 - I Got It If You Want It.wav" WAVE
    INDEX 01 00:00:00
  TRACK 06 AUDIO
    TITLE "Rhythm Romance"
    PERFORMER "The Romantics"
    INDEX 00 03:26:50
FILE "06 - Rhythm Romance.wav" WAVE
    INDEX 01 00:00:00
FILE "07 - Never Thought It Would Be Like This.wav" WAVE
  TRACK 07 AUDIO
    TITLE "Never Thought It Would Be Like This"
    PERFORMER "The Romantics"
    INDEX 01 00:00:00
FILE "08 - Better Make a Move.wav" WAVE
  TRACK 08 AUDIO
    TITLE "Better Make a Move"
    PERFORMER "The Romantics"
    INDEX 01 00:00:00
FILE "09 - Make It Last.wav" WAVE
  TRACK 09 AUDIO
    TITLE "Make It Last"
    PERFORMER "The Romantics"
    INDEX 01 00:00:00
FILE "10 - Poison Ivy.wav" WAVE
  TRACK 10 AUDIO
    TITLE "Poison Ivy"
    PERFORMER "The Romantics"
    INDEX 01 00:00:00
Код:
[CUETools log; Date: 08.05.2020 13:20:14; Version: 2.1.5]
[CTDB TOCID: L3OZESK8.DM1uyBxlmBZH1Y2t3c-] found.
Track | CTDB Status
  1   | (9/9) Accurately ripped
  2   | (9/9) Accurately ripped
  3   | (9/9) Accurately ripped
  4   | (9/9) Accurately ripped
  5   | (9/9) Accurately ripped
  6   | (9/9) Accurately ripped
  7   | (9/9) Accurately ripped
  8   | (9/9) Accurately ripped
  9   | (9/9) Accurately ripped
 10   | (9/9) Accurately ripped
[AccurateRip ID: 000dd3b0-006df89d-81085c0a] found.
Track   [  CRC   |   V2   ] Status
 01     [d7d9dd28|d6f035f7] (06+07/13) Accurately ripped
 02     [946ce732|39d657e3] (06+07/13) Accurately ripped
 03     [f0941d8d|ee1e760a] (06+07/13) Accurately ripped
 04     [81907f0d|24c6a222] (06+07/13) Accurately ripped
 05     [2f2be516|f8c96c8a] (06+07/13) Accurately ripped
 06     [11159a21|5cd4c28d] (06+07/13) Accurately ripped
 07     [6ddc65ac|9636dbb8] (06+07/13) Accurately ripped
 08     [2d2987a7|6bbaac38] (06+07/13) Accurately ripped
 09     [a528e2d6|8cc86f55] (06+07/13) Accurately ripped
 10     [e3a0dfe2|c256c0a8] (06+07/13) Accurately ripped
Track Peak [ CRC32  ] [W/O NULL] [  LOG   ]
 --   95,3 [37EE58AF] [4543D12C]
 01   93,7 [6F36AB6C] [BDC7D70A]   CRC32
 02   91,0 [9865D511] [6B276C55]   CRC32
 03   87,8 [382B12D1] [62DB8055]   CRC32
 04   95,3 [CCEA2BB9] [3FA7BE69]   CRC32
 05   87,9 [B5630147] [21B7CE43]   CRC32
 06   93,6 [77043944] [C1CEE5A2]   CRC32
 07   71,5 [250DB14A] [1BB85BBA]   CRC32
 08   80,2 [FA56919E] [1EA7BEE5]   CRC32
 09   88,3 [247304E8] [7D5C5252]   CRC32
 10   78,4 [1564A7B2] [E38F1044]   CRC32
Правила, инструкции, FAQ!!!
Торрент  Добавлен [15 май 2020, 16:39] Скачать торрент Магнет ссылка
Скачать торрент
[ Размер 11.41 КБ / Просмотров 6 ]

Статус
Проверен 
 
Размер  257.16 МБ
Приватный: Нет (DHT включён)
.torrent скачан  0
 


     Отправить личное сообщение
   
Страница 1 из 1
Показать сообщения за:  Поле сортировки  
Начать новую тему Ответить на тему


Сейчас этот форум просматривают: нет зарегистрированных пользователей и гости: 0


Вы не можете начинать темы
Вы не можете отвечать на сообщения
Вы не можете редактировать свои сообщения
Вы не можете удалять свои сообщения
Вы не можете добавлять вложения

Перейти:  
cron