Начать новую тему Ответить на тему
Статистика раздачи
Размер: 297.76 МБ | Добавлен: 26 мар 2019, 18:54 | Скачали: 0
Сидеров: 0  [0 байт/сек]    Личеров: 0  [0 байт/сек]
Пред. тема | След. тема 

Автор
Сообщение

СообщениеДобавлено: 26 мар 2019, 18:54 

Ответить с цитатой 

Cinema Star - Stay Gold
Жанр: Power Pop, Pop Rock
Страна-производитель диска: USA
Год издания диска: 2003
Издатель (лейбл): Cinema Star
Номер по каталогу: CS2162
Страна: USA
Аудиокодек: FLAC (*.flac)
Тип рипа: image+.cue
Битрейт аудио: lossless
Продолжительность: 00:44:15
Источник (релизер): Sket4er
Наличие сканов в содержимом раздачи:
Треклист:
01. Enough to Make You See 06:12
02. Lead You Home 03:55
03. The Difference 03:51
04. Watch the Waves 06:04
05. Feels Good Now 03:33
06. Widescreen 04:38
07. Remember the Melody 04:26
08. Life in the Dark 01:22
09. Ready to Learn 04:44
10. All for Nothing 05:15
Код:
Exact Audio Copy V1.1 from 23. June 2015
EAC extraction logfile from 22. September 2016, 14:53
Cinema Star / Stay Gold
Used drive  : TSSTcorpCDDVDW SH-224DB   Adapter: 1  ID: 0
Read mode               : Secure
Utilize accurate stream : Yes
Defeat audio cache      : Yes
Make use of C2 pointers : No
Read offset correction                      : 6
Overread into Lead-In and Lead-Out          : No
Fill up missing offset samples with silence : Yes
Delete leading and trailing silent blocks   : No
Null samples used in CRC calculations       : Yes
Used interface                              : Native Win32 interface for Win NT & 2000
Used output format              : User Defined Encoder
Selected bitrate                : 1024 kBit/s
Quality                         : High
Add ID3 tag                     : No
Command line compressor         : C:\Program Files (x86)\Exact Audio Copy\win64\flac.exe
Additional command line options :  -V -8 -T "Date=%year%" -T "Genre=%genre%" %source%
TOC of the extracted CD
     Track |   Start  |  Length  | Start sector | End sector
    ---------------------------------------------------------
        1  |  0:00.00 |  6:12.13 |         0    |    27912
        2  |  6:12.13 |  3:55.29 |     27913    |    45566
        3  | 10:07.42 |  3:51.61 |     45567    |    62952
        4  | 13:59.28 |  6:04.60 |     62953    |    90312
        5  | 20:04.13 |  3:33.05 |     90313    |   106292
        6  | 23:37.18 |  4:38.68 |    106293    |   127210
        7  | 28:16.11 |  4:26.47 |    127211    |   147207
        8  | 32:42.58 |  1:22.01 |    147208    |   153358
        9  | 34:04.59 |  4:44.67 |    153359    |   174725
       10  | 38:49.51 |  5:15.20 |    174726    |   198370
Range status and errors
Selected range
     Filename C:\Sket4er\Cinema Star - Stay Gold (2003)\Cinema Star - Stay Gold.wav
     Peak level 98.6 %
     Extraction speed 2.7 X
     Range quality 100.0 %
     Test CRC 2759F0E7
     Copy CRC 2759F0E7
     Copy OK
No errors occurred
AccurateRip summary
Track  1  not present in database
Track  2  not present in database
Track  3  not present in database
Track  4  not present in database
Track  5  not present in database
Track  6  not present in database
Track  7  not present in database
Track  8  not present in database
Track  9  not present in database
Track 10  not present in database
None of the tracks are present in the AccurateRip database
End of status report
---- CUETools DB Plugin V2.1.6
[CTDB TOCID: LzJxu54U6wNnDqGxM6_ladSg8d8-] disk not present in database
Submit result: LzJxu54U6wNnDqGxM6_ladSg8d8- has been uploaded
==== Log checksum 89986BCF81229C7401FAB8502518FC178088A12B73087EFE051414C94462A19B ====
Код:
REM GENRE Rock
REM DATE 2003
REM DISCID 850A540A
REM COMMENT "ExactAudioCopy v1.1"
PERFORMER "Cinema Star"
TITLE "Stay Gold"
FILE "Cinema Star - Stay Gold.flac" WAVE
  TRACK 01 AUDIO
    TITLE "Enough to Make You See"
    PERFORMER "Cinema Star"
    INDEX 01 00:00:00
  TRACK 02 AUDIO
    TITLE "Lead You Home"
    PERFORMER "Cinema Star"
    INDEX 01 06:12:13
  TRACK 03 AUDIO
    TITLE "The Difference"
    PERFORMER "Cinema Star"
    INDEX 01 10:07:42
  TRACK 04 AUDIO
    TITLE "Watch the Waves"
    PERFORMER "Cinema Star"
    INDEX 01 13:59:28
  TRACK 05 AUDIO
    TITLE "Feels Good Now"
    PERFORMER "Cinema Star"
    INDEX 01 20:04:13
  TRACK 06 AUDIO
    TITLE "Widescreen"
    PERFORMER "Cinema Star"
    INDEX 01 23:37:18
  TRACK 07 AUDIO
    TITLE "Remember the Melody"
    PERFORMER "Cinema Star"
    INDEX 01 28:16:11
  TRACK 08 AUDIO
    TITLE "Life in the Dark"
    PERFORMER "Cinema Star"
    INDEX 01 32:42:58
  TRACK 09 AUDIO
    TITLE "Ready to Learn"
    PERFORMER "Cinema Star"
    INDEX 01 34:04:59
  TRACK 10 AUDIO
    TITLE "All for Nothing"
    PERFORMER "Cinema Star"
    INDEX 01 38:49:51
Код:
-----------------------
DON'T MODIFY THIS FILE
-----------------------
PERFORMER: auCDtect Task Manager, ver. 1.5.1RC4 build 1.5.1.5
Copyright (c) 2008-2010 y-soft. All rights reserved
[url=http://y-soft.org]http://y-soft.org[/url]
ANALYZER: auCDtect: CD records authenticity detector, version 0.8.2
Copyright (c) 2004 Oleg Berngardt. All rights reserved.
Copyright (c) 2004 Alexander Djourik. All rights reserved.
FILE: Cinema Star - Stay Gold.flac
  Size: 310970038 Hash: 1053DE79BCBBCF17F5441747E894ADB6 Accuracy: -m0
  Conclusion: CDDA 100%
  Signature: D15360DED2D999C20A534CDE009A951D4096F1AF
Код:
[CUETools log; Date: 23.09.2016 22:06:29; Version: 2.1.4]
[CTDB TOCID: LzJxu54U6wNnDqGxM6_ladSg8d8-] found.
Track | CTDB Status
  1   | (1/1) Accurately ripped
  2   | (1/1) Accurately ripped
  3   | (1/1) Accurately ripped
  4   | (1/1) Accurately ripped
  5   | (1/1) Accurately ripped
  6   | (1/1) Accurately ripped
  7   | (1/1) Accurately ripped
  8   | (1/1) Accurately ripped
  9   | (1/1) Accurately ripped
 10   | (1/1) Accurately ripped
[AccurateRip ID: 00114d5a-0087fa10-850a540a] disk not present in database.
Track Peak [ CRC32  ] [W/O NULL] [  LOG   ]
 --   98,6 [2759F0E7] [21FE022E]   CRC32
 01   97,4 [1C971BE7] [18743E5A]
 02   97,4 [90BD4DCA] [5F0CA776]
 03   97,3 [6AA048B2] [A190F8E1]
 04   97,6 [582B0FB4] [22ABE719]
 05   97,1 [F799CBE0] [E1A86A5B]
 06   97,3 [D8857EE8] [78B3CFCF]
 07   96,3 [9A53DF9D] [FE7E2826]
 08   78,2 [D44CB379] [B1CB5842]
 09   98,6 [824C0DA2] [9B30D27E]
 10   97,8 [8A107849] [1D1030C7]
Код:
foobar2000 1.3.9 / Замер динамического диапазона (DR) 1.1.1
Дата отчёта:  2016-09-23 21:20:35
--------------------------------------------------------------------------------
Анализ:   Cinema Star / Stay Gold
--------------------------------------------------------------------------------
DR         Пики         RMS           Продолжительность трека
--------------------------------------------------------------------------------
DR7       -0.22 дБ    -8.33 дБ      6:12 1-Enough to Make You See
DR6       -0.23 дБ    -7.03 дБ      3:55 2-Lead You Home
DR6       -0.23 дБ    -8.23 дБ      3:52 3-The Difference
DR7       -0.21 дБ    -8.49 дБ      6:05 4-Watch the Waves
DR6       -0.25 дБ    -8.65 дБ      3:33 5-Feels Good Now
DR7       -0.23 дБ    -8.12 дБ      4:39 6-Widescreen
DR6       -0.32 дБ    -7.43 дБ      4:27 7-Remember the Melody
DR6       -2.13 дБ   -10.41 дБ      1:22 8-Life in the Dark
DR7       -0.11 дБ    -9.67 дБ      4:45 9-Ready to Learn
DR6       -0.19 дБ    -8.22 дБ      5:15 10-All for Nothing
--------------------------------------------------------------------------------
Количество треков: 10
Реальные значения DR: DR6
Частота:   44100 Гц
Каналов:   2
Разрядность:   16
Битрейт:   940 кбит/с
Кодек:   FLAC
================================================================================
Доп. информация
Ken Heim - Vocals, Guitar
Randy Heim - Guitar, Vocals
Keith Shapiro - Bass, Guitar
Daryn Mount - Drums
Stay Gold album for sale by Cinema Star was released Jun 17, 2003 on the Cinema Star label. This is the first full-length CD from New Jersey's Cinema Star. Stay Gold buy CD music The band was formed in early 1999 and has been playing live and recording ever since. Stay Gold songs Cinema Star has released a 3 song demo titled "Gallery" in 1999 and an EP entitled "Widescreen" in 2001. Stay Gold album for sale One of the bands songs, "clone", won a runner up award in the rock category of the 2001 John Lennon Songwriting Contest. Stay Gold CD music The band has opened for some national acts including Remy Zero and South from the UK. Stay Gold buy CD music This album is a culmination of some of the songs the band has been playing live over the past years. Recorded over the end of the summer / into winter of 2002.
Melodic vocals and harmony over crunchy guitars, throbbing bass, and pounding drums. Not quite full-on "Emo", not quite full-on "power-pop" or "rock"... but somewhere happily in-between.
http://www.cduniverse.com/productinfo.asp?pid=7186815
http://www.allmusic.com/album/stay-gold-mw0000288071
http://www.cdbaby.com/cd/cinemastar
Правила, инструкции, FAQ!!!
Торрент  Добавлен [26 мар 2019, 18:54] Скачать торрент Магнет ссылка
Скачать торрент
[ Размер 12.46 КБ / Просмотров 0 ]

Статус
Проверен 
 
Размер  297.76 МБ
Приватный: Нет (DHT включён)
.torrent скачан  0
 


     Отправить личное сообщение
   
Страница 1 из 1
Показать сообщения за:  Поле сортировки  
Начать новую тему Ответить на тему


Сейчас этот форум просматривают: нет зарегистрированных пользователей и гости: 0


Вы не можете начинать темы
Вы не можете отвечать на сообщения
Вы не можете редактировать свои сообщения
Вы не можете удалять свои сообщения
Вы не можете добавлять вложения

Перейти:  
cron