Начать новую тему Ответить на тему
Статистика раздачи
Размер: 519.78 МБ | Добавлен: 26 мар 2019, 18:39 | Скачали: 0
Сидеров: 0  [0 байт/сек]    Личеров: 0  [0 байт/сек]
Пред. тема | След. тема 

Автор
Сообщение

СообщениеДобавлено: 26 мар 2019, 18:39 

Ответить с цитатой 

Artist Vs Poet - Дискография (2008-2010)


Жанр: Power Pop | Pop Punk || Год выпуска дисков: 2008-2010 || Страна: Dallas, Texas, U.S.A. || Аудио кодек: FLAC || Тип рипа: tracks+.cue || Битрейт аудио: lossless || Источник: what.cd (100%)
Members:
• Joe Kirkland - Lead Vocals, Guitar
• Jason Dean - Bass
• Dylan Stevens - Back Up Vocals, Guitar
Studio Albums:
Источник: what.cd (DeziDukes)
Продолжительность: 42:18
Трэклист:
01. Car Crash (3:15)
02. Adorable (3:32)
03. Favorite Fix (2:52)
04. Unconscious Reality (3:54)
05. Damn Rough Night (3:18)
06. We're All The Same (3:39)
07. So Much I Never Said (3:30)
08. Miserably Loving You (3:51)
09. Broke But Not Broken (4:00)
10. He's Just Not Me (3:15)
11. Alive (4:01)
12. Giving Yourself Away (3:11)
Код:
REM DATE 2010
REM DISCID 9209EA0C
REM COMMENT "ExactAudioCopy v0.99pb5"
FILE "01 Artist Vs Poet Car Crash.wav" WAVE
  TRACK 01 AUDIO
    INDEX 01 00:00:00
FILE "02 Artist Vs Poet Adorable.wav" WAVE
  TRACK 02 AUDIO
    INDEX 01 00:00:00
FILE "03 Artist Vs Poet Favorite Fix.wav" WAVE
  TRACK 03 AUDIO
    INDEX 01 00:00:00
FILE "04 Artist Vs Poet Unconscious Reality.wav" WAVE
  TRACK 04 AUDIO
    INDEX 01 00:00:00
FILE "05 Artist Vs Poet Damn Rough Night.wav" WAVE
  TRACK 05 AUDIO
    INDEX 01 00:00:00
FILE "06 Artist Vs Poet We're All The Same.wav" WAVE
  TRACK 06 AUDIO
    INDEX 01 00:00:00
FILE "07 Artist Vs Poet So Much I Never Said.wav" WAVE
  TRACK 07 AUDIO
    INDEX 01 00:00:00
FILE "08 Artist Vs Poet Miserably Loving You.wav" WAVE
  TRACK 08 AUDIO
    INDEX 01 00:00:00
FILE "09 Artist Vs Poet Broke But Not Broken.wav" WAVE
  TRACK 09 AUDIO
    INDEX 01 00:00:00
FILE "10 Artist Vs Poet He's Just Not Me.wav" WAVE
  TRACK 10 AUDIO
    INDEX 01 00:00:00
FILE "11 Artist Vs Poet Alive.wav" WAVE
  TRACK 11 AUDIO
    INDEX 01 00:00:00
FILE "12 Artist Vs Poet Giving Yourself Away.wav" WAVE
  TRACK 12 AUDIO
    INDEX 01 00:00:00
Код:
Exact Audio Copy V0.99 prebeta 5 from 4. May 2009
EAC extraction logfile from 9. March 2010, 18:32
Artist Vs Poet / Favorite Fix
Used drive  : MATSHITADVD+-RW UJ-875S   Adapter: 0  ID: 0
Read mode               : Secure
Utilize accurate stream : Yes
Defeat audio cache      : Yes
Make use of C2 pointers : No
Read offset correction                      : 102
Overread into Lead-In and Lead-Out          : No
Fill up missing offset samples with silence : Yes
Delete leading and trailing silent blocks   : No
Null samples used in CRC calculations       : Yes
Used interface                              : Native Win32 interface for Win NT & 2000
Gap handling                                : Appended to previous track
Used output format              : User Defined Encoder
Selected bitrate                : 128 kBit/s
Quality                         : High
Add ID3 tag                     : No
Command line compressor         : C:\Program Files (x86)\Exact Audio Copy\FLAC\FLAC.EXE
Additional command line options : -V -8 -T "artist=%a" -T "title=%t" -T "album=%g" -T "date=%y" -T "tracknumber=%n" -T "genre=%m" %s
TOC of the extracted CD
     Track |   Start  |  Length  | Start sector | End sector
    ---------------------------------------------------------
        1  |  0:00.00 |  3:15.19 |         0    |    14643
        2  |  3:15.19 |  3:32.11 |     14644    |    30554
        3  |  6:47.30 |  2:52.02 |     30555    |    43456
        4  |  9:39.32 |  3:54.25 |     43457    |    61031
        5  | 13:33.57 |  3:18.30 |     61032    |    75911
        6  | 16:52.12 |  3:38.41 |     75912    |    92302
        7  | 20:30.53 |  3:30.28 |     92303    |   108080
        8  | 24:01.06 |  3:50.53 |    108081    |   125383
        9  | 27:51.59 |  3:59.41 |    125384    |   143349
       10  | 31:51.25 |  3:15.14 |    143350    |   157988
       11  | 35:06.39 |  4:00.72 |    157989    |   176060
       12  | 39:07.36 |  3:11.31 |    176061    |   190416
Track  1
     Filename C:\EAC Rips\01 Artist Vs Poet Car Crash.wav
     Pre-gap length  0:00:02.00
     Peak level 99.1 %
     Track quality 99.9 %
     Test CRC 53AC19CC
     Copy CRC 53AC19CC
     Track not present in AccurateRip database
     Copy OK
Track  2
     Filename C:\EAC Rips\02 Artist Vs Poet Adorable.wav
     Peak level 99.1 %
     Track quality 100.0 %
     Test CRC 4159E744
     Copy CRC 4159E744
     Track not present in AccurateRip database
     Copy OK
Track  3
     Filename C:\EAC Rips\03 Artist Vs Poet Favorite Fix.wav
     Peak level 99.1 %
     Track quality 99.9 %
     Test CRC AF9B8192
     Copy CRC AF9B8192
     Track not present in AccurateRip database
     Copy OK
Track  4
     Filename C:\EAC Rips\04 Artist Vs Poet Unconscious Reality.wav
     Peak level 99.1 %
     Track quality 100.0 %
     Test CRC 0262F01E
     Copy CRC 0262F01E
     Track not present in AccurateRip database
     Copy OK
Track  5
     Filename C:\EAC Rips\05 Artist Vs Poet Damn Rough Night.wav
     Peak level 99.1 %
     Track quality 100.0 %
     Test CRC C5EB5817
     Copy CRC C5EB5817
     Track not present in AccurateRip database
     Copy OK
Track  6
     Filename C:\EAC Rips\06 Artist Vs Poet We're All The Same.wav
     Peak level 99.1 %
     Track quality 100.0 %
     Test CRC 7745E1C3
     Copy CRC 7745E1C3
     Track not present in AccurateRip database
     Copy OK
Track  7
     Filename C:\EAC Rips\07 Artist Vs Poet So Much I Never Said.wav
     Peak level 99.1 %
     Track quality 100.0 %
     Test CRC A0ADC6F5
     Copy CRC A0ADC6F5
     Track not present in AccurateRip database
     Copy OK
Track  8
     Filename C:\EAC Rips\08 Artist Vs Poet Miserably Loving You.wav
     Peak level 99.1 %
     Track quality 100.0 %
     Test CRC 4F7AC662
     Copy CRC 4F7AC662
     Track not present in AccurateRip database
     Copy OK
Track  9
     Filename C:\EAC Rips\09 Artist Vs Poet Broke But Not Broken.wav
     Peak level 99.1 %
     Track quality 100.0 %
     Test CRC 06552EDA
     Copy CRC 06552EDA
     Track not present in AccurateRip database
     Copy OK
Track 10
     Filename C:\EAC Rips\10 Artist Vs Poet He's Just Not Me.wav
     Peak level 99.1 %
     Track quality 100.0 %
     Test CRC D2676776
     Copy CRC D2676776
     Track not present in AccurateRip database
     Copy OK
Track 11
     Filename C:\EAC Rips\11 Artist Vs Poet Alive.wav
     Peak level 99.1 %
     Track quality 100.0 %
     Test CRC E3E21663
     Copy CRC E3E21663
     Track not present in AccurateRip database
     Copy OK
Track 12
     Filename C:\EAC Rips\12 Artist Vs Poet Giving Yourself Away.wav
     Peak level 99.1 %
     Track quality 100.0 %
     Test CRC 93998C27
     Copy CRC 93998C27
     Track not present in AccurateRip database
     Copy OK
None of the tracks are present in the AccurateRip database
No errors occurred
End of status report
EPs:
#777Источник: what.cd (emoguy14)
Продолжительность: 15:50
Трэклист:
01. Runaway (3:07)
02. Assurance Closure (2:52)
03. Lisa Marie (3:22)
04. Infallible Remedy (3:20)
05. All In (3:10)
Код:
REM GENRE Pop
REM DATE 2008
REM DISCID 3803B605
REM COMMENT "ExactAudioCopy v0.99pb5"
FILE "01-Artist vs Poet-Runaway.wav" WAVE
  TRACK 01 AUDIO
    INDEX 01 00:00:00
FILE "02-Artist vs Poet-Assurance Closure.wav" WAVE
  TRACK 02 AUDIO
    INDEX 01 00:00:00
FILE "03-Artist vs Poet-Lisa Marie.wav" WAVE
  TRACK 03 AUDIO
    INDEX 01 00:00:00
FILE "04-Artist vs Poet-Infallible Remedy.wav" WAVE
  TRACK 04 AUDIO
    INDEX 01 00:00:00
FILE "05-Artist vs Poet-All In.wav" WAVE
  TRACK 05 AUDIO
    INDEX 01 00:00:00
Код:
Exact Audio Copy V0.99 prebeta 5 from 4. May 2009
EAC extraction logfile from 9. February 2010, 16:05
Artist vs Poet / Artist vs Poet
Used drive  : HL-DT-STDVD-RAM GH15L   Adapter: 3  ID: 1
Read mode               : Secure
Utilize accurate stream : Yes
Defeat audio cache      : Yes
Make use of C2 pointers : No
Read offset correction                      : 667
Overread into Lead-In and Lead-Out          : No
Fill up missing offset samples with silence : Yes
Delete leading and trailing silent blocks   : No
Null samples used in CRC calculations       : Yes
Used interface                              : Native Win32 interface for Win NT & 2000
Gap handling                                : Appended to previous track
Used output format              : User Defined Encoder
Selected bitrate                : 768 kBit/s
Quality                         : High
Add ID3 tag                     : No
Command line compressor         : C:\Program Files (x86)\Exact Audio Copy\Flac\flac.exe
Additional command line options : -V -8 -T "artist=%a" -T "title=%t" -T "album=%g" -T "date=%y" -T "tracknumber=%n" -T "genre=%m" %s
TOC of the extracted CD
     Track |   Start  |  Length  | Start sector | End sector
    ---------------------------------------------------------
        1  |  0:00.00 |  3:06.65 |         0    |    14014
        2  |  3:06.65 |  2:51.60 |     14015    |    26899
        3  |  5:58.50 |  3:21.53 |     26900    |    42027
        4  |  9:20.28 |  3:20.14 |     42028    |    57041
        5  | 12:40.42 |  3:09.38 |     57042    |    71254
Track  1
     Filename E:\FLAC\01-Artist vs Poet-Runaway.wav
     Pre-gap length  0:00:02.00
     Peak level 97.2 %
     Track quality 100.0 %
     Test CRC 5B08C42F
     Copy CRC 5B08C42F
     Copy OK
Track  2
     Filename E:\FLAC\02-Artist vs Poet-Assurance Closure.wav
     Peak level 96.6 %
     Track quality 100.0 %
     Test CRC 3D00D1E3
     Copy CRC 3D00D1E3
     Copy OK
Track  3
     Filename E:\FLAC\03-Artist vs Poet-Lisa Marie.wav
     Peak level 96.6 %
     Track quality 100.0 %
     Test CRC 3B447E47
     Copy CRC 3B447E47
     Copy OK
Track  4
     Filename E:\FLAC\04-Artist vs Poet-Infallible Remedy.wav
     Peak level 96.6 %
     Track quality 100.0 %
     Test CRC 05200D9A
     Copy CRC 05200D9A
     Copy OK
Track  5
     Filename E:\FLAC\05-Artist vs Poet-All In.wav
     Peak level 96.6 %
     Track quality 100.0 %
     Test CRC 1D0B301B
     Copy CRC 1D0B301B
     Copy OK
No errors occurred
End of status report
#777Источник: what.cd (champersand)
Продолжительность: 12:43
Трэклист:
01. Damn Rough Night (3:21)
02. Gateway (3:21)
03. Rescue (3:07)
04. To Hell With the Letdown (2:55)
Код:
REM DATE 2009
REM DISCID 1B02FB04
REM COMMENT "ExactAudioCopy v0.99pb5"
PERFORMER "Artist VS Poet"
TITLE "Damn Rough Night"
FILE "Artist VS Poet\Damn Rough Night\01 - Damn Rough Night.wav" WAVE
  TRACK 01 AUDIO
    TITLE "Damn Rough Night"
    PERFORMER "Artist VS Poet"
    FLAGS DCP
    INDEX 01 00:00:00
FILE "Artist VS Poet\Damn Rough Night\02 - Gateway.wav" WAVE
  TRACK 02 AUDIO
    TITLE "Gateway"
    PERFORMER "Artist VS Poet"
    FLAGS DCP
    INDEX 01 00:00:00
FILE "Artist VS Poet\Damn Rough Night\03 - Rescue.wav" WAVE
  TRACK 03 AUDIO
    TITLE "Rescue"
    PERFORMER "Artist VS Poet"
    FLAGS DCP
    INDEX 01 00:00:00
FILE "Artist VS Poet\Damn Rough Night\04 - To Hell With the Letdown.wav" WAVE
  TRACK 04 AUDIO
    TITLE "To Hell With the Letdown"
    PERFORMER "Artist VS Poet"
    FLAGS DCP
    INDEX 01 00:00:00
Код:
Exact Audio Copy V0.99 prebeta 5 from 4. May 2009
EAC extraction logfile from 23. October 2010, 18:56
Artist VS Poet / Damn Rough Night
Used drive  : CD-ROM  F565E   Adapter: 0  ID: 1
Read mode               : Secure
Utilize accurate stream : Yes
Defeat audio cache      : Yes
Make use of C2 pointers : No
Read offset correction                      : 12
Overread into Lead-In and Lead-Out          : No
Fill up missing offset samples with silence : Yes
Delete leading and trailing silent blocks   : No
Null samples used in CRC calculations       : Yes
Used interface                              : Native Win32 interface for Win NT & 2000
Gap handling                                : Appended to previous track
Used output format              : User Defined Encoder
Selected bitrate                : 128 kBit/s
Quality                         : High
Add ID3 tag                     : Yes
Command line compressor         : C:\Program Files\FLAC\flac.exe
Additional command line options : -V -8 -T "artist=%a" -T "title=%t" -T "album=%g" -T "date=%y" -T "tracknumber=%n" -T "genre=%m" %s
TOC of the extracted CD
     Track |   Start  |  Length  | Start sector | End sector
    ---------------------------------------------------------
        1  |  0:00.00 |  3:20.72 |         0    |    15071
        2  |  3:20.72 |  3:20.45 |     15072    |    30116
        3  |  6:41.42 |  3:07.02 |     30117    |    44143
        4  |  9:48.44 |  2:55.12 |     44144    |    57280
Track  1
     Filename C:\Documents and Settings\ch&\My Documents\Artist VS Poet\Damn Rough Night\01 - Damn Rough Night.wav
     Pre-gap length  0:00:02.00
     Peak level 98.5 %
     Track quality 100.0 %
     Test CRC F371A325
     Copy CRC F371A325
     Track not present in AccurateRip database
     Copy OK
Track  2
     Filename C:\Documents and Settings\ch&\My Documents\Artist VS Poet\Damn Rough Night\02 - Gateway.wav
     Peak level 98.8 %
     Track quality 100.0 %
     Test CRC 934C7322
     Copy CRC 934C7322
     Track not present in AccurateRip database
     Copy OK
Track  3
     Filename C:\Documents and Settings\ch&\My Documents\Artist VS Poet\Damn Rough Night\03 - Rescue.wav
     Peak level 98.6 %
     Track quality 100.0 %
     Test CRC 1E69E520
     Copy CRC 1E69E520
     Track not present in AccurateRip database
     Copy OK
Track  4
     Filename C:\Documents and Settings\ch&\My Documents\Artist VS Poet\Damn Rough Night\04 - To Hell With the Letdown.wav
     Peak level 98.7 %
     Track quality 100.0 %
     Test CRC 81CC4582
     Copy CRC 81CC4582
     Track not present in AccurateRip database
     Copy OK
None of the tracks are present in the AccurateRip database
No errors occurred
End of status report
Правила, инструкции, FAQ!!!
Торрент  Добавлен [26 мар 2019, 18:39] Скачать торрент Магнет ссылка
Скачать торрент
[ Размер 13.36 КБ / Просмотров 1 ]

Статус
Проверен 
 
Размер  519.78 МБ
Приватный: Нет (DHT включён)
.torrent скачан  0
 


     Отправить личное сообщение
   
Страница 1 из 1
Показать сообщения за:  Поле сортировки  
Начать новую тему Ответить на тему


Сейчас этот форум просматривают: нет зарегистрированных пользователей и гости: 0


Вы не можете начинать темы
Вы не можете отвечать на сообщения
Вы не можете редактировать свои сообщения
Вы не можете удалять свои сообщения
Вы не можете добавлять вложения

Перейти:  
cron