Начать новую тему Ответить на тему
Статистика раздачи
Размер: 236.98 МБ | Добавлен: 26 мар 2019, 20:39 | Скачали: 0
Сидеров: 0  [0 байт/сек]    Личеров: 0  [0 байт/сек]
Пред. тема | След. тема 

Автор
Сообщение

СообщениеДобавлено: 26 мар 2019, 20:39 

Ответить с цитатой 

Hellogoodbye / Would It Kill You?
Жанр: Power Pop
Страна-производитель диска: US
Год издания диска: 2010
Издатель (лейбл): Wasted Summer
Страна: US
Аудио кодек: FLAC (*.flac)
Тип рипа: tracks+.cue
Битрейт аудио: lossless
Продолжительность: 36:31
Источник (релизер): What.cd
Наличие сканов в содержимом раздачи: нет
Треклист:
01. Finding Something To Do (2:55)
02. Getting Old (3:00)
03. When We First Met (2:34)
04. Betrayed By Bones (3:24)
05. You Sleep Alone (3:37)
06. When We First Kissed (3:15)
07. The Thoughts That Give Me The Creeps (2:54)
08. I Never Can Relax (3:34)
09. Coppertone (4:03)
10. Would It Kill You? (3:37)
11. Something You Misplaced (3:38)
Код:
Exact Audio Copy V0.99 prebeta 5 from 4. May 2009
EAC extraction logfile from 9. November 2010, 20:38
Hellogoodbye / Would It Kill You?
Used drive  : HL-DT-STDVD+-RW GH30N   Adapter: 0  ID: 1
Read mode               : Secure
Utilize accurate stream : Yes
Defeat audio cache      : Yes
Make use of C2 pointers : No
Read offset correction                      : 102
Overread into Lead-In and Lead-Out          : Yes
Fill up missing offset samples with silence : Yes
Delete leading and trailing silent blocks   : No
Null samples used in CRC calculations       : Yes
Used interface                              : Native Win32 interface for Win NT & 2000
Gap handling                                : Appended to previous track
Used output format              : User Defined Encoder
Selected bitrate                : 320 kBit/s
Quality                         : High
Add ID3 tag                     : No
Command line compressor         : C:\Program Files (x86)\Exact Audio Copy\Flac\flac.exe
Additional command line options : -V -8 -T "artist=%a" -T "title=%t" -T "album=%g" -T "date=%y" -T "tracknumber=%n" -T "genre=%m" %s
TOC of the extracted CD
     Track |   Start  |  Length  | Start sector | End sector
    ---------------------------------------------------------
        1  |  0:00.00 |  2:55.43 |         0    |    13167
        2  |  2:55.43 |  3:00.14 |     13168    |    26681
        3  |  5:55.57 |  2:34.61 |     26682    |    38292
        4  |  8:30.43 |  3:24.65 |     38293    |    53657
        5  | 11:55.33 |  3:37.44 |     53658    |    69976
        6  | 15:33.02 |  3:15.04 |     69977    |    84605
        7  | 18:48.06 |  2:54.27 |     84606    |    97682
        8  | 21:42.33 |  3:34.22 |     97683    |   113754
        9  | 25:16.55 |  4:03.69 |    113755    |   132048
       10  | 29:20.49 |  3:37.62 |    132049    |   148385
       11  | 32:58.36 |  3:38.51 |    148386    |   164786
Track  1
     Filename C:\EACrips\Hellogoodbye - Would It Kill You (2010) - FLAC\01 - Finding Something To Do.wav
     Pre-gap length  0:00:02.00
     Peak level 98.8 %
     Track quality 100.0 %
     Test CRC 4B731146
     Copy CRC 4B731146
     Track not present in AccurateRip database
     Copy OK
Track  2
     Filename C:\EACrips\Hellogoodbye - Would It Kill You (2010) - FLAC\02 - Getting Old.wav
     Pre-gap length  0:00:00.25
     Peak level 98.8 %
     Track quality 100.0 %
     Test CRC 28A9DA37
     Copy CRC 28A9DA37
     Track not present in AccurateRip database
     Copy OK
Track  3
     Filename C:\EACrips\Hellogoodbye - Would It Kill You (2010) - FLAC\03 - When We First Met.wav
     Pre-gap length  0:00:01.34
     Peak level 98.8 %
     Track quality 100.0 %
     Test CRC DFB96148
     Copy CRC DFB96148
     Track not present in AccurateRip database
     Copy OK
Track  4
     Filename C:\EACrips\Hellogoodbye - Would It Kill You (2010) - FLAC\04 - Betrayed By Bones.wav
     Pre-gap length  0:00:01.50
     Peak level 98.8 %
     Track quality 99.9 %
     Test CRC 95800BB3
     Copy CRC 95800BB3
     Track not present in AccurateRip database
     Copy OK
Track  5
     Filename C:\EACrips\Hellogoodbye - Would It Kill You (2010) - FLAC\05 - You Sleep Alone.wav
     Peak level 98.8 %
     Track quality 100.0 %
     Test CRC 4D35E482
     Copy CRC 4D35E482
     Track not present in AccurateRip database
     Copy OK
Track  6
     Filename C:\EACrips\Hellogoodbye - Would It Kill You (2010) - FLAC\06 - When We First Kissed.wav
     Peak level 98.8 %
     Track quality 100.0 %
     Test CRC 77A55EBF
     Copy CRC 77A55EBF
     Track not present in AccurateRip database
     Copy OK
Track  7
     Filename C:\EACrips\Hellogoodbye - Would It Kill You (2010) - FLAC\07 - The Thoughts That Give Me The Creeps.wav
     Peak level 98.8 %
     Track quality 100.0 %
     Test CRC A6F88C66
     Copy CRC A6F88C66
     Track not present in AccurateRip database
     Copy OK
Track  8
     Filename C:\EACrips\Hellogoodbye - Would It Kill You (2010) - FLAC\08 - I Never Can Relax.wav
     Pre-gap length  0:00:00.40
     Peak level 98.8 %
     Track quality 100.0 %
     Test CRC B6B0F059
     Copy CRC B6B0F059
     Track not present in AccurateRip database
     Copy OK
Track  9
     Filename C:\EACrips\Hellogoodbye - Would It Kill You (2010) - FLAC\09 - Coppertone.wav
     Pre-gap length  0:00:00.76
     Peak level 98.8 %
     Track quality 100.0 %
     Test CRC 53C2268F
     Copy CRC 53C2268F
     Track not present in AccurateRip database
     Copy OK
Track 10
     Filename C:\EACrips\Hellogoodbye - Would It Kill You (2010) - FLAC\10 - Would It Kill You.wav
     Pre-gap length  0:00:01.18
     Peak level 98.8 %
     Track quality 99.9 %
     Test CRC BE5E3BB7
     Copy CRC BE5E3BB7
     Track not present in AccurateRip database
     Copy OK
Track 11
     Filename C:\EACrips\Hellogoodbye - Would It Kill You (2010) - FLAC\11 - Something You Misplaced.wav
     Peak level 98.8 %
     Track quality 100.0 %
     Test CRC EC4A6D1E
     Copy CRC EC4A6D1E
     Track not present in AccurateRip database
     Copy OK
None of the tracks are present in the AccurateRip database
No errors occurred
End of status report
Код:
REM GENRE Alternative
REM DATE 2010
REM DISCID 8608950B
REM COMMENT "ExactAudioCopy v0.99pb5"
PERFORMER "Hellogoodbye"
TITLE "Would It Kill You?"
FILE "01 - Finding Something To Do.wav" WAVE
  TRACK 01 AUDIO
    TITLE "Finding Something To Do"
    PERFORMER "Hellogoodbye"
    INDEX 01 00:00:00
  TRACK 02 AUDIO
    TITLE "Getting Old"
    PERFORMER "Hellogoodbye"
    INDEX 00 02:55:24
FILE "02 - Getting Old.wav" WAVE
    INDEX 01 00:00:00
  TRACK 03 AUDIO
    TITLE "When We First Met"
    PERFORMER "Hellogoodbye"
    INDEX 00 02:58:63
FILE "03 - When We First Met.wav" WAVE
    INDEX 01 00:00:00
  TRACK 04 AUDIO
    TITLE "Betrayed By Bones"
    PERFORMER "Hellogoodbye"
    INDEX 00 02:33:23
FILE "04 - Betrayed By Bones.wav" WAVE
    INDEX 01 00:00:00
FILE "05 - You Sleep Alone.wav" WAVE
  TRACK 05 AUDIO
    TITLE "You Sleep Alone"
    PERFORMER "Hellogoodbye"
    INDEX 01 00:00:00
FILE "06 - When We First Kissed.wav" WAVE
  TRACK 06 AUDIO
    TITLE "When We First Kissed"
    PERFORMER "Hellogoodbye"
    INDEX 01 00:00:00
FILE "07 - The Thoughts That Give Me The Creeps.wav" WAVE
  TRACK 07 AUDIO
    TITLE "The Thoughts That Give Me The Creeps"
    PERFORMER "Hellogoodbye"
    INDEX 01 00:00:00
  TRACK 08 AUDIO
    TITLE "I Never Can Relax"
    PERFORMER "Hellogoodbye"
    INDEX 00 02:53:72
FILE "08 - I Never Can Relax.wav" WAVE
    INDEX 01 00:00:00
  TRACK 09 AUDIO
    TITLE "Coppertone"
    PERFORMER "Hellogoodbye"
    INDEX 00 03:33:40
FILE "09 - Coppertone.wav" WAVE
    INDEX 01 00:00:00
  TRACK 10 AUDIO
    TITLE "Would It Kill You?"
    PERFORMER "Hellogoodbye"
    INDEX 00 04:02:55
FILE "10 - Would It Kill You.wav" WAVE
    INDEX 01 00:00:00
FILE "11 - Something You Misplaced.wav" WAVE
  TRACK 11 AUDIO
    TITLE "Something You Misplaced"
    PERFORMER "Hellogoodbye"
    INDEX 01 00:00:00
Правила, инструкции, FAQ!!!
Торрент  Добавлен [26 мар 2019, 20:39] Скачать торрент Магнет ссылка
Скачать торрент
[ Размер 19.82 КБ / Просмотров 1 ]

Статус
Проверен 
 
Размер  236.98 МБ
Приватный: Нет (DHT включён)
.torrent скачан  0
 


     Отправить личное сообщение
   
Страница 1 из 1
Показать сообщения за:  Поле сортировки  
Начать новую тему Ответить на тему


Сейчас этот форум просматривают: нет зарегистрированных пользователей и гости: 0


Вы не можете начинать темы
Вы не можете отвечать на сообщения
Вы не можете редактировать свои сообщения
Вы не можете удалять свои сообщения
Вы не можете добавлять вложения

Перейти:  
cron