Начать новую тему Ответить на тему
Статистика раздачи
Размер: 279.18 МБ | Добавлен: 26 мар 2019, 20:03 | Скачали: 0
Сидеров: 1  [0 байт/сек]    Личеров: 5  [0 байт/сек]
Пред. тема | След. тема 

Автор
Сообщение

СообщениеДобавлено: 26 мар 2019, 20:03 

Ответить с цитатой 

Bram Tchaikovsky / The Russians Are Coming
Жанр: Power Pop
Носитель: CD
Страна-производитель диска: Japan
Год издания: 1980
Издатель (лейбл): Radar Records
Номер по каталогу: WPCR-1765
Страна: Great Britain
Аудиокодек: APE (*.ape)
Тип рипа: image+.cue
Битрейт аудио: lossless
Продолжительность: 46:00
Источник (релизер): Cвой рип
Наличие сканов в содержимом раздачи: да
01. Let's Dance
02. Mr. President
03. Missfortune
04. Hollywood Nightmare
05. Pressure
06. The Russians Are Coming
07. Heartache
08. Letter From The U.S.A.
09. Can't Give You Reasons
10. Jeux Sans Frontires (Games With No Rules)
11. New York Paranoia
Код:
Exact Audio Copy V1.0 beta 3 from 29. August 2011
EAC extraction logfile from 6. February 2014, 19:44
Bram Tchaikovsky / The Russians Are Coming
Used drive  : ATAPI   iHAS124   B   Adapter: 1  ID: 1
Read mode               : Secure
Utilize accurate stream : Yes
Defeat audio cache      : Yes
Make use of C2 pointers : No
Read offset correction                      : 6
Overread into Lead-In and Lead-Out          : No
Fill up missing offset samples with silence : Yes
Delete leading and trailing silent blocks   : No
Null samples used in CRC calculations       : Yes
Used interface                              : Native Win32 interface for Win NT & 2000
Used output format              : Monkey's Audio Lossless Encoder
Selected bitrate                : Extra High Lossless Compression
Quality                         : High
Add ID3 tag                     : No
Command line compressor         : C:\Program Files\Monkey's Audio\MAC.exe
TOC of the extracted CD
     Track |   Start  |  Length  | Start sector | End sector
    ---------------------------------------------------------
        1  |  0:00.00 |  5:09.54 |         0    |    23228
        2  |  5:09.54 |  4:07.72 |     23229    |    41825
        3  |  9:17.51 |  3:14.34 |     41826    |    56409
        4  | 12:32.10 |  3:24.09 |     56410    |    71718
        5  | 15:56.19 |  2:52.47 |     71719    |    84665
        6  | 18:48.66 |  3:24.09 |     84666    |    99974
        7  | 22:13.00 |  2:55.66 |     99975    |   113165
        8  | 25:08.66 |  3:22.12 |    113166    |   128327
        9  | 28:31.03 |  3:53.36 |    128328    |   145838
       10  | 32:24.39 |  2:42.64 |    145839    |   158052
       11  | 35:07.28 |  4:10.57 |    158053    |   176859
Range status and errors
Selected range
     Filename D:\I\Bram Tchaikovsky - The Russians Are Coming (1980)\Bram Tchaikovsky - The Russians Are Coming.wav
     Peak level 99.4 %
     Extraction speed 7.1 X
     Range quality 100.0 %
     Test CRC 3A90260D
     Copy CRC 3A90260D
     Copy OK
No errors occurred
End of status report
==== Log checksum 895F03C817D84B0F770AAA811B9B84E7886BBC49C086983E221AD90DA0224B15 ====
Правила, инструкции, FAQ!!!
Торрент  Добавлен [26 мар 2019, 20:03] Скачать торрент Магнет ссылка
Скачать торрент
[ Размер 11.76 КБ / Просмотров 7 ]

Статус
Проверен 
 
Размер  279.18 МБ
Приватный: Нет (DHT включён)
.torrent скачан  0
 


     Отправить личное сообщение
   
Страница 1 из 1
Показать сообщения за:  Поле сортировки  
Начать новую тему Ответить на тему


Сейчас этот форум просматривают: нет зарегистрированных пользователей и гости: 0


Вы не можете начинать темы
Вы не можете отвечать на сообщения
Вы не можете редактировать свои сообщения
Вы не можете удалять свои сообщения
Вы не можете добавлять вложения

Перейти:  
cron