Начать новую тему Ответить на тему
Статистика раздачи
Размер: 2.06 ГБ | Добавлен: 28 июл 2020, 22:25 | Скачали: 1
Сидеров: 2  [0 байт/сек]    Личеров: 0  [0 байт/сек]
Пред. тема | След. тема 

Автор
Сообщение

СообщениеДобавлено: 28 июл 2020, 22:25 

Ответить с цитатой 

If I Were You - Дискография


Жанр: Post-Hardcore / Electronic Носитель: WEB Год издания: 2011-2020 Страна исполнителя (группы): USA Аудиокодек: FLAC (*.flac)
Тип рипа: tracks Битрейт аудио: lossless Продолжительность: 4:34:22 Источник (релизер): bandcamp.com & tidal.com & deezer.com Наличие сканов в содержимом раздачи: нет

Продолжительность: 00:21:01
Источник: tidal.com
01.It Begins
02.Wake Up
03.Hold Your Breath
04.This Safe Haven Is Ours
05.Interlude
06.At Days End
07.Savior of Me
Код:
Started at: aine?anaiua, 18. 12. 2016. - 12:09.56
7 files found
1 -===- E:\[FLAC]\Post-Hardcore\If I Were You\2011 - At Days End (EP) [WEB]\01. It Begins.flac
  Extracted successfully
  Conclusion: this track is CDDA with probability 92%
  Tempfile successfully deleted.
2 -===- E:\[FLAC]\Post-Hardcore\If I Were You\2011 - At Days End (EP) [WEB]\02. Wake Up.flac
  Extracted successfully
  Conclusion: this track is CDDA with probability 100%
  Tempfile successfully deleted.
3 -===- E:\[FLAC]\Post-Hardcore\If I Were You\2011 - At Days End (EP) [WEB]\03. Hold Your Breath.flac
  Extracted successfully
  Conclusion: this track is CDDA with probability 100%
  Tempfile successfully deleted.
4 -===- E:\[FLAC]\Post-Hardcore\If I Were You\2011 - At Days End (EP) [WEB]\04. This Safe Haven Is Ours.flac
  Extracted successfully
  Conclusion: this track is CDDA with probability 100%
  Tempfile successfully deleted.
5 -===- E:\[FLAC]\Post-Hardcore\If I Were You\2011 - At Days End (EP) [WEB]\05. Interlude.flac
  Extracted successfully
  Conclusion: this track is MPEG with probability 95%
  Tempfile successfully deleted.
6 -===- E:\[FLAC]\Post-Hardcore\If I Were You\2011 - At Days End (EP) [WEB]\06. At Days End.flac
  Extracted successfully
  Conclusion: this track is MPEG with probability 95%
  Tempfile successfully deleted.
7 -===- E:\[FLAC]\Post-Hardcore\If I Were You\2011 - At Days End (EP) [WEB]\07. Savior of Me.flac
  Extracted successfully
  Conclusion: this track is MPEG with probability 95%
  Tempfile successfully deleted.
Finished at: aine?anaiua, 18. 12. 2016. - 12:10.43 (operation time: 0:00.46)
Код:
Analyzed: If I Were You / At Days End (EP)
--------------------------------------------------------------------------------
DR         Peak         RMS     Duration Track
--------------------------------------------------------------------------------
DR5        0.00 dB    -7.37 dB      0:35 01-It Begins
DR4        0.00 dB    -5.27 dB      3:32 02-Wake Up
DR3        0.00 dB    -4.07 dB      3:12 03-Hold Your Breath
DR4        0.00 dB    -5.05 dB      3:31 04-This Safe Haven Is Ours
DR3        0.00 dB    -5.65 dB      1:48 05-Interlude
DR4        0.00 dB    -5.44 dB      4:07 06-At Days End
DR4        0.00 dB    -5.16 dB      4:16 07-Savior of Me
--------------------------------------------------------------------------------
Number of tracks:  7
Official DR value: DR4
Samplerate:        44100 Hz
Channels:          2
Bits per sample:   16
Bitrate:           1046 kbps
Codec:             FLAC
================================================================================

Продолжительность: 00:40:09
Источник: bandcamp.com
01. End of an Era
02. Hold Your Breath
03. Walking Away
04. Savior of Me
05. This Safe Haven Is Ours
06. At Day's End
07. These Voices
08. Autumn's Air
09. Wake Up
10. The Light
11. No Where To Run
Код:
Started at: âîñêðåñåíüå, 18. 12. 2016. - 12:11.01
11 files found
01 -===- E:\[FLAC]\Post-Hardcore\If I Were You\2013 - End of an Era [WEB]\01 End of an Era.flac
  Extracted successfully
  Conclusion: this track is CDDA with probability 100%
  Tempfile successfully deleted.
02 -===- E:\[FLAC]\Post-Hardcore\If I Were You\2013 - End of an Era [WEB]\02 Hold Your Breath.flac
  Extracted successfully
  Conclusion: this track is CDDA with probability 100%
  Tempfile successfully deleted.
03 -===- E:\[FLAC]\Post-Hardcore\If I Were You\2013 - End of an Era [WEB]\03 Walking Away.flac
  Extracted successfully
  Conclusion: this track is CDDA with probability 100%
  Tempfile successfully deleted.
04 -===- E:\[FLAC]\Post-Hardcore\If I Were You\2013 - End of an Era [WEB]\04 Savior of Me.flac
  Extracted successfully
  Conclusion: this track is CDDA with probability 100%
  Tempfile successfully deleted.
05 -===- E:\[FLAC]\Post-Hardcore\If I Were You\2013 - End of an Era [WEB]\05 This Safe Haven Is Ours.flac
  Extracted successfully
  Conclusion: this track is CDDA with probability 100%
  Tempfile successfully deleted.
06 -===- E:\[FLAC]\Post-Hardcore\If I Were You\2013 - End of an Era [WEB]\06 At Day's End.flac
  Extracted successfully
  Conclusion: this track is CDDA with probability 100%
  Tempfile successfully deleted.
07 -===- E:\[FLAC]\Post-Hardcore\If I Were You\2013 - End of an Era [WEB]\07 These Voices.flac
  Extracted successfully
  Conclusion: this track is CDDA with probability 100%
  Tempfile successfully deleted.
08 -===- E:\[FLAC]\Post-Hardcore\If I Were You\2013 - End of an Era [WEB]\08 Autumn's Air.flac
  Extracted successfully
  Conclusion: this track is CDDA with probability 100%
  Tempfile successfully deleted.
09 -===- E:\[FLAC]\Post-Hardcore\If I Were You\2013 - End of an Era [WEB]\09 Wake Up.flac
  Extracted successfully
  Conclusion: this track is CDDA with probability 100%
  Tempfile successfully deleted.
10 -===- E:\[FLAC]\Post-Hardcore\If I Were You\2013 - End of an Era [WEB]\10 The Light.flac
  Extracted successfully
  Conclusion: this track is CDDA with probability 99%
  Tempfile successfully deleted.
11 -===- E:\[FLAC]\Post-Hardcore\If I Were You\2013 - End of an Era [WEB]\11 No Where To Run.flac
  Extracted successfully
  Conclusion: this track is CDDA with probability 99%
  Tempfile successfully deleted.
Finished at: âîñêðåñåíüå, 18. 12. 2016. - 12:12.38 (operation time: 0:01.36)

Продолжительность: 00:39:41
Источник: tidal.com
01. Prevail Within
02. Destiny
03. The Sleepless
04. Memories
05. Moving On
06. Too Far Gone
07. Finding Home
08. Illusion of Leadership
09. System Failure
10. Fading Away (feat. Shannon Egan)
11. Made New
12. Heavy Heart
Код:
Started at: aine?anaiua, 18. 12. 2016. - 12:05.00
12 files found
01 -===- E:\[FLAC]\Post-Hardcore\If I Were You\2014 - The Sleepless [WEB]\01. Prevail Within.flac
  Extracted successfully
  Conclusion: this track is CDDA with probability 100%
  Tempfile successfully deleted.
02 -===- E:\[FLAC]\Post-Hardcore\If I Were You\2014 - The Sleepless [WEB]\02. Destiny.flac
  Extracted successfully
  Conclusion: this track is CDDA with probability 100%
  Tempfile successfully deleted.
03 -===- E:\[FLAC]\Post-Hardcore\If I Were You\2014 - The Sleepless [WEB]\03. The Sleepless.flac
  Extracted successfully
  Conclusion: this track is CDDA with probability 100%
  Tempfile successfully deleted.
04 -===- E:\[FLAC]\Post-Hardcore\If I Were You\2014 - The Sleepless [WEB]\04. Memories.flac
  Extracted successfully
  Conclusion: this track is CDDA with probability 100%
  Tempfile successfully deleted.
05 -===- E:\[FLAC]\Post-Hardcore\If I Were You\2014 - The Sleepless [WEB]\05. Moving On.flac
  Extracted successfully
  Conclusion: this track is CDDA with probability 100%
  Tempfile successfully deleted.
06 -===- E:\[FLAC]\Post-Hardcore\If I Were You\2014 - The Sleepless [WEB]\06. Too Far Gone.flac
  Extracted successfully
  Conclusion: this track is CDDA with probability 100%
  Tempfile successfully deleted.
07 -===- E:\[FLAC]\Post-Hardcore\If I Were You\2014 - The Sleepless [WEB]\07. Finding Home.flac
  Extracted successfully
  Conclusion: this track is CDDA with probability 100%
  Tempfile successfully deleted.
08 -===- E:\[FLAC]\Post-Hardcore\If I Were You\2014 - The Sleepless [WEB]\08. Illusion of Leadership.flac
  Extracted successfully
  Conclusion: this track is CDDA with probability 100%
  Tempfile successfully deleted.
09 -===- E:\[FLAC]\Post-Hardcore\If I Were You\2014 - The Sleepless [WEB]\09. System Failure.flac
  Extracted successfully
  Conclusion: this track is CDDA with probability 100%
  Tempfile successfully deleted.
10 -===- E:\[FLAC]\Post-Hardcore\If I Were You\2014 - The Sleepless [WEB]\10. Fading Away (feat. Shannon Egan).flac
  Extracted successfully
  Conclusion: this track is CDDA with probability 100%
  Tempfile successfully deleted.
11 -===- E:\[FLAC]\Post-Hardcore\If I Were You\2014 - The Sleepless [WEB]\11. Made New.flac
  Extracted successfully
  Conclusion: this track is CDDA with probability 100%
  Tempfile successfully deleted.
12 -===- E:\[FLAC]\Post-Hardcore\If I Were You\2014 - The Sleepless [WEB]\12. Heavy Heart.flac
  Extracted successfully
  Conclusion: this track is CDDA with probability 100%
  Tempfile successfully deleted.
Finished at: aine?anaiua, 18. 12. 2016. - 12:06.45 (operation time: 0:01.45)
Код:
Analyzed: If I Were You / The Sleepless
--------------------------------------------------------------------------------
DR         Peak         RMS     Duration Track
--------------------------------------------------------------------------------
DR4        0.00 dB    -5.92 dB      0:50 01-Prevail Within
DR4        0.00 dB    -4.58 dB      3:23 02-Destiny
DR4        0.00 dB    -5.10 dB      3:40 03-The Sleepless
DR4        0.00 dB    -4.84 dB      3:31 04-Memories
DR4        0.00 dB    -4.85 dB      4:07 05-Moving On
DR3        0.00 dB    -4.62 dB      3:56 06-Too Far Gone
DR4        0.00 dB    -4.82 dB      4:18 07-Finding Home
DR3        0.00 dB    -4.99 dB      3:32 08-Illusion of Leadership
DR3        0.00 dB    -4.80 dB      3:56 09-System Failure
DR4        0.00 dB    -6.65 dB      4:25 10-Fading Away (feat. Shannon Egan)
DR4        0.00 dB    -5.07 dB      2:16 11-Made New
DR4        0.00 dB    -5.32 dB      4:52 12-Heavy Heart
--------------------------------------------------------------------------------
Number of tracks:  12
Official DR value: DR4
Samplerate:        44100 Hz
Channels:          2
Bits per sample:   16
Bitrate:           1092 kbps
Codec:             FLAC
================================================================================

01. Memories (Acoustic Version)
Продолжительность: 00:03:22
Источник: tidal.com
Код:
Started at: aine?anaiua, 18. 12. 2016. - 12:13.14
1 file found
1 -===- E:\[FLAC]\Post-Hardcore\If I Were You\2016 - Memories (Acoustic Version) (Single) [WEB]\01. Memories (Acoustic Version).flac
  Extracted successfully
  Conclusion: this track is CDDA with probability 100%
  Tempfile successfully deleted.
Finished at: aine?anaiua, 18. 12. 2016. - 12:13.22 (operation time: 0:00.08)
Код:
Statistics for: 01-Memories (Acoustic Version)
Number of samples: 8924879
Duration: 3:22
--------------------------------------------------------------------------------
                 Left              Right
Peak Value:     -0.01 dB   ---     -0.01 dB
Avg RMS:        -4.97 dB   ---     -5.09 dB
DR channel:      4.12 dB   ---      4.20 dB
--------------------------------------------------------------------------------
Official DR Value: DR4
Samplerate:        44100 Hz
Channels:          2
Bits per sample:   16
Bitrate:           1077 kbps
Codec:             FLAC
================================================================================

Продолжительность: 00:02:45
Источник: tidal.com
01. Trust and Betrayal
Код:
Started at: aine?anaiua, 18. 12. 2016. - 12:15.14
1 file found
1 -===- E:\[FLAC]\Post-Hardcore\If I Were You\2016 - Trust and Betrayal (Single) [WEB]\01. Trust and Betrayal.flac
  Extracted successfully
  Conclusion: this track is CDDA with probability 100%
  Tempfile successfully deleted.
Finished at: aine?anaiua, 18. 12. 2016. - 12:15.21 (operation time: 0:00.06)
Код:
Statistics for: 01-Trust and Betrayal
Number of samples: 7259691
Duration: 2:45
--------------------------------------------------------------------------------
                 Left              Right
Peak Value:      0.00 dB   ---      0.00 dB
Avg RMS:        -5.47 dB   ---     -5.41 dB
DR channel:      4.83 dB   ---      4.79 dB
--------------------------------------------------------------------------------
Official DR Value: DR5
Samplerate:        44100 Hz
Channels:          2
Bits per sample:   16
Bitrate:           1091 kbps
Codec:             FLAC
================================================================================

Продолжительность: 00:25:33
Источник: tidal.com
01. Asystole
02. Sirens
03. Looking Through Me (feat. Garret Rapp of The Color Morale)
04. Pull Me Under
05. Eternity
06. The Choice
07. Dissolution
08. Silhouettes
Код:
Started at: aine?anaiua, 18. 12. 2016. - 12:08.34
8 files found
1 -===- E:\[FLAC]\Post-Hardcore\If I Were You\2016 - Life After Death [WEB]\01. Asystole.flac
  Extracted successfully
  Conclusion: this track is CDDA with probability 100%
  Tempfile successfully deleted.
2 -===- E:\[FLAC]\Post-Hardcore\If I Were You\2016 - Life After Death [WEB]\02. Sirens.flac
  Extracted successfully
  Conclusion: this track is CDDA with probability 100%
  Tempfile successfully deleted.
3 -===- E:\[FLAC]\Post-Hardcore\If I Were You\2016 - Life After Death [WEB]\03. Looking Through Me (feat. Garret Rapp of The Color Morale).flac
  Extracted successfully
  Conclusion: this track is CDDA with probability 100%
  Tempfile successfully deleted.
4 -===- E:\[FLAC]\Post-Hardcore\If I Were You\2016 - Life After Death [WEB]\04. Pull Me Under.flac
  Extracted successfully
  Conclusion: this track is CDDA with probability 100%
  Tempfile successfully deleted.
5 -===- E:\[FLAC]\Post-Hardcore\If I Were You\2016 - Life After Death [WEB]\05. Eternity.flac
  Extracted successfully
  Conclusion: this track is CDDA with probability 100%
  Tempfile successfully deleted.
6 -===- E:\[FLAC]\Post-Hardcore\If I Were You\2016 - Life After Death [WEB]\06. The Choice.flac
  Extracted successfully
  Conclusion: this track is CDDA with probability 100%
  Tempfile successfully deleted.
7 -===- E:\[FLAC]\Post-Hardcore\If I Were You\2016 - Life After Death [WEB]\07. Dissolution.flac
  Extracted successfully
  Conclusion: this track is CDDA with probability 100%
  Tempfile successfully deleted.
8 -===- E:\[FLAC]\Post-Hardcore\If I Were You\2016 - Life After Death [WEB]\08. Silhouettes.flac
  Extracted successfully
  Conclusion: this track is CDDA with probability 100%
  Tempfile successfully deleted.
Finished at: aine?anaiua, 18. 12. 2016. - 12:09.37 (operation time: 0:01.03)
Код:
Analyzed: If I Were You / Life After Death
--------------------------------------------------------------------------------
DR         Peak         RMS     Duration Track
--------------------------------------------------------------------------------
DR6       -0.05 dB    -8.47 dB      0:56 01-Asystole
DR5       -0.05 dB    -5.56 dB      3:44 02-Sirens
DR5       -0.08 dB    -5.82 dB      3:44 03-Looking Through Me
DR4       -0.09 dB    -5.35 dB      3:41 04-Pull Me Under
DR5        0.00 dB    -5.70 dB      3:45 05-Eternity
DR5        0.00 dB    -5.93 dB      3:54 06-The Choice
DR5        0.00 dB    -7.21 dB      1:10 07-Dissolution
DR5        0.00 dB    -5.80 dB      4:40 08-Silhouettes
--------------------------------------------------------------------------------
Number of tracks:  8
Official DR value: DR5
Samplerate:        44100 Hz
Channels:          2
Bits per sample:   16
Bitrate:           1032 kbps
Codec:             FLAC
================================================================================

Продолжительность: 00:21:01
Источник: tidal.com
1.Paralysis
2.Defeated
3.Lost
4.Hollowed
5.Faithless
6.Broken (feat. Devin Oliver)
7.Deceived
8.Empathy
9.Anxiety
10.Fraud
11.Vanquished
12.Mourning
Код:
Started at: ïîíåäåëüíèê, 17. 12. 2018. - 19:20.07
12 files found
01 -===- G:\[FLAC]\Post-Hardcore\If I Were You\2018 - Inner Signals [WEB]\01. Paralysis.flac
  Extracted successfully
  Conclusion: this track is CDDA with probability 99%
  Tempfile successfully deleted.
02 -===- G:\[FLAC]\Post-Hardcore\If I Were You\2018 - Inner Signals [WEB]\02. Defeated.flac
  Extracted successfully
  Conclusion: this track is CDDA with probability 100%
  Tempfile successfully deleted.
03 -===- G:\[FLAC]\Post-Hardcore\If I Were You\2018 - Inner Signals [WEB]\03. Lost.flac
  Extracted successfully
  Conclusion: this track is CDDA with probability 99%
  Tempfile successfully deleted.
04 -===- G:\[FLAC]\Post-Hardcore\If I Were You\2018 - Inner Signals [WEB]\04. Hollowed.flac
  Extracted successfully
  Conclusion: this track is CDDA with probability 100%
  Tempfile successfully deleted.
05 -===- G:\[FLAC]\Post-Hardcore\If I Were You\2018 - Inner Signals [WEB]\05. Faithless.flac
  Extracted successfully
  Conclusion: this track is CDDA with probability 100%
  Tempfile successfully deleted.
06 -===- G:\[FLAC]\Post-Hardcore\If I Were You\2018 - Inner Signals [WEB]\06. Broken (feat. Devin Oliver).flac
  Extracted successfully
  Conclusion: this track is CDDA with probability 100%
  Tempfile successfully deleted.
07 -===- G:\[FLAC]\Post-Hardcore\If I Were You\2018 - Inner Signals [WEB]\07. Deceived.flac
  Extracted successfully
  Conclusion: this track is CDDA with probability 100%
  Tempfile successfully deleted.
08 -===- G:\[FLAC]\Post-Hardcore\If I Were You\2018 - Inner Signals [WEB]\08. Empathy.flac
  Extracted successfully
  Conclusion: this track is CDDA with probability 100%
  Tempfile successfully deleted.
09 -===- G:\[FLAC]\Post-Hardcore\If I Were You\2018 - Inner Signals [WEB]\09. Anxiety.flac
  Extracted successfully
  Conclusion: this track is CDDA with probability 100%
  Tempfile successfully deleted.
10 -===- G:\[FLAC]\Post-Hardcore\If I Were You\2018 - Inner Signals [WEB]\10. Fraud.flac
  Extracted successfully
  Conclusion: this track is CDDA with probability 100%
  Tempfile successfully deleted.
11 -===- G:\[FLAC]\Post-Hardcore\If I Were You\2018 - Inner Signals [WEB]\11. Vanquished.flac
  Extracted successfully
  Conclusion: this track is CDDA with probability 100%
  Tempfile successfully deleted.
12 -===- G:\[FLAC]\Post-Hardcore\If I Were You\2018 - Inner Signals [WEB]\12. Mourning.flac
  Extracted successfully
  Conclusion: this track is CDDA with probability 100%
  Tempfile successfully deleted.
Finished at: ïîíåäåëüíèê, 17. 12. 2018. - 19:22.20 (operation time: 0:02.12)
Код:
Analyzed: If I Were You / Inner Signals
--------------------------------------------------------------------------------
DR         Peak         RMS     Duration Track
--------------------------------------------------------------------------------
DR5        0.00 dB    -6.66 dB      4:36 01-Paralysis
DR5        0.00 dB    -6.21 dB      3:35 02-Defeated
DR5        0.00 dB    -6.15 dB      4:11 03-Lost
DR5        0.00 dB    -6.70 dB      3:58 04-Hollowed
DR5        0.00 dB    -6.37 dB      3:44 05-Faithless
DR5        0.00 dB    -6.31 dB      4:29 06-Broken (feat. Devin Oliver)
DR5        0.00 dB    -6.66 dB      4:46 07-Deceived
DR5        0.00 dB    -6.01 dB      3:35 08-Empathy
DR6        0.00 dB    -6.49 dB      3:31 09-Anxiety
DR5        0.00 dB    -6.48 dB      4:25 10-Fraud
DR6        0.00 dB    -6.73 dB      3:31 11-Vanquished
DR5        0.00 dB    -7.25 dB      4:15 12-Mourning
--------------------------------------------------------------------------------
Number of tracks:  12
Official DR value: DR5
Samplerate:        44100 Hz
Channels:          2
Bits per sample:   16
Bitrate:           985 kbps
Codec:             FLAC
================================================================================

Продолжительность: 00:04:04
Источник: deezer.com
01 Autumn's Air (Remastered)
Код:
FILE: 01 Autumn's Air (Remastered).flac
  Size: 34237810 Hash: 38FE389069284FD4D63E73D55C07B110 Accuracy: -m0
  Conclusion: CDDA 100%
  Signature: 01E46589DE2207AE7D640F020BB6C83D8ACFAC37
Код:
Statistics for: 01-Autumn's Air (Remastered)
Number of samples: 10781385
Duration: 4:04
--------------------------------------------------------------------------------
                 Left              Right
Peak Value:      0.00 dB   ---      0.00 dB
Avg RMS:        -7.08 dB   ---     -7.16 dB
DR channel:      5.93 dB   ---      6.03 dB
--------------------------------------------------------------------------------
Official DR Value: DR6
Samplerate:        44100 Hz
Channels:          2
Bits per sample:   16
Bitrate:           1090 kbps
Codec:             FLAC
================================================================================

Продолжительность: 00:48:34
Источник: deezer.com
01. Paralysis (Instrumental) [04:36]
02. Defeated (Instrumental) [03:35]
03. Lost (Instrumental) [04:11]
04. Hollowed (Instrumental) [03:56]
05. Faithless (Instrumental) [03:44]
06. Broken (Instrumental) [04:29]
07. Deceived (Instrumental) [04:46]
08. Empathy (Instrumental) [03:35]
09. Anxiety (Instrumental) [03:31]
10. Fraud (Instrumental) [04:25]
11. Vanquished (Instrumental) [03:31]
12. Mourning (Instrumental) [04:15]
Код:
FILE: 12 Mourning (Instrumental).flac
  Size: 31153754 Hash: 42372AC2DFBEAC5275411CBC2D83179E Accuracy: -m0
  Conclusion: CDDA 100%
  Signature: 4DE3BF50621F14C1D5BA1F0CBBD5905065B8E903
FILE: 11 Vanquished (Instrumental).flac
  Size: 27328105 Hash: C594F2C684167610A38A6D41559E75F3 Accuracy: -m0
  Conclusion: CDDA 100%
  Signature: C28DD8F9A1E2158250F9FD66FBB447622A83B745
FILE: 10 Fraud (Instrumental).flac
  Size: 34903206 Hash: 1860AF2144FCA5E701AD83A6A8E3931C Accuracy: -m0
  Conclusion: CDDA 100%
  Signature: 23C00881682E285032F63C46D2CDD97CB8FF7AC0
FILE: 09 Anxiety (Instrumental).flac
  Size: 27939118 Hash: 72FEBB4CB8B969B7A95743E8569AA567 Accuracy: -m0
  Conclusion: CDDA 100%
  Signature: 35DE5060C8299CD5997803BE01E6845D8CD2D60C
FILE: 08 Empathy (Instrumental).flac
  Size: 28512597 Hash: A5940FF866BB07E5C6FFA7AB2C92CAA5 Accuracy: -m0
  Conclusion: CDDA 100%
  Signature: C4A07843498E2DAE3727242A79955495353B35ED
FILE: 07 Deceived (Instrumental).flac
  Size: 37144567 Hash: 59A05CFF17160D47BB037B4FF1FDEFB8 Accuracy: -m0
  Conclusion: CDDA 100%
  Signature: 915D3BF23393B22892FCCC3A8F3985BA617515F0
FILE: 06 Broken (Instrumental).flac
  Size: 34518363 Hash: 46D34D5AF2F134E5275219812F56AE9E Accuracy: -m0
  Conclusion: CDDA 100%
  Signature: BEBBAA9640760E7C9D806BD0A8AC7EB5C8BBCB54
FILE: 05 Faithless (Instrumental).flac
  Size: 28626853 Hash: 667AB985143F36E43C17B1A2D0AF795B Accuracy: -m0
  Conclusion: CDDA 99%
  Signature: 334C0E9B3C08BCF211B5EEE5F88E13DE8C63D40D
FILE: 04 Hollowed (Instrumental).flac
  Size: 28801741 Hash: 9AAA669CEF8219DBAFDBAEB48A562E52 Accuracy: -m0
  Conclusion: CDDA 100%
  Signature: 8DFACB2B8F55E59C29E9BB34E88FFE1519F004C0
FILE: 03 Lost (Instrumental).flac
  Size: 32897140 Hash: 0AA4C134F98C7E5DF8970C997ED87AE3 Accuracy: -m0
  Conclusion: CDDA 100%
  Signature: 57FFB900A3E74C1B9117D7E73C60469BA2926893
FILE: 02 Defeated (Instrumental).flac
  Size: 28335355 Hash: 73D8EE6A8992AA7E2205A11CA5ABF075 Accuracy: -m0
  Conclusion: CDDA 99%
  Signature: 49287385FD087A0507BED4F4C2E5F0C03DF8BBA9
FILE: 01 Paralysis (Instrumental).flac
  Size: 35759383 Hash: F2C43D18F4646CD1E1A9D3DA929D7799 Accuracy: -m0
  Conclusion: CDDA 100%
  Signature: C5B416A719CD6CBF93EBDB6F2F798CB1D3B00199
Код:
Analyzed: If I Were You / Inner Signals (Instrumental)
--------------------------------------------------------------------------------
DR         Peak         RMS     Duration Track
--------------------------------------------------------------------------------
DR6        0.00 dB    -7.17 dB      4:36 01-Paralysis (Instrumental)
DR6        0.00 dB    -6.65 dB      3:34 02-Defeated (Instrumental)
DR5        0.00 dB    -6.54 dB      4:11 03-Lost (Instrumental)
DR6        0.00 dB    -7.11 dB      3:56 04-Hollowed (Instrumental)
DR5        0.00 dB    -6.88 dB      3:44 05-Faithless (Instrumental)
DR6        0.00 dB    -6.79 dB      4:29 06-Broken (Instrumental)
DR6        0.00 dB    -7.25 dB      4:46 07-Deceived (Instrumental)
DR6        0.00 dB    -6.51 dB      3:35 08-Empathy (Instrumental)
DR6        0.00 dB    -6.92 dB      3:31 09-Anxiety (Instrumental)
DR5        0.00 dB    -6.84 dB      4:25 10-Fraud (Instrumental)
DR6        0.00 dB    -7.18 dB      3:31 11-Vanquished (Instrumental)
DR6        0.00 dB    -7.79 dB      4:15 12-Mourning (Instrumental)
--------------------------------------------------------------------------------
Number of tracks:  12
Official DR value: DR6
Samplerate:        44100 Hz
Channels:          2
Bits per sample:   16
Bitrate:           966 kbps
Codec:             FLAC
================================================================================

Продолжительность: 00:37:33
Источник: deezer.com
01. Black Heart [04:08]
02. Starting Over [04:02]
03. False Reality [03:41]
04. Hate Me (feat. Ryan Kirby) [02:43]
05. Always Searching [03:48]
06. Never There [03:54]
07. In Circles [03:32]
08. Set Free [03:56]
09. No Control [03:39]
10. Radiant Dark [04:03]
Код:
FILE: 10 Radiant Dark.flac
  Size: 31964060 Hash: EBB57985EB271120382B5098A64CE422 Accuracy: -m0
  Conclusion: CDDA 100%
  Signature: 775975C782BD62399DE4C7C1FFC715619CEA8C63
FILE: 09 No Control.flac
  Size: 29791456 Hash: C69F36E263CB31E5C6838C60B6EBF87B Accuracy: -m0
  Conclusion: CDDA 100%
  Signature: 5E2746B597C51B0711EA00519B5D839215F0F568
FILE: 08 Set Free.flac
  Size: 32842164 Hash: 16331F9BC584958B326B04C8E8770235 Accuracy: -m0
  Conclusion: CDDA 100%
  Signature: 5769E042B29F1255248952CA6CCA6A02AC55799F
FILE: 07 In Circles.flac
  Size: 29385756 Hash: B8BBA579294F5401A39312B0DA04904F Accuracy: -m0
  Conclusion: CDDA 100%
  Signature: 1C52C17C82946E9E96872D47ED957D25DD13D3BC
FILE: 06 Never There.flac
  Size: 32346613 Hash: A1B088F491278D3A1FE5EC0087447F35 Accuracy: -m0
  Conclusion: CDDA 100%
  Signature: 3955E78C96D5FB90887E846DFC3DCD0C095229E9
FILE: 05 Always Searching.flac
  Size: 32673439 Hash: CCDEC1B99BCFBAB5CEE18A7A1EE6648A Accuracy: -m0
  Conclusion: CDDA 100%
  Signature: 5DB7183AEDCCD6925B0333DF60A43290082B3B9C
FILE: 04 Hate Me.flac
  Size: 22713807 Hash: 647B5462462DBD3A26E8444A950DF547 Accuracy: -m0
  Conclusion: CDDA 100%
  Signature: BB917C99D9EE50B8E30B15BF12FE67F57A8BACC4
FILE: 03 False Reality.flac
  Size: 30471076 Hash: 6134DDAE2A1753647A14BA6046ED2081 Accuracy: -m0
  Conclusion: CDDA 100%
  Signature: AE45F4183DD49B811FCD3C3ADB29A9257515392D
FILE: 02 Starting Over.flac
  Size: 33712761 Hash: DAFA70A19AFDE9DE2F48EFEB1C733801 Accuracy: -m0
  Conclusion: CDDA 100%
  Signature: 58B72F7851262F4CFB9D31AB5733EE4AFD80B5BB
FILE: 01 Black Heart.flac
  Size: 33780238 Hash: B345A31EF7DB417FFA3D044514F9DC3B Accuracy: -m0
  Conclusion: CDDA 100%
  Signature: D82671EACE9E8CA98A1FD09C0525C9AC4D8E311E
Код:
Analyzed: If I Were You, Ryan Kirby / Radiant Dark (1)
          If I Were You / Radiant Dark (2-10)
--------------------------------------------------------------------------------
DR         Peak         RMS     Duration Track
--------------------------------------------------------------------------------
DR5        0.00 dB    -5.89 dB      2:44 04-Hate Me
DR5        0.00 dB    -5.91 dB      4:08 01-Black Heart
DR5        0.00 dB    -5.77 dB      4:03 02-Starting Over
DR5        0.00 dB    -6.05 dB      3:41 03-False Reality
DR5        0.00 dB    -5.84 dB      3:49 05-Always Searching
DR5        0.00 dB    -5.94 dB      3:54 06-Never There
DR5        0.00 dB    -5.98 dB      3:33 07-In Circles
DR5        0.00 dB    -6.00 dB      3:57 08-Set Free
DR5        0.00 dB    -6.34 dB      3:40 09-No Control
DR5        0.00 dB    -6.47 dB      4:04 10-Radiant Dark
--------------------------------------------------------------------------------
Number of tracks:  10
Official DR value: DR5
Samplerate:        44100 Hz
Channels:          2
Bits per sample:   16
Bitrate:           1043 kbps
Codec:             FLAC
================================================================================
Правила, инструкции, FAQ!!!
Торрент  Добавлен [28 июл 2020, 22:25] Скачать торрент Магнет ссылка
Скачать торрент
[ Размер 89.86 КБ / Просмотров 3 ]

Статус
Проверен 
 
Размер  2.06 ГБ
Приватный: Нет (DHT включён)
.torrent скачан  1
 


     Отправить личное сообщение
   
Страница 1 из 1
Показать сообщения за:  Поле сортировки  
Начать новую тему Ответить на тему


Сейчас этот форум просматривают: нет зарегистрированных пользователей и гости: 0


Вы не можете начинать темы
Вы не можете отвечать на сообщения
Вы не можете редактировать свои сообщения
Вы не можете удалять свои сообщения
Вы не можете добавлять вложения

Перейти:  
cron