Начать новую тему Ответить на тему
Статистика раздачи
Размер: 293.22 МБ | Добавлен: 26 мар 2019, 18:42 | Скачали: 0
Сидеров: 0  [0 байт/сек]    Личеров: 0  [0 байт/сек]
Пред. тема | След. тема 

Автор
Сообщение

СообщениеДобавлено: 26 мар 2019, 18:42 

Ответить с цитатой 

Rebecca St. James / I Will Praise You
Жанр: PopRock, Christian
Год издания диска: 2011
Страна: США
Аудиокодек: FLAC (*.flac)
Тип рипа: tracks+.cue
Битрейт аудио: lossless
Продолжительность: 42 min 44 sec
Источник: iloveprog1
Наличие сканов в содержимом раздачи: да
Треклист:
01. I Will Praise You
02. You Never Let Go
03. Shine Your Glory Down
04. You Still Amaze Me
05. In a Moment
06. The Kindness of Our God
07. When the Stars Burn Down (Blessings and Honor)
08. Almighty God
09. You Hold Me Now
10. You Make Everything Beautiful
Код:
Exact Audio Copy V0.99 prebeta 5 from 4. May 2009
EAC extraction logfile from 3. October 2011, 17:27
Rebecca St. James / I Will Praise You
Used drive  : ATAPI   iHAS124   Y   Adapter: 1  ID: 1
Read mode               : Secure
Utilize accurate stream : Yes
Defeat audio cache      : Yes
Make use of C2 pointers : No
Read offset correction                      : 48
Overread into Lead-In and Lead-Out          : No
Fill up missing offset samples with silence : Yes
Delete leading and trailing silent blocks   : No
Null samples used in CRC calculations       : Yes
Used interface                              : Native Win32 interface for Win NT & 2000
Gap handling                                : Appended to previous track
Used output format              : User Defined Encoder
Selected bitrate                : 768 kBit/s
Quality                         : High
Add ID3 tag                     : No
Command line compressor         : C:\Program Files (x86)\Exact Audio Copy\Flac\flac.exe
Additional command line options : -6 -V -T "ARTIST=%a" -T "TITLE=%t" -T "ALBUM=%g" -T "DATE=%y" -T "TRACKNUMBER=%n" -T "GENRE=%m" -T "COMMENT=%e" %s -o %d
TOC of the extracted CD
     Track |   Start  |  Length  | Start sector | End sector
    ---------------------------------------------------------
        1  |  0:00.00 |  4:20.17 |         0    |    19516
        2  |  4:20.17 |  4:16.33 |     19517    |    38749
        3  |  8:36.50 |  3:35.09 |     38750    |    54883
        4  | 12:11.59 |  3:47.03 |     54884    |    71911
        5  | 15:58.62 |  4:42.08 |     71912    |    93069
        6  | 20:40.70 |  4:22.02 |     93070    |   112721
        7  | 25:02.72 |  4:15.63 |    112722    |   131909
        8  | 29:18.60 |  4:58.22 |    131910    |   154281
        9  | 34:17.07 |  5:22.29 |    154282    |   178460
       10  | 39:39.36 |  3:04.66 |    178461    |   192326
Track  1
     Filename C:\To upload\Rebecca St. James - 2011 - I Will Praise You  FLAC\01 - I Will Praise You.wav
     Pre-gap length  0:00:02.00
     Peak level 99.5 %
     Track quality 100.0 %
     Test CRC C942812E
     Copy CRC C942812E
     Track not present in AccurateRip database
     Copy OK
Track  2
     Filename C:\To upload\Rebecca St. James - 2011 - I Will Praise You  FLAC\02 - You Never Let It Go.wav
     Peak level 99.5 %
     Track quality 100.0 %
     Test CRC EE1D4835
     Copy CRC EE1D4835
     Track not present in AccurateRip database
     Copy OK
Track  3
     Filename C:\To upload\Rebecca St. James - 2011 - I Will Praise You  FLAC\03 - Shine Your Glory Down.wav
     Peak level 99.5 %
     Track quality 100.0 %
     Test CRC 2BFFC575
     Copy CRC 2BFFC575
     Track not present in AccurateRip database
     Copy OK
Track  4
     Filename C:\To upload\Rebecca St. James - 2011 - I Will Praise You  FLAC\04 - You Still Amaze Me.wav
     Peak level 99.5 %
     Track quality 100.0 %
     Test CRC 0E833451
     Copy CRC 0E833451
     Track not present in AccurateRip database
     Copy OK
Track  5
     Filename C:\To upload\Rebecca St. James - 2011 - I Will Praise You  FLAC\05 - In A Moment.wav
     Peak level 99.5 %
     Track quality 100.0 %
     Test CRC F508C8AB
     Copy CRC F508C8AB
     Track not present in AccurateRip database
     Copy OK
Track  6
     Filename C:\To upload\Rebecca St. James - 2011 - I Will Praise You  FLAC\06 - The Kindness Of Our God.wav
     Peak level 99.5 %
     Track quality 100.0 %
     Test CRC 7696F612
     Copy CRC 7696F612
     Track not present in AccurateRip database
     Copy OK
Track  7
     Filename C:\To upload\Rebecca St. James - 2011 - I Will Praise You  FLAC\07 - When The Stars Burn Down.wav
     Peak level 99.5 %
     Track quality 100.0 %
     Test CRC 22F7AE84
     Copy CRC 22F7AE84
     Track not present in AccurateRip database
     Copy OK
Track  8
     Filename C:\To upload\Rebecca St. James - 2011 - I Will Praise You  FLAC\08 - Almighty God.wav
     Peak level 99.5 %
     Track quality 100.0 %
     Test CRC 9F0295E2
     Copy CRC 9F0295E2
     Track not present in AccurateRip database
     Copy OK
Track  9
     Filename C:\To upload\Rebecca St. James - 2011 - I Will Praise You  FLAC\Rebecca St. James - 2011 - I Will Praise You  FLAC\09 - You Hold Me Now.wav
     Peak level 99.5 %
     Track quality 100.0 %
     Test CRC 68293F79
     Copy CRC 68293F79
     Track not present in AccurateRip database
     Copy OK
Track 10
     Filename C:\To upload\Rebecca St. James - 2011 - I Will Praise You  FLAC\10 - You Make Everything Beautiful.wav
     Peak level 99.5 %
     Track quality 100.0 %
     Test CRC 98A5DC5A
     Copy CRC 98A5DC5A
     Track not present in AccurateRip database
     Copy OK
No tracks could be verified as accurate
You may have a different pressing from the one(s) in the database
No errors occurred
End of status report
Код:
REM GENRE Contemporary
REM DATE 2011
REM DISCID 750A040A
REM COMMENT "ExactAudioCopy v0.99pb5"
PERFORMER "Rebecca St. James"
TITLE "I Will Praise You"
FILE "Rebecca St. James - 2011 - I Will Praise You  FLAC\01 - I Will Praise You.wav" WAVE
  TRACK 01 AUDIO
    INDEX 01 00:00:00
FILE "Rebecca St. James - 2011 - I Will Praise You  FLAC\02 - You Never Let It Go.wav" WAVE
  TRACK 02 AUDIO
    INDEX 01 00:00:00
FILE "Rebecca St. James - 2011 - I Will Praise You  FLAC\03 - Shine Your Glory Down.wav" WAVE
  TRACK 03 AUDIO
    INDEX 01 00:00:00
FILE "Rebecca St. James - 2011 - I Will Praise You  FLAC\04 - You Still Amaze Me.wav" WAVE
  TRACK 04 AUDIO
    INDEX 01 00:00:00
FILE "Rebecca St. James - 2011 - I Will Praise You  FLAC\05 - In A Moment.wav" WAVE
  TRACK 05 AUDIO
    INDEX 01 00:00:00
FILE "Rebecca St. James - 2011 - I Will Praise You  FLAC\06 - The Kindness Of Our God.wav" WAVE
  TRACK 06 AUDIO
    INDEX 01 00:00:00
FILE "Rebecca St. James - 2011 - I Will Praise You  FLAC\07 - When The Stars Burn Down.wav" WAVE
  TRACK 07 AUDIO
    INDEX 01 00:00:00
FILE "Rebecca St. James - 2011 - I Will Praise You  FLAC\08 - Almighty God.wav" WAVE
  TRACK 08 AUDIO
    INDEX 01 00:00:00
FILE "Rebecca St. James - 2011 - I Will Praise You  FLAC\09 - You Hold Me Now.wav" WAVE
  TRACK 09 AUDIO
    INDEX 01 00:00:00
FILE "Rebecca St. James - 2011 - I Will Praise You  FLAC\10 - You Make Everything Beautiful.wav" WAVE
  TRACK 10 AUDIO
    INDEX 01 00:00:00
Выражаю благодарность iloveprog1 за предоставление альбома
Правила, инструкции, FAQ!!!
Торрент  Добавлен [26 мар 2019, 18:42] Скачать торрент Магнет ссылка
Скачать торрент
[ Размер 12.81 КБ / Просмотров 8 ]

Статус
Проверен 
 
Размер  293.22 МБ
Приватный: Нет (DHT включён)
.torrent скачан  0
 


     Отправить личное сообщение
   
Страница 1 из 1
Показать сообщения за:  Поле сортировки  
Начать новую тему Ответить на тему


Сейчас этот форум просматривают: нет зарегистрированных пользователей и гости: 0


Вы не можете начинать темы
Вы не можете отвечать на сообщения
Вы не можете редактировать свои сообщения
Вы не можете удалять свои сообщения
Вы не можете добавлять вложения

Перейти:  
cron