Начать новую тему Ответить на тему
Статистика раздачи
Размер: 528.58 МБ | Добавлен: 26 мар 2019, 19:13 | Скачали: 0
Сидеров: 1  [0 байт/сек]    Личеров: 0  [0 байт/сек]
Пред. тема | След. тема 

Автор
Сообщение

СообщениеДобавлено: 26 мар 2019, 19:13 

Ответить с цитатой 

Rebecca St. James / Wait For Me
(The Best From Rebecca St. James)

Жанр: PopRock , Christian
Год издания диска: 2003
Аудиокодек: FLAC (*.flac)
Тип рипа: tracks+.cue
Битрейт аудио: lossless
Продолжительность: 01:13:18
Источник: интернет
Треклист:
01. I thank you (3:45)
02. Expressions of Your Love (4:03)
03. God (4:09)
04. Pray (4:30)
05. Mirror (4:37)
06. Wait for Me (4:41)
07. Yes, I Believe in God (3:39)
08. Song of Love (4:11)
09. Speak to me (4:49)
10. Here I am (3:51)
11. Stand (4:37)
12. Reborn (3:58)
13. Lamb of God (3:09)
14. Go and Sin No More (4:33)
15. Until Your love broke through (4:06)
16. A Cradle Prayer (3:27)
17. Breathe (3:57)
18. Psalm 139 (3:26)
Код:
Exact Audio Copy V0.99 prebeta 5 from 4. May 2009
EAC extraction logfile from 6. April 2010, 14:09
Rebecca St. James / Wait For Me...The Best From Rebecca St. James
Used drive  : TSSTcorpCD/DVDW SH-S183L   Adapter: 3  ID: 0
Read mode               : Secure
Utilize accurate stream : Yes
Defeat audio cache      : Yes
Make use of C2 pointers : No
Read offset correction                      : 6
Overread into Lead-In and Lead-Out          : No
Fill up missing offset samples with silence : Yes
Delete leading and trailing silent blocks   : No
Null samples used in CRC calculations       : Yes
Used interface                              : Native Win32 interface for Win NT & 2000
Gap handling                                : Appended to previous track
Used output format              : User Defined Encoder
Selected bitrate                : 128 kBit/s
Quality                         : High
Add ID3 tag                     : No
Command line compressor         : E:\Programs\Exact Audio Copy\Flac\flac.exe
Additional command line options : -V -8 -T "artist=%a" -T "title=%t" -T "album=%g" -T "date=%y" -T "tracknumber=%n" -T "genre=%m" %s
TOC of the extracted CD
     Track |   Start  |  Length  | Start sector | End sector
    ---------------------------------------------------------
        1  |  0:00.00 |  3:45.28 |         0    |    16902
        2  |  3:45.28 |  4:02.66 |     16903    |    35118
        3  |  7:48.19 |  4:08.55 |     35119    |    53773
        4  | 11:56.74 |  4:29.65 |     53774    |    74013
        5  | 16:26.64 |  4:36.54 |     74014    |    94767
        6  | 21:03.43 |  4:40.54 |     94768    |   115821
        7  | 25:44.22 |  3:39.25 |    115822    |   132271
        8  | 29:23.47 |  4:10.42 |    132272    |   151063
        9  | 33:34.14 |  4:48.55 |    151064    |   172718
       10  | 38:22.69 |  3:50.70 |    172719    |   190038
       11  | 42:13.64 |  4:36.70 |    190039    |   210808
       12  | 46:50.59 |  3:58.35 |    210809    |   228693
       13  | 50:49.19 |  3:09.31 |    228694    |   242899
       14  | 53:58.50 |  4:33.34 |    242900    |   263408
       15  | 58:32.09 |  4:06.05 |    263409    |   281863
       16  | 62:38.14 |  3:27.06 |    281864    |   297394
       17  | 66:05.20 |  3:57.20 |    297395    |   315189
       18  | 70:02.40 |  3:25.62 |    315190    |   330626
Track  1
     Filename E:\Working\Rebecca St. James - 2003 - Wait For Me...The Best From Rebecca St. James\01 I thank you.wav
     Pre-gap length  0:00:02.00
     Peak level 99.9 %
     Track quality 100.0 %
     Test CRC 3B079EED
     Copy CRC 3B079EED
     Accurately ripped (confidence 3)  [2E1DAF21]
     Copy OK
Track  2
     Filename E:\Working\Rebecca St. James - 2003 - Wait For Me...The Best From Rebecca St. James\02 Expressions of Your Love.wav
     Pre-gap length  0:00:00.10
     Peak level 99.9 %
     Track quality 100.0 %
     Test CRC F2246751
     Copy CRC F2246751
     Accurately ripped (confidence 3)  [04658F4D]
     Copy OK
Track  3
     Filename E:\Working\Rebecca St. James - 2003 - Wait For Me...The Best From Rebecca St. James\03 God.wav
     Pre-gap length  0:00:00.89
     Peak level 99.9 %
     Track quality 99.9 %
     Test CRC F27926B8
     Copy CRC F27926B8
     Accurately ripped (confidence 4)  [3E63C757]
     Copy OK
Track  4
     Filename E:\Working\Rebecca St. James - 2003 - Wait For Me...The Best From Rebecca St. James\04 Pray.wav
     Pre-gap length  0:00:00.24
     Peak level 99.9 %
     Track quality 100.0 %
     Test CRC BC605359
     Copy CRC BC605359
     Accurately ripped (confidence 4)  [F74B7C97]
     Copy OK
Track  5
     Filename E:\Working\Rebecca St. James - 2003 - Wait For Me...The Best From Rebecca St. James\05 Mirror.wav
     Pre-gap length  0:00:00.53
     Peak level 99.9 %
     Track quality 100.0 %
     Test CRC 6AC22C02
     Copy CRC 6AC22C02
     Accurately ripped (confidence 4)  [5FEA0C6A]
     Copy OK
Track  6
     Filename E:\Working\Rebecca St. James - 2003 - Wait For Me...The Best From Rebecca St. James\06 Wait for Me.wav
     Pre-gap length  0:00:01.72
     Peak level 99.9 %
     Track quality 100.0 %
     Test CRC C4DF65AC
     Copy CRC C4DF65AC
     Accurately ripped (confidence 4)  [240E7D31]
     Copy OK
Track  7
     Filename E:\Working\Rebecca St. James - 2003 - Wait For Me...The Best From Rebecca St. James\07 Yes, I Believe in God.wav
     Peak level 99.9 %
     Track quality 100.0 %
     Test CRC 0D6BEED5
     Copy CRC 0D6BEED5
     Accurately ripped (confidence 4)  [7BE76739]
     Copy OK
Track  8
     Filename E:\Working\Rebecca St. James - 2003 - Wait For Me...The Best From Rebecca St. James\08 Song of Love.wav
     Peak level 99.9 %
     Track quality 100.0 %
     Test CRC C6C6802A
     Copy CRC C6C6802A
     Accurately ripped (confidence 4)  [B2FFD07C]
     Copy OK
Track  9
     Filename E:\Working\Rebecca St. James - 2003 - Wait For Me...The Best From Rebecca St. James\09 Speak to me.wav
     Pre-gap length  0:00:02.13
     Peak level 99.9 %
     Track quality 100.0 %
     Test CRC E668A57A
     Copy CRC E668A57A
     Accurately ripped (confidence 4)  [2662A58A]
     Copy OK
Track 10
     Filename E:\Working\Rebecca St. James - 2003 - Wait For Me...The Best From Rebecca St. James\10 Here I am.wav
     Pre-gap length  0:00:01.32
     Peak level 99.9 %
     Track quality 100.0 %
     Test CRC 106F89D2
     Copy CRC 106F89D2
     Accurately ripped (confidence 4)  [B8C5E94E]
     Copy OK
Track 11
     Filename E:\Working\Rebecca St. James - 2003 - Wait For Me...The Best From Rebecca St. James\11 Stand.wav
     Pre-gap length  0:00:01.09
     Peak level 99.9 %
     Track quality 99.9 %
     Test CRC 2779B823
     Copy CRC 2779B823
     Accurately ripped (confidence 4)  [01C743E3]
     Copy OK
Track 12
     Filename E:\Working\Rebecca St. James - 2003 - Wait For Me...The Best From Rebecca St. James\12 Reborn.wav
     Peak level 99.9 %
     Track quality 100.0 %
     Test CRC 237BC3E7
     Copy CRC 237BC3E7
     Accurately ripped (confidence 4)  [A009EF3D]
     Copy OK
Track 13
     Filename E:\Working\Rebecca St. James - 2003 - Wait For Me...The Best From Rebecca St. James\13 Lamb of God.wav
     Pre-gap length  0:00:00.93
     Peak level 99.9 %
     Track quality 100.0 %
     Test CRC E54EF119
     Copy CRC E54EF119
     Accurately ripped (confidence 4)  [A310B4A5]
     Copy OK
Track 14
     Filename E:\Working\Rebecca St. James - 2003 - Wait For Me...The Best From Rebecca St. James\14 Go and Sin No More.wav
     Pre-gap length  0:00:02.26
     Peak level 99.9 %
     Track quality 100.0 %
     Test CRC 67FC2920
     Copy CRC 67FC2920
     Accurately ripped (confidence 4)  [1A0B35CA]
     Copy OK
Track 15
     Filename E:\Working\Rebecca St. James - 2003 - Wait For Me...The Best From Rebecca St. James\15 Until Your love broke through.wav
     Pre-gap length  0:00:01.46
     Peak level 99.9 %
     Track quality 99.9 %
     Test CRC AC7BE99F
     Copy CRC AC7BE99F
     Accurately ripped (confidence 4)  [04E4A188]
     Copy OK
Track 16
     Filename E:\Working\Rebecca St. James - 2003 - Wait For Me...The Best From Rebecca St. James\16 A Cradle Prayer.wav
     Pre-gap length  0:00:01.18
     Peak level 99.9 %
     Track quality 100.0 %
     Test CRC 95D8F539
     Copy CRC 95D8F539
     Accurately ripped (confidence 4)  [65267B07]
     Copy OK
Track 17
     Filename E:\Working\Rebecca St. James - 2003 - Wait For Me...The Best From Rebecca St. James\17 Breathe.wav
     Peak level 99.9 %
     Track quality 100.0 %
     Test CRC 391C318A
     Copy CRC 391C318A
     Accurately ripped (confidence 3)  [631174FE]
     Copy OK
Track 18
     Filename E:\Working\Rebecca St. James - 2003 - Wait For Me...The Best From Rebecca St. James\18 Psalm 139.wav
     Pre-gap length  0:00:01.20
     Peak level 99.9 %
     Track quality 100.0 %
     Test CRC CFE17134
     Copy CRC CFE17134
     Accurately ripped (confidence 3)  [C24734B6]
     Copy OK
All tracks accurately ripped
No errors occurred
End of status report
Код:
REM GENRE Christian
REM DATE 2003
REM DISCID F2113812
REM COMMENT "ExactAudioCopy v0.99pb5"
PERFORMER "Rebecca St. James"
TITLE "Wait For Me"
FILE "01 I thank you.wav" WAVE
  TRACK 01 AUDIO
    TITLE "01 I thank you"
    PERFORMER "Rebecca St. James"
    INDEX 01 00:00:00
  TRACK 02 AUDIO
    TITLE "02 Expressions of Your Love"
    PERFORMER "Rebecca St. James"
    INDEX 00 03:45:20
FILE "02 Expressions of Your Love.wav" WAVE
    INDEX 01 00:00:00
  TRACK 03 AUDIO
    TITLE "03 God"
    PERFORMER "Rebecca St. James"
    INDEX 00 04:01:74
FILE "03 God.wav" WAVE
    INDEX 01 00:00:00
  TRACK 04 AUDIO
    TITLE "04 Pray"
    PERFORMER "Rebecca St. James"
    INDEX 00 04:08:37
FILE "04 Pray.wav" WAVE
    INDEX 01 00:00:00
  TRACK 05 AUDIO
    INDEX 00 04:29:25
FILE "05 Mirror.wav" WAVE
    TITLE "05 Mirror"
    PERFORMER "Rebecca St. James"
    INDEX 01 00:00:00
  TRACK 06 AUDIO
    TITLE "06 Wait for Me"
    PERFORMER "Rebecca St. James"
    INDEX 00 04:35:00
FILE "06 Wait for Me.wav" WAVE
    INDEX 01 00:00:00
FILE "07 Yes, I Believe in God.wav" WAVE
  TRACK 07 AUDIO
    TITLE "07 Yes, I Believe in God"
    PERFORMER "Rebecca St. James"
    INDEX 01 00:00:00
FILE "08 Song of Love.wav" WAVE
  TRACK 08 AUDIO
    TITLE "08 Song of Love"
    PERFORMER "Rebecca St. James"
    INDEX 01 00:00:00
  TRACK 09 AUDIO
    TITLE "09 Speak to me"
    PERFORMER "Rebecca St. James"
    INDEX 00 04:08:32
FILE "09 Speak to me.wav" WAVE
    INDEX 01 00:00:00
  TRACK 10 AUDIO
    TITLE "10 Here I am"
    PERFORMER "Rebecca St. James"
    INDEX 00 04:47:31
FILE "10 Here I am.wav" WAVE
    INDEX 01 00:00:00
  TRACK 11 AUDIO
    TITLE "11 Stand"
    PERFORMER "Rebecca St. James"
    INDEX 00 03:49:63
FILE "11 Stand.wav" WAVE
    INDEX 01 00:00:00
FILE "12 Reborn.wav" WAVE
  TRACK 12 AUDIO
    TITLE "12 Reborn"
    PERFORMER "Rebecca St. James"
    INDEX 01 00:00:00
  TRACK 13 AUDIO
    TITLE "13 Lamb of God"
    PERFORMER "Rebecca St. James"
    INDEX 00 03:57:40
FILE "13 Lamb of God.wav" WAVE
    INDEX 01 00:00:00
  TRACK 14 AUDIO
    TITLE "14 Go and Sin No More"
    PERFORMER "Rebecca St. James"
    INDEX 00 03:07:11
FILE "14 Go and Sin No More.wav" WAVE
    INDEX 01 00:00:00
  TRACK 15 AUDIO
    TITLE "15 Until Your love broke through"
    PERFORMER "Rebecca St. James"
    INDEX 00 04:31:74
FILE "15 Until Your love broke through.wav" WAVE
    INDEX 01 00:00:00
  TRACK 16 AUDIO
    TITLE "16 A Cradle Prayer"
    PERFORMER "Rebecca St. James"
    INDEX 00 04:04:66
FILE "16 A Cradle Prayer.wav" WAVE
    INDEX 01 00:00:00
FILE "17 Breathe.wav" WAVE
  TRACK 17 AUDIO
    TITLE "17 Breathe"
    PERFORMER "Rebecca St. James"
    INDEX 01 00:00:00
  TRACK 18 AUDIO
    TITLE "18 Psalm 139"
    PERFORMER "Rebecca St. James"
    INDEX 00 03:56:05
FILE "18 Psalm 139.wav" WAVE
    INDEX 01 00:00:00
Выражаю благодарность iloveprog1 за предоставление альбома .
Правила, инструкции, FAQ!!!
Торрент  Добавлен [26 мар 2019, 19:13] Скачать торрент Магнет ссылка
Скачать торрент
[ Размер 11.84 КБ / Просмотров 1 ]

Статус
Проверен 
 
Размер  528.58 МБ
Приватный: Нет (DHT включён)
.torrent скачан  0
 


     Отправить личное сообщение
   
Страница 1 из 1
Показать сообщения за:  Поле сортировки  
Начать новую тему Ответить на тему


Сейчас этот форум просматривают: нет зарегистрированных пользователей и гости: 0


Вы не можете начинать темы
Вы не можете отвечать на сообщения
Вы не можете редактировать свои сообщения
Вы не можете удалять свои сообщения
Вы не можете добавлять вложения

Перейти:  
cron