Начать новую тему Ответить на тему
Статистика раздачи
Размер: 402.71 МБ | Добавлен: 26 мар 2019, 18:43 | Скачали: 0
Сидеров: 0  [0 байт/сек]    Личеров: 0  [0 байт/сек]
Пред. тема | След. тема 

Автор
Сообщение

СообщениеДобавлено: 26 мар 2019, 18:43 

Ответить с цитатой 

Rebecca St. James - Transform
Жанр: PopRock , Christian
Год издания диска: 2000
Аудиокодек: FLAC (*.flac)
Тип рипа: tracks+.cue
Битрейт аудио: lossless
Продолжительность: 53:01
Источник (релизер): интернет
Треклист:
01. Intro (0:52)
02. For the Love of God (4:38)
03. Reborn (3:59)
04. Don't Worry (3:38)
05. Merciful (5:00)
06. One (4:38)
07. Universe (5:01)
08. Wait for Me (4:40)
09. In Me (4:14)
10. Lean On (3:38)
11. All Around Me (3:42)
12. Stand (4:36)
13. My Hope (4:29)
Код:
Exact Audio Copy V0.99 prebeta 3 from 28. July 2007
EAC extraction logfile from 1. March 2009, 0:00
Rebecca St. James / Transform
Used drive  : MATSHITADVD-RAM UJ-831S   Adapter: 1  ID: 0
Read mode               : Secure
Utilize accurate stream : Yes
Defeat audio cache      : Yes
Make use of C2 pointers : No
Read offset correction                      : 102
Overread into Lead-In and Lead-Out          : No
Fill up missing offset samples with silence : Yes
Delete leading and trailing silent blocks   : No
Null samples used in CRC calculations       : Yes
Used interface                              : Native Win32 interface for Win NT & 2000
Gap handling                                : Appended to previous track
Used output format              : User Defined Encoder
Selected bitrate                : 128 kBit/s
Quality                         : High
Add ID3 tag                     : No
Command line compressor         : C:\Program Files\FLAC\flac.exe
Additional command line options : -V -8 -T "artist=%a" -T "title=%t" -T "album=%g" -T "date=%y" -T "tracknumber=%n" -T "genre=%m" %s
TOC of the extracted CD
     Track |   Start  |  Length  | Start sector | End sector
    ---------------------------------------------------------
        1  |  0:00.00 |  0:52.30 |         0    |     3929
        2  |  0:52.30 |  4:37.50 |      3930    |    24754
        3  |  5:30.05 |  3:59.27 |     24755    |    42706
        4  |  9:29.32 |  3:37.65 |     42707    |    59046
        5  | 13:07.22 |  5:00.08 |     59047    |    81554
        6  | 18:07.30 |  4:37.72 |     81555    |   102401
        7  | 22:45.27 |  5:00.50 |    102402    |   124951
        8  | 27:46.02 |  4:40.23 |    124952    |   145974
        9  | 32:26.25 |  4:14.02 |    145975    |   165026
       10  | 36:40.27 |  3:38.25 |    165027    |   181401
       11  | 40:18.52 |  3:41.53 |    181402    |   198029
       12  | 44:00.30 |  4:36.20 |    198030    |   218749
       13  | 48:36.50 |  4:29.32 |    218750    |   238956
Track  1
     Filename C:\Rebecca St. James - 2000 - Transform\01 - Intro.wav
     Pre-gap length  0:00:02.00
     Peak level 93.2 %
     Track quality 100.0 %
     Test CRC 64BCE571
     Copy CRC 64BCE571
     Accurately ripped (confidence 13)  [2CE21AE9]
     Copy OK
Track  2
     Filename C:\Rebecca St. James - 2000 - Transform\02 - For the Love of God.wav
     Peak level 97.1 %
     Track quality 100.0 %
     Test CRC 3A6CBFF9
     Copy CRC 3A6CBFF9
     Accurately ripped (confidence 13)  [9CDCDDA4]
     Copy OK
Track  3
     Filename C:\Rebecca St. James - 2000 - Transform\03 - Reborn.wav
     Peak level 96.5 %
     Track quality 100.0 %
     Test CRC 7C65C532
     Copy CRC 7C65C532
     Accurately ripped (confidence 14)  [924EEA60]
     Copy OK
Track  4
     Filename C:\Rebecca St. James - 2000 - Transform\04 - Don't Worry.wav
     Pre-gap length  0:00:01.76
     Peak level 96.5 %
     Track quality 100.0 %
     Test CRC DB74658B
     Copy CRC DB74658B
     Accurately ripped (confidence 12)  [D48C72B3]
     Copy OK
Track  5
     Filename C:\Rebecca St. James - 2000 - Transform\05 - Merciful.wav
     Peak level 96.5 %
     Track quality 100.0 %
     Test CRC 93181C3A
     Copy CRC 93181C3A
     Accurately ripped (confidence 13)  [74190A17]
     Copy OK
Track  6
     Filename C:\Rebecca St. James - 2000 - Transform\06 - One.wav
     Peak level 96.5 %
     Track quality 99.9 %
     Test CRC EA32FAF8
     Copy CRC EA32FAF8
     Accurately ripped (confidence 13)  [CE3C0D16]
     Copy OK
Track  7
     Filename C:\Rebecca St. James - 2000 - Transform\07 - Universe.wav
     Peak level 96.5 %
     Track quality 100.0 %
     Test CRC AE0CB7D2
     Copy CRC AE0CB7D2
     Accurately ripped (confidence 13)  [812654D0]
     Copy OK
Track  8
     Filename C:\Rebecca St. James - 2000 - Transform\08 - Wait for Me.wav
     Pre-gap length  0:00:01.16
     Peak level 96.5 %
     Track quality 100.0 %
     Test CRC A57E71FD
     Copy CRC A57E71FD
     Accurately ripped (confidence 13)  [AD1FE8A7]
     Copy OK
Track  9
     Filename C:\Rebecca St. James - 2000 - Transform\09 - In Me.wav
     Peak level 96.5 %
     Track quality 99.9 %
     Test CRC 6BA1FC0C
     Copy CRC 6BA1FC0C
     Accurately ripped (confidence 13)  [0EE9F93C]
     Copy OK
Track 10
     Filename C:\Rebecca St. James - 2000 - Transform\10 - Lean On.wav
     Peak level 96.6 %
     Track quality 100.0 %
     Test CRC 7697286C
     Copy CRC 7697286C
     Accurately ripped (confidence 13)  [9165BECB]
     Copy OK
Track 11
     Filename C:\Rebecca St. James - 2000 - Transform\11 - All Around Me.wav
     Peak level 93.2 %
     Track quality 100.0 %
     Test CRC 501E56F1
     Copy CRC 501E56F1
     Accurately ripped (confidence 13)  [96F6978C]
     Copy OK
Track 12
     Filename C:\Rebecca St. James - 2000 - Transform\12 - Stand.wav
     Peak level 96.5 %
     Track quality 99.9 %
     Test CRC 02CAD79C
     Copy CRC 02CAD79C
     Accurately ripped (confidence 13)  [85F0EBAF]
     Copy OK
Track 13
     Filename C:\Rebecca St. James - 2000 - Transform\13 - My Hope.wav
     Peak level 96.5 %
     Track quality 100.0 %
     Test CRC 36158CCD
     Copy CRC 36158CCD
     Accurately ripped (confidence 13)  [477654BF]
     Copy OK
All tracks accurately ripped
No errors occurred
End of status report
Код:
REM GENRE Christian
REM DATE 1997
REM DISCID B60C720D
REM COMMENT "ExactAudioCopy v0.99pb3"
PERFORMER "Rebecca St. James"
TITLE "Transform"
FILE "01 - Intro.flac" flac
  TRACK 01 AUDIO
    TITLE "01 - Intro"
    PERFORMER "Rebecca St. James"
    INDEX 01 00:00:00
FILE "02 - For the Love of God.flac" flac
  TRACK 02 AUDIO
    TITLE "02 - For the Love of God"
    PERFORMER "Rebecca St. James"
    INDEX 01 00:00:00
FILE "03 - Reborn.flac" flac
  TRACK 03 AUDIO
    TITLE "03 - Reborn"
    PERFORMER "Rebecca St. James"
    INDEX 01 00:00:00
FILE "04 - Don't Worry.flac" flac
  TRACK 04 AUDIO
    TITLE "04 - Don't Worry"
    PERFORMER "Rebecca St. James"
    INDEX 01 00:00:00
FILE "05 - Merciful.flac" flac
  TRACK 05 AUDIO
    TITLE "05 - Merciful"
    PERFORMER "Rebecca St. James"
    INDEX 01 00:00:00
FILE "06 - One.flac" flac
  TRACK 06 AUDIO
    TITLE "06 - One"
    PERFORMER "Rebecca St. James"
    INDEX 01 00:00:00
FILE "07 - Universe.flac" flac
  TRACK 07 AUDIO
    TITLE "07 - Universe"
    PERFORMER "Rebecca St. James"
    INDEX 01 00:00:00
FILE "08 - Wait for Me.flac" flac
  TRACK 08 AUDIO
    TITLE "08 - Wait for Me"
    PERFORMER "Rebecca St. James"
    INDEX 01 00:00:00
FILE "09 - In Me.flac" flac
  TRACK 09 AUDIO
    TITLE "09 - In Me"
    PERFORMER "Rebecca St. James"
    INDEX 01 00:00:00
FILE "10 - Lean On.flac" flac
  TRACK 10 AUDIO
    TITLE "10 - Lean On"
    PERFORMER "Rebecca St. James"
    INDEX 01 00:00:00
FILE "11 - All Around Me.flac" flac
  TRACK 11 AUDIO
    TITLE "11 - All Around Me"
    PERFORMER "Rebecca St. James"
    INDEX 01 00:00:00
FILE "12 - Stand.flac" flac
  TRACK 12 AUDIO
    TITLE "12 - Stand"
    PERFORMER "Rebecca St. James"
    INDEX 01 00:00:00
FILE "13 - My Hope.flac" flac
  TRACK 13 AUDIO
    TITLE "13 - My Hope"
    PERFORMER "Rebecca St. James"
    INDEX 01 00:00:00
Правила, инструкции, FAQ!!!
Торрент  Добавлен [26 мар 2019, 18:43] Скачать торрент Магнет ссылка
Скачать торрент
[ Размер 16.94 КБ / Просмотров 1 ]

Статус
Проверен 
 
Размер  402.71 МБ
Приватный: Нет (DHT включён)
.torrent скачан  0
 


     Отправить личное сообщение
   
Страница 1 из 1
Показать сообщения за:  Поле сортировки  
Начать новую тему Ответить на тему


Сейчас этот форум просматривают: нет зарегистрированных пользователей и гости: 0


Вы не можете начинать темы
Вы не можете отвечать на сообщения
Вы не можете редактировать свои сообщения
Вы не можете удалять свои сообщения
Вы не можете добавлять вложения

Перейти:  
cron