Начать новую тему Ответить на тему
Статистика раздачи
Размер: 309.49 МБ | Добавлен: 26 мар 2019, 18:43 | Скачали: 0
Сидеров: 0  [0 байт/сек]    Личеров: 0  [0 байт/сек]
Пред. тема | След. тема 

Автор
Сообщение

СообщениеДобавлено: 26 мар 2019, 18:43 

Ответить с цитатой 

Rebecca St. James - God
Жанр: PopRock , Christian
Год издания диска: 1996
Аудиокодек: FLAC (*.flac)
Тип рипа: tracks+.cue
Битрейт аудио: lossless
Продолжительность: 48:28
Источник : интернет
Треклист:
01. God (4:09)
02. You're the Voice (5:00)
03. You Then Me (3:51)
04. Speak to Me (4:47)
05. Abba (Father) (5:20)
06. Me Without You (4:15)
07. That's What Matters (4:53)
08. Carry Me High (4:40)
09. A Cold Heart Turns (2:54)
10. Go and Sin No More / Psalm 139 [Hidden] (8:42)
Код:
Exact Audio Copy V0.99 prebeta 3 from 28. July 2007
EAC extraction logfile from 25. September 2008, 20:20
Rebecca St. James / God
Used drive  : TSSTcorpDVD+-RW TS-H653A   Adapter: 1  ID: 0
Read mode               : Secure
Utilize accurate stream : Yes
Defeat audio cache      : Yes
Make use of C2 pointers : No
Combined read/write offset correction       : 6
Overread into Lead-In and Lead-Out          : No
Fill up missing offset samples with silence : Yes
Delete leading and trailing silent blocks   : No
Null samples used in CRC calculations       : Yes
Used interface                              : Native Win32 interface for Win NT & 2000
Gap handling                                : Appended to previous track
Used output format              : User Defined Encoder
Selected bitrate                : 128 kBit/s
Quality                         : High
Add ID3 tag                     : No
Command line compressor         : C:\Program Files\Exact Audio Copy\FLAC\FLAC.EXE
Additional command line options : -V -8 -T "artist=%a" -T "title=%t" -T "album=%g" -T "date=%y" -T "tracknumber=%n" -T "genre=%m" %s
TOC of the extracted CD
     Track |   Start  |  Length  | Start sector | End sector
    ---------------------------------------------------------
        1  |  0:00.00 |  4:08.47 |         0    |    18646
        2  |  4:08.47 |  5:00.08 |     18647    |    41154
        3  |  9:08.55 |  3:51.35 |     41155    |    58514
        4  | 13:00.15 |  4:47.05 |     58515    |    80044
        5  | 17:47.20 |  5:20.20 |     80045    |   104064
        6  | 23:07.40 |  4:15.02 |    104065    |   123191
        7  | 27:22.42 |  4:52.55 |    123192    |   145146
        8  | 32:15.22 |  4:40.18 |    145147    |   166164
        9  | 36:55.40 |  2:54.20 |    166165    |   179234
       10  | 39:49.60 |  8:41.65 |    179235    |   218374
Track  1
     Filename D:\Torrent\What.cd\Rebecca St. James - God\01 - God.wav
     Pre-gap length  0:00:02.00
     Peak level 100.0 %
     Track quality 100.0 %
     Test CRC C560C9BB
     Copy CRC C560C9BB
     Copy OK
Track  2
     Filename D:\Torrent\What.cd\Rebecca St. James - God\02 - You're the Voice.wav
     Pre-gap length  0:00:00.02
     Peak level 100.0 %
     Track quality 100.0 %
     Test CRC A8B5E576
     Copy CRC A8B5E576
     Copy OK
Track  3
     Filename D:\Torrent\What.cd\Rebecca St. James - God\03 - You Then Me.wav
     Peak level 100.0 %
     Track quality 99.9 %
     Test CRC 178A64FD
     Copy CRC 178A64FD
     Copy OK
Track  4
     Filename D:\Torrent\What.cd\Rebecca St. James - God\04 - Speak to Me.wav
     Pre-gap length  0:00:00.05
     Peak level 100.0 %
     Track quality 100.0 %
     Test CRC 51F572FB
     Copy CRC 51F572FB
     Copy OK
Track  5
     Filename D:\Torrent\What.cd\Rebecca St. James - God\05 - Abba (Father).wav
     Pre-gap length  0:00:00.50
     Peak level 100.0 %
     Track quality 100.0 %
     Test CRC C9B18F7D
     Copy CRC C9B18F7D
     Copy OK
Track  6
     Filename D:\Torrent\What.cd\Rebecca St. James - God\06 - Me Without You.wav
     Peak level 100.0 %
     Track quality 99.9 %
     Test CRC 3DA3E20E
     Copy CRC 3DA3E20E
     Copy OK
Track  7
     Filename D:\Torrent\What.cd\Rebecca St. James - God\07 - That's What Matters.wav
     Peak level 100.0 %
     Track quality 100.0 %
     Test CRC B02DA801
     Copy CRC B02DA801
     Copy OK
Track  8
     Filename D:\Torrent\What.cd\Rebecca St. James - God\08 - Carry Me High.wav
     Peak level 100.0 %
     Track quality 99.9 %
     Test CRC 1BEE1A42
     Copy CRC 1BEE1A42
     Copy OK
Track  9
     Filename D:\Torrent\What.cd\Rebecca St. James - God\09 - A Cold Heart Turns.wav
     Peak level 100.0 %
     Track quality 100.0 %
     Test CRC A88EC326
     Copy CRC A88EC326
     Copy OK
Track 10
     Filename D:\Torrent\What.cd\Rebecca St. James - God\10 - Go and Sin No More , Psalm 139 [Hidden].wav
     Peak level 100.0 %
     Track quality 100.0 %
     Test CRC 56E80D9E
     Copy CRC 56E80D9E
     Copy OK
No errors occurred
End of status report
Код:
REM GENRE "Christian Rock"
REM DATE 1996
REM DISCID 870B5F0A
REM COMMENT "ExactAudioCopy v0.99pb3"
PERFORMER "Rebecca St. James"
TITLE "God"
FILE "01 - God.wav" WAVE
  TRACK 01 AUDIO
    TITLE "God"
    PERFORMER "Rebecca St. James"
    INDEX 01 00:00:00
  TRACK 02 AUDIO
    TITLE "You're the Voice"
    PERFORMER "Rebecca St. James"
    INDEX 00 04:08:45
FILE "02 - You're the Voice.wav" WAVE
    INDEX 01 00:00:00
FILE "03 - You Then Me.wav" WAVE
  TRACK 03 AUDIO
    TITLE "You Then Me"
    PERFORMER "Rebecca St. James"
    INDEX 01 00:00:00
  TRACK 04 AUDIO
    TITLE "Speak to Me"
    PERFORMER "Rebecca St. James"
    INDEX 00 03:51:30
FILE "04 - Speak to Me.wav" WAVE
    INDEX 01 00:00:00
  TRACK 05 AUDIO
    TITLE "Abba (Father)"
    PERFORMER "Rebecca St. James"
    INDEX 00 04:46:30
FILE "05 - Abba (Father).wav" WAVE
    INDEX 01 00:00:00
FILE "06 - Me Without You.wav" WAVE
  TRACK 06 AUDIO
    TITLE "Me Without You"
    PERFORMER "Rebecca St. James"
    INDEX 01 00:00:00
FILE "07 - That's What Matters.wav" WAVE
  TRACK 07 AUDIO
    TITLE "That's What Matters"
    PERFORMER "Rebecca St. James"
    INDEX 01 00:00:00
FILE "08 - Carry Me High.wav" WAVE
  TRACK 08 AUDIO
    TITLE "Carry Me High"
    PERFORMER "Rebecca St. James"
    INDEX 01 00:00:00
FILE "09 - A Cold Heart Turns.wav" WAVE
  TRACK 09 AUDIO
    TITLE "A Cold Heart Turns"
    PERFORMER "Rebecca St. James"
    INDEX 01 00:00:00
FILE "10 - Go and Sin No More , Psalm 139 [Hidden].wav" WAVE
  TRACK 10 AUDIO
    TITLE "Go and Sin No More / Psalm 139 [Hidden]"
    PERFORMER "Rebecca St. James"
    INDEX 01 00:00:00
Правила, инструкции, FAQ!!!
Торрент  Добавлен [26 мар 2019, 18:43] Скачать торрент Магнет ссылка
Скачать торрент
[ Размер 13.29 КБ / Просмотров 5 ]

Статус
Проверен 
 
Размер  309.49 МБ
Приватный: Нет (DHT включён)
.torrent скачан  0
 


     Отправить личное сообщение
   
Страница 1 из 1
Показать сообщения за:  Поле сортировки  
Начать новую тему Ответить на тему


Сейчас этот форум просматривают: нет зарегистрированных пользователей и гости: 0


Вы не можете начинать темы
Вы не можете отвечать на сообщения
Вы не можете редактировать свои сообщения
Вы не можете удалять свои сообщения
Вы не можете добавлять вложения

Перейти:  
cron