Начать новую тему Ответить на тему
Статистика раздачи
Размер: 256 МБ | Добавлен: 26 мар 2019, 20:09 | Скачали: 0
Сидеров: 0  [0 байт/сек]    Личеров: 0  [0 байт/сек]
Пред. тема | След. тема 

Автор
Сообщение

СообщениеДобавлено: 26 мар 2019, 20:09 

Ответить с цитатой 

Sparks - Pulling Rabbits Out Of A Hat
Страна: USA
Жанр: Pop/Synth-Pop
Год выпуска: 1984
Формат: APE (image + .cue)
Битрейт аудио: lossless
Трэклист:
01. Pulling Rabbits Out Of A Hat
02. Love Scenes
03. Pretending To Be Drunk
04. Progress
05. With All My Might
06. Sparks In The Dark (Part One)
07. Everbody Move
08. A Song That Sings Itself
09. Sisters
10. Kiss Me Quick
11. Sparks In The Dark (Part Two)

Доп. информация: Альбом выкладывается в ознакомительных целях, после прослушивания Вы должны удалить файлы с жесткого диска, и приобрести в магазине лицензионную копию.
Exact Audio Copy V0.99 prebeta 4 from 23. January 2008
EAC extraction logfile from 17. June 2008, 21:11
Sparks / Pulling Rabbits Out Of A Hat
Used drive : _NEC DVD_RW ND-3550A Adapter: 5 ID: 0
Read mode : Secure
Utilize accurate stream : Yes
Defeat audio cache : Yes
Make use of C2 pointers : No
Read offset correction : 48
Overread into Lead-In and Lead-Out : No
Fill up missing offset samples with silence : Yes
Delete leading and trailing silent blocks : No
Null samples used in CRC calculations : Yes
Used interface : Native Win32 interface for Win NT & 2000
Used output format : Monkey's Audio Lossless Encoder v3.99 DLL
Sample format : High Lossless Compression
TOC of the extracted CD
Track | Start | Length | Start sector | End sector
---------------------------------------------------------
1 | 0:00.00 | 4:07.08 | 0 | 18532
2 | 4:07.08 | 4:07.07 | 18533 | 37064
3 | 8:14.15 | 3:41.30 | 37065 | 53669
4 | 11:55.45 | 4:44.50 | 53670 | 75019
5 | 16:40.20 | 3:41.38 | 75020 | 91632
6 | 20:21.58 | 0:29.22 | 91633 | 93829
7 | 20:51.05 | 3:01.53 | 93830 | 107457
8 | 23:52.58 | 4:27.30 | 107458 | 127512
9 | 28:20.13 | 3:56.12 | 127513 | 145224
10 | 32:16.25 | 4:05.60 | 145225 | 163659
11 | 36:22.10 | 2:59.28 | 163660 | 177112
Range status and errors
Selected range
Filename D:\Downloads\Sparks - Pulling Rabbits Out Of A Hat\Sparks - Pulling Rabbits Out Of A Hat.ape
Peak level 100.0 %
Range quality 99.9 %
Copy CRC 91C5EEBB
Copy OK
No errors occurred
AccurateRip summary
Track 1 not present in database
Track 2 not present in database
Track 3 not present in database
Track 4 not present in database
Track 5 not present in database
Track 6 not present in database
Track 7 not present in database
Track 8 not present in database
Track 9 not present in database
Track 10 not present in database
Track 11 not present in database
None of the tracks are present in the AccurateRip database
End of status report
Правила, инструкции, FAQ!!!
Торрент  Добавлен [26 мар 2019, 20:09] Скачать торрент Магнет ссылка
Скачать торрент
[ Размер 20.74 КБ / Просмотров 25 ]

Статус
Проверен 
 
Размер  256 МБ
Приватный: Нет (DHT включён)
.torrent скачан  0
 


     Отправить личное сообщение
   
Страница 1 из 1
Показать сообщения за:  Поле сортировки  
Начать новую тему Ответить на тему


Сейчас этот форум просматривают: нет зарегистрированных пользователей и гости: 0


Вы не можете начинать темы
Вы не можете отвечать на сообщения
Вы не можете редактировать свои сообщения
Вы не можете удалять свои сообщения
Вы не можете добавлять вложения

Перейти:  
cron