Начать новую тему Ответить на тему
Статистика раздачи
Размер: 192.7 МБ | Добавлен: 26 мар 2019, 20:04 | Скачали: 1
Сидеров: 0  [0 байт/сек]    Личеров: 1  [0 байт/сек]
Пред. тема | След. тема 

Автор
Сообщение

СообщениеДобавлено: 26 мар 2019, 20:04 

Ответить с цитатой 

Batteaux / Batteaux
Жанр: pop, soft rock, soul
Носитель: CD
Страна-производитель диска (релиза): South Korea
Год издания: 1973
Издатель (лейбл): Beatball Music
Номер по каталогу: S30952C
Страна исполнителя (группы): US
Аудиокодек: FLAC (*.flac)
Тип рипа: image+.cue
Битрейт аудио: lossless
Продолжительность: 00:32:57
Источник (релизер): собственный рип
Наличие сканов в содержимом раздачи: нет
Треклист:
1 Tell Her She's Lovely 2:39
2 Living's Worth Loving 3:13
3 Wake Me In The Morning 2:42
4 Mirror 2:58
5 Joe Arnold 3:15
6 Dig Up The Love 2:51
7 Katy 2:01
8 Lady Of The Lake 2:23
9 Treat Me Right, Treat Me Wrong 2:48
10 High Tide 3:51
11 Wishing My Father 1:16
12 Maybe I'll Run Away 3:00
Код:
Exact Audio Copy V1.1 from 23. June 2015
Отчёт EAC об извлечении, выполненном 28. января 2016, 19:55
Batteaux / Batteaux
Дисковод: ASUS    DRW-24B3ST   Adapter: 0  ID: 0
Режим чтения                 : Достоверность
Использование точного потока : Да
Отключение кэша аудио        : Да
Использование указателей C2  : Нет
Коррекция смещения при чтении                     : 6
Способность читать области Lead-in и Lead-out     : Нет
Заполнение пропущенных сэмплов тишиной            : Да
Удаление блоков с тишиной в начале и конце        : Нет
При вычислениях CRC использовались нулевые сэмплы : Да
Интерфейс                                         : Установленный внешний ASPI-интерфейс
Выходной формат          : Пользовательский кодировщик
Выбранный битрейт        : 896 kBit/s
Качество                 : Высокий
Добавление ID3-тега      : Нет
Утилита сжатия           : C:\Program Files (x86)\Exact Audio Copy\FLAC\FLAC.EXE
Дополнительные параметры : -6 -V -T "ARTIST=%artist%" -T "TITLE=%title%" -T "ALBUM=%albumtitle%" -T "DATE=%year%" -T "TRACKNUMBER=%tracknr%" -T "GENRE=%genre%" -T "COMMENT=%comment%" -T "BAND=%albuminterpret%" -T "ALBUMARTIST=%albuminterpret%" -T "COMPOSER=%composer%" %haslyrics%--tag-from-file=LYRICS="%lyricsfile%"%haslyrics% -T "DISCNUMBER=%cdnumber%" -T "TOTALDISCS=%totalcds%" -T "TOTALTRACKS=%numtracks%" %hascover%--picture="%coverfile%"%hascover% %source% -o %dest%
TOC извлечённого CD
     Трек |   Старт  | Длительность | Начальный сектор | Конечный сектор
    ---------------------------------------------------------------------
       1  |  0:00.00 |    2:38.59   |           0      |      11908
       2  |  2:38.59 |    3:13.03   |       11909      |      26386
       3  |  5:51.62 |    2:42.30   |       26387      |      38566
       4  |  8:34.17 |    2:58.13   |       38567      |      51929
       5  | 11:32.30 |    3:15.35   |       51930      |      66589
       6  | 14:47.65 |    2:51.02   |       66590      |      79416
       7  | 17:38.67 |    2:00.45   |       79417      |      88461
       8  | 19:39.37 |    2:23.15   |       88462      |      99201
       9  | 22:02.52 |    2:47.58   |       99202      |     111784
      10  | 24:50.35 |    3:51.29   |      111785      |     129138
      11  | 28:41.64 |    1:15.64   |      129139      |     134827
      12  | 29:57.53 |    2:59.47   |      134828      |     148299
Характеристики диапазона извлечения и сообщения об ошибках
Выбранный диапазон
     Имя файла E:\Torrents\Batteaux - 1973 - Batteaux\Batteaux - Batteaux.wav
     Пиковый уровень 100.0 %
     Скорость извлечения 7.5 X
     Качество диапазона 100.0 %
     CRC теста C7AEFF6D
     CRC копии C7AEFF6D
     Копирование... OK
Ошибок не произошло
Конец отчёта
==== Контрольная сумма отчёта 0DA00CFE309422B6DAA42E275B58716553288EF4524F51D57CD3A1E09D9244A9 ====
Members:
David Batteau, Robin Batteau
Правила, инструкции, FAQ!!!
Торрент  Добавлен [26 мар 2019, 20:04] Скачать торрент Магнет ссылка
Скачать торрент
[ Размер 15.71 КБ / Просмотров 1 ]

Статус
Проверен 
 
Размер  192.7 МБ
Приватный: Нет (DHT включён)
.torrent скачан  1
 


     Отправить личное сообщение
   
Страница 1 из 1
Показать сообщения за:  Поле сортировки  
Начать новую тему Ответить на тему


Сейчас этот форум просматривают: нет зарегистрированных пользователей и гости: 0


Вы не можете начинать темы
Вы не можете отвечать на сообщения
Вы не можете редактировать свои сообщения
Вы не можете удалять свои сообщения
Вы не можете добавлять вложения

Перейти:  
cron