Начать новую тему Ответить на тему
Статистика раздачи
Размер: 467.96 МБ | Добавлен: 27 июн 2020, 19:10 | Скачали: 2
Сидеров: 8  [0 байт/сек]    Личеров: 2  [0 байт/сек]
Пред. тема | След. тема 

Автор
Сообщение

СообщениеДобавлено: 27 июн 2020, 19:10 

Ответить с цитатой 

Smokie / The Best Of
Жанр: Pop/Soft Rock
Носитель: CD
Страна-производитель диска (релиза): Netherlands
Год издания: 1995
Издатель (лейбл): EMI Electrola
Номер по каталогу: 7243 8 36541 2 3
Страна исполнителя (группы): UK
Аудиокодек: FLAC (*.flac)
Тип рипа: image+.cue
Продолжительность: 00:54:23
Источник: собственный рип
Наличие сканов в содержимом раздачи: да

Треклист:
1. Living Next Door To Alice 3:35
2. I'll Meet You At Midnight 3:20
3. Lay Back In The Arms Of Someone 4:22
4. Boulevard Of Broken Dreams 4:25
5. My Heart Is True 3:34
6. Rock Away Your Teardrops 3:58
7. Wild Angels 4:26
8. If You Think You Know How To Love Me 3:57
9. Don't Play That Game With Me 3:59
10. Naked Love (Baby Love Me...) 4:25
11. Norwegian Girl 3:51
12. Think About The Night 3:55
13. You're So Different Tonight 3:33
14. Needles And Pins 2:50
Код:
Exact Audio Copy V1.3 from 2. September 2016
Отчёт EAC об извлечении, выполненном 18. июня 2020, 23:18
Smokie / The Best Of Smokie
Дисковод: Optiarc DVD RW AD-7261S   Adapter: 1  ID: 0
Режим чтения                 : Достоверность
Использование точного потока : Да
Отключение кэша аудио        : Да
Использование указателей C2  : Нет
Коррекция смещения при чтении                     : 48
Способность читать области Lead-in и Lead-out     : Нет
Заполнение пропущенных сэмплов тишиной            : Да
Удаление блоков с тишиной в начале и конце        : Нет
При вычислениях CRC использовались нулевые сэмплы : Да
Интерфейс                                         : Встроенный Win32-интерфейс для Win NT/2000
Выходной формат          : Пользовательский кодировщик
Выбранный битрейт        : 896 kBit/s
Качество                 : Высокий
Добавление ID3-тега      : Да
Утилита сжатия           : C:\Program Files (x86)\Exact Audio Copy\Flac\flac.exe
Дополнительные параметры : -V -8 -T "Date=%year%" -T "Genre=%genre%" %source%
TOC извлечённого CD
     Трек |   Старт  | Длительность | Начальный сектор | Конечный сектор
    ---------------------------------------------------------------------
       1  |  0:00.00 |    3:35.67   |           0      |      16191
       2  |  3:35.67 |    3:20.63   |       16192      |      31254
       3  |  6:56.55 |    4:22.62   |       31255      |      50966
       4  | 11:19.42 |    4:25.35   |       50967      |      70876
       5  | 15:45.02 |    3:35.08   |       70877      |      87009
       6  | 19:20.10 |    3:59.00   |       87010      |     104934
       7  | 23:19.10 |    4:27.07   |      104935      |     124966
       8  | 27:46.17 |    3:57.73   |      124967      |     142814
       9  | 31:44.15 |    3:59.20   |      142815      |     160759
      10  | 35:43.35 |    4:25.65   |      160760      |     180699
      11  | 40:09.25 |    3:51.42   |      180700      |     198066
      12  | 44:00.67 |    3:55.08   |      198067      |     215699
      13  | 47:56.00 |    3:34.67   |      215700      |     231816
      14  | 51:30.67 |    2:50.13   |      231817      |     244579
Характеристики диапазона извлечения и сообщения об ошибках
Выбранный диапазон
     Имя файла D:\Hi-Res+\EAC\Smokie\Smokie - The Best Of Smokie.wav
     Пиковый уровень 99.5 %
     Скорость извлечения 4.1 X
     Качество диапазона 100.0 %
     CRC теста A1871BE7
     CRC копии A1871BE7
     Копирование... OK
Ошибок не произошло
AccurateRip: сводка
Трек  1  : извлечено точно (доверие 18)  [23198305]  (AR v2)
Трек  2  : извлечено точно (доверие 19)  [5B5144FA]  (AR v2)
Трек  3  : извлечено точно (доверие 19)  [73480E8F]  (AR v2)
Трек  4  : извлечено точно (доверие 19)  [06B2C0D0]  (AR v2)
Трек  5  : извлечено точно (доверие 19)  [45859041]  (AR v2)
Трек  6  : извлечено точно (доверие 19)  [6E518046]  (AR v2)
Трек  7  : извлечено точно (доверие 19)  [513D5C41]  (AR v2)
Трек  8  : извлечено точно (доверие 19)  [3D8042BB]  (AR v2)
Трек  9  : извлечено точно (доверие 19)  [076E1F04]  (AR v2)
Трек 10  : извлечено точно (доверие 19)  [38E01CCB]  (AR v2)
Трек 11  : извлечено точно (доверие 19)  [830190D9]  (AR v2)
Трек 12  : извлечено точно (доверие 19)  [9C22BEB9]  (AR v2)
Трек 13  : извлечено точно (доверие 18)  [F56DFC73]  (AR v2)
Трек 14  : извлечено точно (доверие 19)  [C385582F]  (AR v2)
Все треки извлечены точно
Конец отчёта
---- CUETools DB Plugin V2.1.6
[CTDB TOCID: ZzuvkD_8XuIN7yqj0m2EBqCM0h8-] found
Submit result: already submitted
Track | CTDB Status
  1   | (85/86) Accurately ripped
  2   | (85/86) Accurately ripped
  3   | (86/86) Accurately ripped
  4   | (85/86) Accurately ripped
  5   | (86/86) Accurately ripped
  6   | (85/86) Accurately ripped
  7   | (85/86) Accurately ripped
  8   | (85/86) Accurately ripped
  9   | (84/86) Accurately ripped
 10   | (85/86) Accurately ripped
 11   | (85/86) Accurately ripped
 12   | (84/86) Accurately ripped
 13   | (83/86) Accurately ripped
 14   | (85/86) Accurately ripped
Код:
REM GENRE Pop-Rock
REM DISCID BA0CBD0E
REM COMMENT "ExactAudioCopy v1.3"
PERFORMER "Smokie"
TITLE "The Best Of Smokie"
REM COMPOSER ""
FILE "Smokie - The Best Of Smokie.flac" WAVE
  TRACK 01 AUDIO
    TITLE "Living Next Door to Alice"
    PERFORMER "Smokie"
    REM COMPOSER ""
    INDEX 01 00:00:00
  TRACK 02 AUDIO
    TITLE "I'll Meet You at Midnight"
    PERFORMER "Smokie"
    REM COMPOSER ""
    INDEX 00 03:34:55
    INDEX 01 03:35:67
  TRACK 03 AUDIO
    TITLE "Lay Back in the Arms of Someone"
    PERFORMER "Smokie"
    REM COMPOSER ""
    INDEX 00 06:56:45
    INDEX 01 06:56:55
  TRACK 04 AUDIO
    TITLE "Boulevard of Broken Dreams"
    PERFORMER "Smokie"
    REM COMPOSER ""
    INDEX 00 11:19:40
    INDEX 01 11:19:42
  TRACK 05 AUDIO
    TITLE "My Heart Is True"
    PERFORMER "Smokie"
    REM COMPOSER ""
    INDEX 00 15:45:00
    INDEX 01 15:45:02
  TRACK 06 AUDIO
    TITLE "Rock Away Your Teardrops"
    PERFORMER "Smokie"
    REM COMPOSER ""
    INDEX 00 19:19:37
    INDEX 01 19:20:10
  TRACK 07 AUDIO
    TITLE "Wild Angels"
    PERFORMER "Smokie"
    REM COMPOSER ""
    INDEX 00 23:19:07
    INDEX 01 23:19:10
  TRACK 08 AUDIO
    TITLE "If You Think You Know How to Love Me"
    PERFORMER "Smokie"
    REM COMPOSER ""
    INDEX 00 27:45:57
    INDEX 01 27:46:17
  TRACK 09 AUDIO
    TITLE "Don't Play That Game With Me"
    PERFORMER "Smokie"
    REM COMPOSER ""
    INDEX 00 31:43:57
    INDEX 01 31:44:15
  TRACK 10 AUDIO
    TITLE "Naked Love (Baby Love Me)"
    PERFORMER "Smokie"
    REM COMPOSER ""
    INDEX 00 35:43:32
    INDEX 01 35:43:35
  TRACK 11 AUDIO
    TITLE "Norwegian Girl"
    PERFORMER "Smokie"
    REM COMPOSER ""
    INDEX 00 40:09:22
    INDEX 01 40:09:25
  TRACK 12 AUDIO
    TITLE "Think About the Night"
    PERFORMER "Smokie"
    REM COMPOSER ""
    INDEX 00 44:00:27
    INDEX 01 44:00:67
  TRACK 13 AUDIO
    TITLE "You're So Different Tonight"
    PERFORMER "Smokie"
    REM COMPOSER ""
    INDEX 00 47:55:72
    INDEX 01 47:56:00
  TRACK 14 AUDIO
    TITLE "Needles and Pins"
    PERFORMER "Smokie"
    REM COMPOSER ""
    INDEX 00 51:29:65
    INDEX 01 51:30:67
Правила, инструкции, FAQ!!!
Торрент  Добавлен [27 июн 2020, 19:10] Скачать торрент Магнет ссылка
Скачать торрент
[ Размер 19.18 КБ / Просмотров 10 ]

Статус
Проверен 
 
Размер  467.96 МБ
Приватный: Нет (DHT включён)
.torrent скачан  2
 


     Отправить личное сообщение
   
Страница 1 из 1
Показать сообщения за:  Поле сортировки  
Начать новую тему Ответить на тему


Сейчас этот форум просматривают: нет зарегистрированных пользователей и гости: 0


Вы не можете начинать темы
Вы не можете отвечать на сообщения
Вы не можете редактировать свои сообщения
Вы не можете удалять свои сообщения
Вы не можете добавлять вложения

Перейти:  
cron