Начать новую тему Ответить на тему
Статистика раздачи
Размер: 365.07 МБ | Добавлен: 26 мар 2019, 20:34 | Скачали: 1
Сидеров: 1  [0 байт/сек]    Личеров: 1  [0 байт/сек]
Пред. тема | След. тема 

Автор
Сообщение

СообщениеДобавлено: 26 мар 2019, 20:34 

Ответить с цитатой 

Cliff Richard – Wanted (2001)
Жанр: Pop, Soft-Rock
Дата выпуска диска: ноябрь 2001
UPC: 5 050003 002025
Страна: UK
Производитель диска: Papillon Records (с) 2001
Аудио кодек: FLAC
Тип рипа: image+.cue
Битрейт аудио: lossless
Продолжительность: 53:11
Tracklist:
01. Over the Rainbow/What a Wonderful World (4:47)
02. Right Here Waiting (4:20)
03. What's Love Got to Do With It (3:34)
04. Let Me Be the One (4:05)
05. And I Love Her (3:50)
06. All Shook Up (4:05)
07. Love Me Tender (3:53)
08. Do You Wonder (4:16)
09. You've Got a Friend (4:36)
10. Moon River (3:24)
11. This Love Will Never Forget (4:32)
12. Like Strangers (4:09)
13. When You Walk in the Room (3:36)
Код:
Exact Audio Copy V0.99 prebeta 4 from 23. January 2008
Отчёт EAC об извлечении, выполненном 12. октября 2009, 0:09
Cliff Richard / Wanted
Дисковод: ASUS    SDRW-08D1S-U   Adapter: 2  ID: 0
Режим чтения                 : Достоверность
Использование точного потока : Да
Отключение кэша аудио        : Да
Использование указателей C2  : Нет
Коррекция смещения при чтении                     : 667
Способность читать области Lead-in и Lead-out     : Да
Заполнение пропущенных сэмплов тишиной            : Да
Удаление блоков с тишиной в начале и конце        : Нет
При вычислениях CRC использовались нулевые сэмплы : Да
Интерфейс                                         : Встроенный Win32-интерфейс для Win NT/2000
Выходной формат : Внутренние WAV-операции
Формат сэмплов  : 44.100 Гц; 16 бит; стерео
TOC извлечённого CD
     Трек |   Старт  | Длительность | Начальный сектор | Конечный сектор
    ---------------------------------------------------------------------
       1  |  0:00.00 |    4:47.30   |           0      |      21554
       2  |  4:47.30 |    4:20.62   |       21555      |      41116
       3  |  9:08.17 |    3:34.54   |       41117      |      57220
       4  | 12:42.71 |    4:05.06   |       57221      |      75601
       5  | 16:48.02 |    3:50.02   |       75602      |      92853
       6  | 20:38.04 |    4:05.14   |       92854      |     111242
       7  | 24:43.18 |    3:53.12   |      111243      |     128729
       8  | 28:36.30 |    4:16.25   |      128730      |     147954
       9  | 32:52.55 |    4:36.61   |      147955      |     168715
      10  | 37:29.41 |    3:24.05   |      168716      |     184020
      11  | 40:53.46 |    4:32.02   |      184021      |     204422
      12  | 45:25.48 |    4:09.42   |      204423      |     223139
      13  | 49:35.15 |    3:36.47   |      223140      |     239386
Характеристики диапазона извлечения и сообщения об ошибках
Выбранный диапазон
     Имя файла F:\Music\Cliff Richard\Cliff Richard - Wanted.wav
     Пиковый уровень 98.9 %
     Качество диапазона 100 %
     CRC копии 196C95FB
     Копирование... OK
Ошибок не произошло
AccurateRip: сводка
Трек  1  точность не определена (достоверность 2)  [48AFC2D4], AccurateRip вернул [3CF22928]
Трек  2  точное извлечение (доверие 2)  [7B4DC8C2]
Трек  3  точное извлечение (доверие 2)  [067B87A9]
Трек  4  точное извлечение (доверие 2)  [35240168]
Трек  5  точное извлечение (доверие 2)  [7842C02C]
Трек  6  точное извлечение (доверие 2)  [0F1D835D]
Трек  7  точное извлечение (доверие 2)  [4B68F09A]
Трек  8  точное извлечение (доверие 2)  [C91980E8]
Трек  9  точное извлечение (доверие 2)  [FC4D4737]
Трек 10  точное извлечение (доверие 2)  [B7D6288C]
Трек 11  точное извлечение (доверие 2)  [051E3757]
Трек 12  точное извлечение (доверие 2)  [B8CEBBEA]
Трек 13  точность не определена (достоверность 2)  [6B5BAEDA], AccurateRip вернул [BEC211F7]
11 трек(и) скопированы точно
 2 трек(и) не удалось проверить на точность
Некоторые треки не прошли проверку на точность
Конец отчёта

Собственноручно сделанный рип с фирменного диска из моей коллекции.
Cliff Richard - дискография (mp3, 320 kbps)
Правила, инструкции, FAQ!!!
Торрент  Добавлен [26 мар 2019, 20:34] Скачать торрент Магнет ссылка
Скачать торрент
[ Размер 15.42 КБ / Просмотров 20 ]

Статус
Проверен 
 
Размер  365.07 МБ
Приватный: Нет (DHT включён)
.torrent скачан  1
 


     Отправить личное сообщение
   
Страница 1 из 1
Показать сообщения за:  Поле сортировки  
Начать новую тему Ответить на тему


Сейчас этот форум просматривают: нет зарегистрированных пользователей и гости: 0


Вы не можете начинать темы
Вы не можете отвечать на сообщения
Вы не можете редактировать свои сообщения
Вы не можете удалять свои сообщения
Вы не можете добавлять вложения

Перейти:  
cron