Начать новую тему Ответить на тему
Статистика раздачи
Размер: 498.35 МБ | Добавлен: 26 мар 2019, 20:33 | Скачали: 1
Сидеров: 1  [0 байт/сек]    Личеров: 1  [0 байт/сек]
Пред. тема | След. тема 

Автор
Сообщение

СообщениеДобавлено: 26 мар 2019, 20:33 

Ответить с цитатой 

Cliff Richard

Stronger (1989)
[Remastered with Bonus Tracks]




Жанр: Pop, Soft Rock | Страна: UK
Дата выпуска альбома / диска: октябрь 1989 / 2004 | Производитель диска: EMI
Аудио кодек: FLAC | Тип рипа: image+.cue | Битрейт аудио: lossless
Формат: Studio Album, Remastered
Продолжительность: 73:15


Tracklist:
01. Stronger Than That (4:41)
02. Who's in Love (4:31)
03. The Best of Me (4:11)
04. Clear Blue Skies (2:54)
05. Lean on You (5:00)
06. Keep Me Warm (4:25)
07. Just Don't Have the Heart (3:27)
08. Joanna (3:52)
09. Everybody Knows (3:47)
10. Forever You Will Be Mine (4:22)
11. Better Day (4:49)
12. Share a Dream (4:30)
Bonus Tracks
13. Wide Open Space (4:37)
14. Just Don't Have the Heart [Instrumental] (4:01)
15. Hey Mister (3:56)
16. Lindsay Jane (4:44)
17. Marmaduke (5:28)


Код:
Exact Audio Copy V0.99 prebeta 4 from 23. January 2008
Отчёт EAC об извлечении, выполненном 22. октября 2010, 16:32
Cliff Richard / Stronger
Дисковод: HL-DT-STDVDRAM GE20NU10   Adapter: 2  ID: 0
Режим чтения                 : Достоверность
Использование точного потока : Да
Отключение кэша аудио        : Да
Использование указателей C2  : Нет
Коррекция смещения при чтении                     : 667
Способность читать области Lead-in и Lead-out     : Нет
Заполнение пропущенных сэмплов тишиной            : Да
Удаление блоков с тишиной в начале и конце        : Нет
При вычислениях CRC использовались нулевые сэмплы : Да
Интерфейс                                         : Встроенный Win32-интерфейс для Win NT/2000
Выходной формат : Внутренние WAV-операции
Формат сэмплов  : 44.100 Гц; 16 бит; стерео
TOC извлечённого CD
     Трек |   Старт  | Длительность | Начальный сектор | Конечный сектор
    ---------------------------------------------------------------------
       1  |  0:00.00 |    4:41.63   |           0      |      21137
       2  |  4:41.63 |    4:31.57   |       21138      |      41519
       3  |  9:13.45 |    4:11.24   |       41520      |      60368
       4  | 13:24.69 |    2:54.13   |       60369      |      73431
       5  | 16:19.07 |    5:00.26   |       73432      |      95957
       6  | 21:19.33 |    4:25.66   |       95958      |     115898
       7  | 25:45.24 |    3:26.73   |      115899      |     131421
       8  | 29:12.22 |    3:52.46   |      131422      |     148867
       9  | 33:04.68 |    3:47.17   |      148868      |     165909
      10  | 36:52.10 |    4:22.00   |      165910      |     185559
      11  | 41:14.10 |    4:49.51   |      185560      |     207285
      12  | 46:03.61 |    4:30.29   |      207286      |     227564
      13  | 50:34.15 |    4:37.69   |      227565      |     248408
      14  | 55:12.09 |    4:00.72   |      248409      |     266480
      15  | 59:13.06 |    3:56.37   |      266481      |     284217
      16  | 63:09.43 |    4:44.12   |      284218      |     305529
      17  | 67:53.55 |    5:28.29   |      305530      |     330158
Характеристики диапазона извлечения и сообщения об ошибках
Выбранный диапазон
     Имя файла F:\My Documents\Music\Cliff Richard\Cliff Richard - Stronger.wav
     Пиковый уровень 98.8 %
     Качество диапазона 100.0 %
     CRC теста 9EC3836E
     CRC копии 9EC3836E
     Копирование... OK
Ошибок не произошло
AccurateRip: сводка
Трек  1  нет в базе данных
Трек  2  нет в базе данных
Трек  3  нет в базе данных
Трек  4  нет в базе данных
Трек  5  нет в базе данных
Трек  6  нет в базе данных
Трек  7  нет в базе данных
Трек  8  нет в базе данных
Трек  9  нет в базе данных
Трек 10  нет в базе данных
Трек 11  нет в базе данных
Трек 12  нет в базе данных
Трек 13  нет в базе данных
Трек 14  нет в базе данных
Трек 15  нет в базе данных
Трек 16  нет в базе данных
Трек 17  нет в базе данных
Ни одного трека нет в базе AccurateRip
Конец отчёта

Рип мой. С оригинала.

Сидирую до первых 10-ти скачавших. Далее раздача поддерживается силами скачавших.
Скачали сами - дайте скачать другим.

Правила, инструкции, FAQ!!!
Торрент  Добавлен [26 мар 2019, 20:33] Скачать торрент Магнет ссылка
Скачать торрент
[ Размер 20.37 КБ / Просмотров 2 ]

Статус
Проверен 
 
Размер  498.35 МБ
Приватный: Нет (DHT включён)
.torrent скачан  1
 


     Отправить личное сообщение
   
Страница 1 из 1
Показать сообщения за:  Поле сортировки  
Начать новую тему Ответить на тему


Сейчас этот форум просматривают: нет зарегистрированных пользователей и гости: 0


Вы не можете начинать темы
Вы не можете отвечать на сообщения
Вы не можете редактировать свои сообщения
Вы не можете удалять свои сообщения
Вы не можете добавлять вложения

Перейти:  
cron