Начать новую тему Ответить на тему
Статистика раздачи
Размер: 8.99 ГБ | Добавлен: 26 мар 2019, 20:50 | Скачали: 0
Сидеров: 0  [0 байт/сек]    Личеров: 0  [0 байт/сек]
Пред. тема | След. тема 

Автор
Сообщение

СообщениеДобавлено: 26 мар 2019, 20:50 

Ответить с цитатой 

Wolfgang Petry / 20 Albums
Жанр: Pop, Schlager
Носитель: CD
Страна-производитель диска: Germany
Год издания: 1988-2014
Издатель (лейбл): Na Klar! (Sony Music)
Страна: Germany
Аудиокодек: FLAC (*.flac)
Тип рипа: tracks+.cue
Битрейт аудио: lossless
Источник (релизер): мой рип
Наличие сканов в содержимом раздачи: частично
#777Треклист:
Wolfgang Petry - "Einmal noch!" (2014)
Tracks: 15
Total time: 52:28
Year: 2014
Disc-ID: folk / c50c540f
1. Du bist ein Wunder 3:27
2. Das steh'n wir durch 3:21
3. Augen zu und durch 3:24
4. Einmal noch! 3:26
5. Verlieben, verloren, vergessen, verzeihen 3:24
6. Wieso und weshalb 3:19
7. Geil, geil, geil 3:22
8. Da sind diese Augen 3:56
9. Weiber 3:41
10. Bronze, Silber und Gold 3:20
11. Sieben Tage, sieben Nächte 3:36
12. Pass gut auf Dich auf 3:42
13. Frei für Dich 3:06
14. Weiß der Geier 3:31
15. Du bist fort 3:53
Код:
Exact Audio Copy V1.0 beta 3 from 29. August 2011
EAC extraction logfile from 23. July 2014, 14:26
Wolfgang Petry / Einmal noch!
Used drive  : PLEXTOR CD-R   PX-W4012A   Adapter: 2  ID: 0
Read mode               : Secure
Utilize accurate stream : Yes
Defeat audio cache      : Yes
Make use of C2 pointers : No
Read offset correction                      : 98
Overread into Lead-In and Lead-Out          : No
Fill up missing offset samples with silence : Yes
Delete leading and trailing silent blocks   : No
Null samples used in CRC calculations       : Yes
Used interface                              : Native Win32 interface for Win NT & 2000
Gap handling                                : Appended to previous track
Used output format              : User Defined Encoder
Selected bitrate                : 1024 kBit/s
Quality                         : High
Add ID3 tag                     : No
Command line compressor         : C:\Program Files (x86)\Exact Audio Copy\Flac\flac.exe
Additional command line options : -V -8 -T "Genre=%genre%" -T "Artist=%artist%" -T "Title=%title%" -T "Album=%albumtitle%" -T "Date=%year%" -T "Tracknumber=%tracknr%" -T "Comment=%comment%" %source%
TOC of the extracted CD
     Track |   Start  |  Length  | Start sector | End sector
    ---------------------------------------------------------
        1  |  0:00.00 |  3:27.28 |         0    |    15552
        2  |  3:27.28 |  3:21.45 |     15553    |    30672
        3  |  6:48.73 |  3:24.51 |     30673    |    46023
        4  | 10:13.49 |  3:26.43 |     46024    |    61516
        5  | 13:40.17 |  3:24.16 |     61517    |    76832
        6  | 17:04.33 |  3:19.65 |     76833    |    91822
        7  | 20:24.23 |  3:22.66 |     91823    |   107038
        8  | 23:47.14 |  3:56.28 |    107039    |   124766
        9  | 27:43.42 |  3:41.60 |    124767    |   141401
       10  | 31:25.27 |  3:20.69 |    141402    |   156470
       11  | 34:46.21 |  3:36.69 |    156471    |   172739
       12  | 38:23.15 |  3:42.63 |    172740    |   189452
       13  | 42:06.03 |  3:06.66 |    189453    |   203468
       14  | 45:12.69 |  3:31.02 |    203469    |   219295
       15  | 48:43.71 |  3:52.41 |    219296    |   236736
Track  1
     Filename C:\H\Wolfgang Petry\01 Du bist ein Wunder.wav
     Pre-gap length  0:00:02.00
     Peak level 99.0 %
     Extraction speed 6.8 X
     Track quality 100.0 %
     Test CRC 9DA18362
     Copy CRC 9DA18362
     Accurately ripped (confidence 3)  [B4602DA1]  (AR v1)
     Copy OK
Track  2
     Filename C:\H\Wolfgang Petry\02 Das steh'n wir durch.wav
     Pre-gap length  0:00:00.58
     Peak level 99.0 %
     Extraction speed 7.4 X
     Track quality 100.0 %
     Test CRC 1DD08A55
     Copy CRC 1DD08A55
     Accurately ripped (confidence 3)  [31C5EFC5]  (AR v1)
     Copy OK
Track  3
     Filename C:\H\Wolfgang Petry\03 Augen zu und durch.wav
     Pre-gap length  0:00:00.71
     Peak level 99.0 %
     Extraction speed 7.9 X
     Track quality 100.0 %
     Test CRC AA3FF779
     Copy CRC AA3FF779
     Accurately ripped (confidence 3)  [91104EBE]  (AR v1)
     Copy OK
Track  4
     Filename C:\H\Wolfgang Petry\04 Einmal noch!.wav
     Pre-gap length  0:00:01.57
     Peak level 99.0 %
     Extraction speed 8.5 X
     Track quality 100.0 %
     Test CRC A778DA43
     Copy CRC A778DA43
     Accurately ripped (confidence 3)  [81F5221A]  (AR v1)
     Copy OK
Track  5
     Filename C:\H\Wolfgang Petry\05 Verlieben, verloren, vergessen, verzeihen.wav
     Pre-gap length  0:00:00.66
     Peak level 99.0 %
     Extraction speed 8.8 X
     Track quality 100.0 %
     Test CRC F4BDD566
     Copy CRC F4BDD566
     Accurately ripped (confidence 3)  [7553E4D3]  (AR v1)
     Copy OK
Track  6
     Filename C:\H\Wolfgang Petry\06 Wieso und weshalb.wav
     Pre-gap length  0:00:00.70
     Peak level 99.0 %
     Extraction speed 7.6 X
     Track quality 99.9 %
     Test CRC 0C4121BA
     Copy CRC 0C4121BA
     Accurately ripped (confidence 3)  [0E08FF90]  (AR v1)
     Copy OK
Track  7
     Filename C:\H\Wolfgang Petry\07 Geil, geil, geil.wav
     Peak level 99.0 %
     Extraction speed 10.0 X
     Track quality 100.0 %
     Test CRC 2C330E8B
     Copy CRC 2C330E8B
     Accurately ripped (confidence 3)  [E8D1CBC1]  (AR v1)
     Copy OK
Track  8
     Filename C:\H\Wolfgang Petry\08 Da sind diese Augen.wav
     Pre-gap length  0:00:00.41
     Peak level 99.0 %
     Extraction speed 9.1 X
     Track quality 99.9 %
     Test CRC 60F54B40
     Copy CRC 60F54B40
     Accurately ripped (confidence 3)  [C6578BB5]  (AR v1)
     Copy OK
Track  9
     Filename C:\H\Wolfgang Petry\09 Weiber.wav
     Pre-gap length  0:00:01.40
     Peak level 99.0 %
     Extraction speed 10.7 X
     Track quality 100.0 %
     Test CRC BF86871E
     Copy CRC BF86871E
     Accurately ripped (confidence 3)  [11900C15]  (AR v1)
     Copy OK
Track 10
     Filename C:\H\Wolfgang Petry\10 Bronze, Silber und Gold.wav
     Pre-gap length  0:00:00.33
     Peak level 99.0 %
     Extraction speed 11.1 X
     Track quality 100.0 %
     Test CRC E0A46EE9
     Copy CRC E0A46EE9
     Accurately ripped (confidence 3)  [8FA31BCE]  (AR v1)
     Copy OK
Track 11
     Filename C:\H\Wolfgang Petry\11 Sieben Tage, sieben Naechte.wav
     Pre-gap length  0:00:01.03
     Peak level 99.0 %
     Extraction speed 11.5 X
     Track quality 100.0 %
     Test CRC 00A2377F
     Copy CRC 00A2377F
     Accurately ripped (confidence 3)  [B0A076CF]  (AR v1)
     Copy OK
Track 12
     Filename C:\H\Wolfgang Petry\12 Pass gut auf Dich auf.wav
     Pre-gap length  0:00:00.53
     Peak level 99.0 %
     Extraction speed 11.9 X
     Track quality 100.0 %
     Test CRC C2835FBE
     Copy CRC C2835FBE
     Accurately ripped (confidence 3)  [9F875482]  (AR v1)
     Copy OK
Track 13
     Filename C:\H\Wolfgang Petry\13 Frei fuer Dich.wav
     Pre-gap length  0:00:00.74
     Peak level 99.0 %
     Extraction speed 10.1 X
     Track quality 99.9 %
     Test CRC 61971413
     Copy CRC 61971413
     Accurately ripped (confidence 3)  [5885C2AD]  (AR v1)
     Copy OK
Track 14
     Filename C:\H\Wolfgang Petry\14 Weiss der Geier.wav
     Pre-gap length  0:00:00.13
     Peak level 99.0 %
     Extraction speed 12.5 X
     Track quality 100.0 %
     Test CRC FC1F6425
     Copy CRC FC1F6425
     Accurately ripped (confidence 3)  [91F28ACF]  (AR v1)
     Copy OK
Track 15
     Filename C:\H\Wolfgang Petry\15 Du bist fort.wav
     Pre-gap length  0:00:01.02
     Peak level 99.0 %
     Extraction speed 11.2 X
     Track quality 100.0 %
     Test CRC 25DBA9A9
     Copy CRC 25DBA9A9
     Accurately ripped (confidence 3)  [8262AC07]  (AR v1)
     Copy OK
All tracks accurately ripped
No errors occurred
End of status report
==== Log checksum DA9D21540F12A5E1C9CD43A86DCEB71012B16B815686FD8D8B96F624A242EDB6 ====
Код:
REM GENRE Pop
REM DATE 2014
REM DISCID C50C540F
REM COMMENT "ExactAudioCopy v1.0b3"
CATALOG 0888430282629
PERFORMER "Wolfgang Petry"
TITLE "Einmal noch!"
FILE "01 Du bist ein Wunder.wav" WAVE
  TRACK 01 AUDIO
    TITLE "Du bist ein Wunder"
    PERFORMER "Wolfgang Petry"
    ISRC DEBA21300135
    INDEX 01 00:00:00
  TRACK 02 AUDIO
    TITLE "Das steh'n wir durch"
    PERFORMER "Wolfgang Petry"
    ISRC DEBA21300136
    INDEX 00 03:26:45
FILE "02 Das steh'n wir durch.wav" WAVE
    INDEX 01 00:00:00
  TRACK 03 AUDIO
    TITLE "Augen zu und durch"
    PERFORMER "Wolfgang Petry"
    ISRC DEBA21300137
    INDEX 00 03:20:49
FILE "03 Augen zu und durch.wav" WAVE
    INDEX 01 00:00:00
  TRACK 04 AUDIO
    TITLE "Einmal noch!"
    PERFORMER "Wolfgang Petry"
    ISRC DEBA21300138
    INDEX 00 03:22:69
FILE "04 Einmal noch!.wav" WAVE
    INDEX 01 00:00:00
  TRACK 05 AUDIO
    TITLE "Verlieben, verloren, vergessen, verzeihen"
    PERFORMER "Wolfgang Petry"
    ISRC DEBA21300139
    INDEX 00 03:25:52
FILE "05 Verlieben, verloren, vergessen, verzeihen.wav" WAVE
    INDEX 01 00:00:00
  TRACK 06 AUDIO
    TITLE "Wieso und weshalb"
    PERFORMER "Wolfgang Petry"
    ISRC DEBA21300140
    INDEX 00 03:23:21
FILE "06 Wieso und weshalb.wav" WAVE
    INDEX 01 00:00:00
FILE "07 Geil, geil, geil.wav" WAVE
  TRACK 07 AUDIO
    TITLE "Geil, geil, geil"
    PERFORMER "Wolfgang Petry"
    ISRC DEBA21300141
    INDEX 01 00:00:00
  TRACK 08 AUDIO
    TITLE "Da sind diese Augen"
    PERFORMER "Wolfgang Petry"
    ISRC DEBA21300142
    INDEX 00 03:22:25
FILE "08 Da sind diese Augen.wav" WAVE
    INDEX 01 00:00:00
  TRACK 09 AUDIO
    TITLE "Weiber"
    PERFORMER "Wolfgang Petry"
    ISRC DEBA21300143
    INDEX 00 03:54:63
FILE "09 Weiber.wav" WAVE
    INDEX 01 00:00:00
  TRACK 10 AUDIO
    TITLE "Bronze, Silber und Gold"
    PERFORMER "Wolfgang Petry"
    ISRC DEBA21300144
    INDEX 00 03:41:27
FILE "10 Bronze, Silber und Gold.wav" WAVE
    INDEX 01 00:00:00
  TRACK 11 AUDIO
    TITLE "Sieben Tage, sieben Naechte"
    PERFORMER "Wolfgang Petry"
    ISRC DEBA21300145
    INDEX 00 03:19:66
FILE "11 Sieben Tage, sieben Naechte.wav" WAVE
    INDEX 01 00:00:00
  TRACK 12 AUDIO
    TITLE "Pass gut auf Dich auf"
    PERFORMER "Wolfgang Petry"
    ISRC DEBA21300146
    INDEX 00 03:36:16
FILE "12 Pass gut auf Dich auf.wav" WAVE
    INDEX 01 00:00:00
  TRACK 13 AUDIO
    TITLE "Frei fuer Dich"
    PERFORMER "Wolfgang Petry"
    ISRC DEBA21300147
    INDEX 00 03:41:64
FILE "13 Frei fuer Dich.wav" WAVE
    INDEX 01 00:00:00
  TRACK 14 AUDIO
    TITLE "Weiss der Geier"
    PERFORMER "Wolfgang Petry"
    ISRC DEBA21300148
    INDEX 00 03:06:53
FILE "14 Weiss der Geier.wav" WAVE
    INDEX 01 00:00:00
  TRACK 15 AUDIO
    TITLE "Du bist fort"
    PERFORMER "Wolfgang Petry"
    ISRC DEBA21300149
    INDEX 00 03:30:00
FILE "15 Du bist fort.wav" WAVE
    INDEX 01 00:00:00
Код:
[CUETools log; Date: 23.07.2014 14:27:26; Version: 2.1.5]
[CTDB TOCID: Z72Nsvl91Xq..IaDfOJLmzQbFng-] found.
Track | CTDB Status
  1   | (14/14) Accurately ripped
  2   | (14/14) Accurately ripped
  3   | (14/14) Accurately ripped
  4   | (14/14) Accurately ripped
  5   | (14/14) Accurately ripped
  6   | (14/14) Accurately ripped
  7   | (14/14) Accurately ripped
  8   | (14/14) Accurately ripped
  9   | (14/14) Accurately ripped
 10   | (14/14) Accurately ripped
 11   | (14/14) Accurately ripped
 12   | (14/14) Accurately ripped
 13   | (14/14) Accurately ripped
 14   | (14/14) Accurately ripped
 15   | (14/14) Accurately ripped
[AccurateRip ID: 001c9785-0144edd5-c50c540f] found.
Track   [  CRC   |   V2   ] Status
 01     [b4602da1|01212a94] (3+0/3) Accurately ripped
 02     [31c5efc5|05ee7555] (3+0/3) Accurately ripped
 03     [91104ebe|adec1eb9] (3+0/3) Accurately ripped
 04     [81f5221a|c7228e05] (3+0/3) Accurately ripped
 05     [7553e4d3|3ddff179] (3+0/3) Accurately ripped
 06     [0e08ff90|5ebe892a] (3+0/3) Accurately ripped
 07     [e8d1cbc1|7b5b71d2] (3+0/3) Accurately ripped
 08     [c6578bb5|0ccdb72a] (3+0/3) Accurately ripped
 09     [11900c15|ceb3bd32] (3+0/3) Accurately ripped
 10     [8fa31bce|d9946e84] (3+0/3) Accurately ripped
 11     [b0a076cf|e4c836ab] (3+0/3) Accurately ripped
 12     [9f875482|d0ea2922] (3+0/3) Accurately ripped
 13     [5885c2ad|d90d55c7] (3+0/3) Accurately ripped
 14     [91f28acf|1676afa0] (3+0/3) Accurately ripped
 15     [8262ac07|bc6611cb] (3+0/3) Accurately ripped
Track Peak [ CRC32  ] [W/O NULL] [  LOG   ]
 --   99,0 [D288B904] [53C4BFAB]
 01   99,0 [9DA18362] [ADD0F927]   CRC32
 02   99,0 [1DD08A55] [E0BD826E]   CRC32
 03   99,0 [AA3FF779] [04D8A3ED]   CRC32
 04   99,0 [A778DA43] [222E646B]   CRC32
 05   99,0 [F4BDD566] [95736DAE]   CRC32
 06   99,0 [0C4121BA] [F5E3E534]   CRC32
 07   99,0 [2C330E8B] [EA862BD3]   CRC32
 08   99,0 [60F54B40] [A6061A10]   CRC32
 09   99,0 [BF86871E] [0678FDE5]   CRC32
 10   99,0 [E0A46EE9] [10A91E7F]   CRC32
 11   99,0 [00A2377F] [94BA677D]   CRC32
 12   99,0 [C2835FBE] [CFE083EC]   CRC32
 13   99,0 [61971413] [0C90E9FA]   CRC32
 14   99,0 [FC1F6425] [FA061544]   CRC32
 15   99,0 [25DBA9A9] [B937DB6C]   CRC32
#777Треклист:
Wolfgang Petry - "Achterbahn" (2001)
Tracks: 17
Total time: 55:45
Year: 2001
Disc-ID: e30d1010
1. Ich will mehr (Radio Edit) 3:35
2. Wir kommen alle in den Himmel 3:38
3. Keine Angst 3:25
4. Du machst aus mir 'ne Achterbahn 3:43
5. Morgen ist ein neuer Tag 3:56
6. Nimm mein Herz mit 4:03
7. Sabine 3:41
8. Mit dir für immer 3:29
9. Ich hab dich immer schon geliebt 3:35
10. SMS: Ich liebe dich 3:02
11. Ich krieg alles was ich will (von dir) 2:59
12. Du hast mein Herz geklaut 3:52
13. Ob du's glaubst oder nicht 3:47
14. Leg dein Gesicht an mein Gesicht 3:18
15. Auf Maja´s Blumenwiese 2:19
16. Scheisse ist braun 3:22
17. Data Track (copy protection) 15:42
Код:
Exact Audio Copy V1.0 beta 3 from 29. August 2011
EAC extraction logfile from 17. December 2013, 21:57
Wolfgang Petry / Achterbahn
Used drive  : PLEXTOR CD-R   PX-W4012A   Adapter: 2  ID: 0
Read mode               : Secure
Utilize accurate stream : Yes
Defeat audio cache      : Yes
Make use of C2 pointers : No
Read offset correction                      : 98
Overread into Lead-In and Lead-Out          : No
Fill up missing offset samples with silence : Yes
Delete leading and trailing silent blocks   : No
Null samples used in CRC calculations       : Yes
Used interface                              : Native Win32 interface for Win NT & 2000
Gap handling                                : Appended to previous track
Used output format              : User Defined Encoder
Selected bitrate                : 1024 kBit/s
Quality                         : High
Add ID3 tag                     : No
Command line compressor         : C:\Program Files (x86)\Exact Audio Copy\Flac\flac.exe
Additional command line options : -V -8 -T "Genre=%genre%" -T "Artist=%artist%" -T "Title=%title%" -T "Album=%albumtitle%" -T "Date=%year%" -T "Tracknumber=%tracknr%" -T "Comment=%comment%" %source%
TOC of the extracted CD
     Track |   Start  |  Length  | Start sector | End sector
    ---------------------------------------------------------
        1  |  0:00.32 |  3:35.15 |        32    |    16171
        2  |  3:35.47 |  3:38.03 |     16172    |    32524
        3  |  7:13.50 |  3:25.10 |     32525    |    47909
        4  | 10:38.60 |  3:42.72 |     47910    |    64631
        5  | 14:21.57 |  3:55.53 |     64632    |    82309
        6  | 18:17.35 |  4:02.40 |     82310    |   100499
        7  | 22:20.00 |  3:41.20 |    100500    |   117094
        8  | 26:01.20 |  3:28.70 |    117095    |   132764
        9  | 29:30.15 |  3:35.25 |    132765    |   148914
       10  | 33:05.40 |  3:01.65 |    148915    |   162554
       11  | 36:07.30 |  2:59.00 |    162555    |   175979
       12  | 39:06.30 |  3:52.25 |    175980    |   193404
       13  | 42:58.55 |  3:47.27 |    193405    |   210456
       14  | 46:46.07 |  3:18.25 |    210457    |   225331
       15  | 50:04.32 |  2:18.50 |    225332    |   235731
       16  | 52:23.07 |  3:21.63 |    235732    |   250869
Track  1
     Filename C:\H\Wolfgang Petry\Albums\01 Ich will mehr (Radio Edit).wav
     Pre-gap length  0:00:02.32
     Peak level 100.0 %
     Extraction speed 7.2 X
     Track quality 100.0 %
     Test CRC 5966A57A
     Copy CRC 5966A57A
     Accurately ripped (confidence 1)  [1F17AD25]  (AR v1)
     Copy OK
Track  2
     Filename C:\H\Wolfgang Petry\Albums\02 Wir kommen alle in den Himmel.wav
     Pre-gap length  0:00:01.52
     Peak level 99.0 %
     Extraction speed 7.8 X
     Track quality 100.0 %
     Test CRC 53BC37D8
     Copy CRC 53BC37D8
     Accurately ripped (confidence 1)  [C29790F0]  (AR v1)
     Copy OK
Track  3
     Filename C:\H\Wolfgang Petry\Albums\03 Keine Angst.wav
     Pre-gap length  0:00:00.25
     Peak level 99.0 %
     Extraction speed 8.3 X
     Track quality 100.0 %
     Test CRC E88BCB20
     Copy CRC E88BCB20
     Accurately ripped (confidence 1)  [041AC64D]  (AR v1)
     Copy OK
Track  4
     Filename C:\H\Wolfgang Petry\Albums\04 Du machst aus mir 'ne Achterbahn.wav
     Pre-gap length  0:00:02.15
     Peak level 99.0 %
     Extraction speed 8.8 X
     Track quality 100.0 %
     Test CRC 0302FC54
     Copy CRC 0302FC54
     Accurately ripped (confidence 1)  [C29F6B59]  (AR v1)
     Copy OK
Track  5
     Filename C:\H\Wolfgang Petry\Albums\05 Morgen ist ein neuer Tag.wav
     Pre-gap length  0:00:01.17
     Peak level 99.0 %
     Extraction speed 8.3 X
     Track quality 99.9 %
     Test CRC 5E3BB62E
     Copy CRC 5E3BB62E
     Accurately ripped (confidence 1)  [3A2AF84C]  (AR v1)
     Copy OK
Track  6
     Filename C:\H\Wolfgang Petry\Albums\06 Nimm mein Herz mit.wav
     Pre-gap length  0:00:01.08
     Peak level 99.0 %
     Extraction speed 9.9 X
     Track quality 100.0 %
     Test CRC 44B1481D
     Copy CRC 44B1481D
     Accurately ripped (confidence 1)  [A73AC3C4]  (AR v1)
     Copy OK
Track  7
     Filename C:\H\Wolfgang Petry\Albums\07 Sabine.wav
     Pre-gap length  0:00:01.40
     Peak level 99.0 %
     Extraction speed 10.3 X
     Track quality 100.0 %
     Test CRC 1A0BE0DE
     Copy CRC 1A0BE0DE
     Accurately ripped (confidence 1)  [0192EA7E]  (AR v1)
     Copy OK
Track  8
     Filename C:\H\Wolfgang Petry\Albums\08 Mit dir fuer immer.wav
     Pre-gap length  0:00:01.15
     Peak level 99.0 %
     Extraction speed 10.7 X
     Track quality 100.0 %
     Test CRC 71E27356
     Copy CRC 71E27356
     Accurately ripped (confidence 1)  [295804E2]  (AR v1)
     Copy OK
Track  9
     Filename C:\H\Wolfgang Petry\Albums\09 Ich hab dich immer schon geliebt.wav
     Pre-gap length  0:00:00.48
     Peak level 99.0 %
     Extraction speed 11.1 X
     Track quality 100.0 %
     Test CRC A621BDB7
     Copy CRC A621BDB7
     Accurately ripped (confidence 1)  [A0390995]  (AR v1)
     Copy OK
Track 10
     Filename C:\H\Wolfgang Petry\Albums\10 SMS- Ich liebe dich.wav
     Pre-gap length  0:00:01.18
     Peak level 99.0 %
     Extraction speed 11.3 X
     Track quality 100.0 %
     Test CRC AC3216C4
     Copy CRC AC3216C4
     Accurately ripped (confidence 1)  [166E4212]  (AR v1)
     Copy OK
Track 11
     Filename C:\H\Wolfgang Petry\Albums\11 Ich krieg alles was ich will (von dir).wav
     Pre-gap length  0:00:01.03
     Peak level 99.0 %
     Extraction speed 11.5 X
     Track quality 100.0 %
     Test CRC 5087BBEA
     Copy CRC 5087BBEA
     Accurately ripped (confidence 1)  [03F91608]  (AR v1)
     Copy OK
Track 12
     Filename C:\H\Wolfgang Petry\Albums\12 Du hast mein Herz geklaut.wav
     Pre-gap length  0:00:01.28
     Peak level 99.8 %
     Extraction speed 12.1 X
     Track quality 100.0 %
     Test CRC F55D29A7
     Copy CRC F55D29A7
     Accurately ripped (confidence 1)  [47A4E6D9]  (AR v1)
     Copy OK
Track 13
     Filename C:\H\Wolfgang Petry\Albums\13 Ob du's glaubst oder nicht.wav
     Pre-gap length  0:00:01.63
     Peak level 99.0 %
     Extraction speed 12.4 X
     Track quality 100.0 %
     Test CRC CD49D431
     Copy CRC CD49D431
     Accurately ripped (confidence 1)  [683952FD]  (AR v1)
     Copy OK
Track 14
     Filename C:\H\Wolfgang Petry\Albums\14 Leg dein Gesicht an mein Gesicht.wav
     Pre-gap length  0:00:00.55
     Peak level 99.0 %
     Extraction speed 12.6 X
     Track quality 100.0 %
     Test CRC 96C57E94
     Copy CRC 96C57E94
     Accurately ripped (confidence 1)  [71C15CA1]  (AR v1)
     Copy OK
Track 15
     Filename C:\H\Wolfgang Petry\Albums\15 Auf Maja´s Blumenwiese.wav
     Pre-gap length  0:00:01.45
     Peak level 99.0 %
     Extraction speed 12.5 X
     Track quality 100.0 %
     Test CRC C89586C9
     Copy CRC C89586C9
     Accurately ripped (confidence 1)  [16AE5F2D]  (AR v1)
     Copy OK
Track 16
     Filename C:\H\Wolfgang Petry\Albums\16 Scheisse ist braun.wav
     Pre-gap length  0:00:00.37
     Peak level 99.4 %
     Extraction speed 9.0 X
     Track quality 99.9 %
     Test CRC 79DD6C11
     Copy CRC 79DD6C11
     Accurately ripped (confidence 1)  [87986A8B]  (AR v1)
     Copy OK
All tracks accurately ripped
No errors occurred
End of status report
==== Log checksum 7BAB8C41D7AACA4BA583512A191DCB8F7BE9250EDB5E94DB43CD43CCECA9E205 ====
Код:
REM GENRE Pop
REM DATE 2001
REM DISCID E30D1010
REM COMMENT "ExactAudioCopy v1.0b3"
PERFORMER "Wolfgang Petry"
TITLE "Achterbahn"
FILE "01 Ich will mehr (Radio Edit).wav" WAVE
  TRACK 01 AUDIO
    TITLE "Ich will mehr (Radio Edit)"
    PERFORMER "Wolfgang Petry"
    PREGAP 00:00:32
    INDEX 01 00:00:00
  TRACK 02 AUDIO
    TITLE "Wir kommen alle in den Himmel"
    PERFORMER "Wolfgang Petry"
    INDEX 00 03:33:38
FILE "02 Wir kommen alle in den Himmel.wav" WAVE
    INDEX 01 00:00:00
  TRACK 03 AUDIO
    TITLE "Keine Angst"
    PERFORMER "Wolfgang Petry"
    INDEX 00 03:37:53
FILE "03 Keine Angst.wav" WAVE
    INDEX 01 00:00:00
  TRACK 04 AUDIO
    TITLE "Du machst aus mir 'ne Achterbahn"
    PERFORMER "Wolfgang Petry"
    INDEX 00 03:22:70
FILE "04 Du machst aus mir 'ne Achterbahn.wav" WAVE
    INDEX 01 00:00:00
  TRACK 05 AUDIO
    TITLE "Morgen ist ein neuer Tag"
    PERFORMER "Wolfgang Petry"
    INDEX 00 03:41:55
FILE "05 Morgen ist ein neuer Tag.wav" WAVE
    INDEX 01 00:00:00
  TRACK 06 AUDIO
    TITLE "Nimm mein Herz mit"
    PERFORMER "Wolfgang Petry"
    INDEX 00 03:54:45
FILE "06 Nimm mein Herz mit.wav" WAVE
    INDEX 01 00:00:00
  TRACK 07 AUDIO
    TITLE "Sabine"
    PERFORMER "Wolfgang Petry"
    INDEX 00 04:01:00
FILE "07 Sabine.wav" WAVE
    INDEX 01 00:00:00
  TRACK 08 AUDIO
    TITLE "Mit dir fuer immer"
    PERFORMER "Wolfgang Petry"
    INDEX 00 03:40:05
FILE "08 Mit dir fuer immer.wav" WAVE
    INDEX 01 00:00:00
  TRACK 09 AUDIO
    TITLE "Ich hab dich immer schon geliebt"
    PERFORMER "Wolfgang Petry"
    INDEX 00 03:28:22
FILE "09 Ich hab dich immer schon geliebt.wav" WAVE
    INDEX 01 00:00:00
  TRACK 10 AUDIO
    TITLE "SMS: Ich liebe dich"
    PERFORMER "Wolfgang Petry"
    INDEX 00 03:34:07
FILE "10 SMS- Ich liebe dich.wav" WAVE
    INDEX 01 00:00:00
  TRACK 11 AUDIO
    TITLE "Ich krieg alles was ich will (von dir)"
    PERFORMER "Wolfgang Petry"
    INDEX 00 03:00:62
FILE "11 Ich krieg alles was ich will (von dir).wav" WAVE
    INDEX 01 00:00:00
  TRACK 12 AUDIO
    TITLE "Du hast mein Herz geklaut"
    PERFORMER "Wolfgang Petry"
    INDEX 00 02:57:47
FILE "12 Du hast mein Herz geklaut.wav" WAVE
    INDEX 01 00:00:00
  TRACK 13 AUDIO
    TITLE "Ob du's glaubst oder nicht"
    PERFORMER "Wolfgang Petry"
    INDEX 00 03:50:37
FILE "13 Ob du's glaubst oder nicht.wav" WAVE
    INDEX 01 00:00:00
  TRACK 14 AUDIO
    TITLE "Leg dein Gesicht an mein Gesicht"
    PERFORMER "Wolfgang Petry"
    INDEX 00 03:46:47
FILE "14 Leg dein Gesicht an mein Gesicht.wav" WAVE
    INDEX 01 00:00:00
  TRACK 15 AUDIO
    TITLE "Auf Maja´s Blumenwiese"
    PERFORMER "Wolfgang Petry"
    INDEX 00 03:16:55
FILE "15 Auf Maja´s Blumenwiese.wav" WAVE
    INDEX 01 00:00:00
  TRACK 16 AUDIO
    TITLE "Scheisse ist braun"
    PERFORMER "Wolfgang Petry"
    INDEX 00 02:18:13
FILE "16 Scheisse ist braun.wav" WAVE
    INDEX 01 00:00:00
Код:
[CUETools log; Date: 17.12.2013 21:57:50; Version: 2.1.5]
Pregap length 00:00:32.
[CTDB TOCID: 2Fd1x5PbZRME8MsUILkgfuQVNVA-] disk not present in database.
[AccurateRip ID: 002186c3-019063ac-e30d1010] found.
Track   [  CRC   |   V2   ] Status
 01     [1f17ad25|a262f216] (1+0/1) Accurately ripped
 02     [c29790f0|a881f8c1] (1+0/1) Accurately ripped
 03     [041ac64d|f391aea1] (1+0/1) Accurately ripped
 04     [c29f6b59|13e2bd84] (1+0/1) Accurately ripped
 05     [3a2af84c|acff2276] (1+0/1) Accurately ripped
 06     [a73ac3c4|4cade4fd] (1+0/1) Accurately ripped
 07     [0192ea7e|b9a0530e] (1+0/1) Accurately ripped
 08     [295804e2|1c3b4702] (1+0/1) Accurately ripped
 09     [a0390995|7d866dbd] (1+0/1) Accurately ripped
 10     [166e4212|eb780bca] (1+0/1) Accurately ripped
 11     [03f91608|c7264e3b] (1+0/1) Accurately ripped
 12     [47a4e6d9|bfbe2eda] (1+0/1) Accurately ripped
 13     [683952fd|335a1ac9] (1+0/1) Accurately ripped
 14     [71c15ca1|ed8099a4] (1+0/1) Accurately ripped
 15     [16ae5f2d|3c3db06f] (1+0/1) Accurately ripped
 16     [87986a8b|44e4c4e7] (1+0/1) Accurately ripped
Track Peak [ CRC32  ] [W/O NULL] [  LOG   ]
 --  100,0 [71CDC3FC] [6F89CF93]
 01  100,0 [5966A57A] [01A630D9]   CRC32
 02   99,0 [53BC37D8] [948948C4]   CRC32
 03   99,0 [E88BCB20] [9435C832]   CRC32
 04   99,0 [0302FC54] [6CE9DE8F]   CRC32
 05   99,0 [5E3BB62E] [7BF73670]   CRC32
 06   99,0 [44B1481D] [76FB2B8B]   CRC32
 07   99,0 [1A0BE0DE] [C4955D1F]   CRC32
 08   99,0 [71E27356] [F5CCF8D9]   CRC32
 09   99,0 [A621BDB7] [B033E889]   CRC32
 10   99,0 [AC3216C4] [DB7B7937]   CRC32
 11   99,0 [5087BBEA] [D8DAEAC5]   CRC32
 12   99,8 [F55D29A7] [3BA96593]   CRC32
 13   99,0 [CD49D431] [E634B14B]   CRC32
 14   99,0 [96C57E94] [1FF8DF0F]   CRC32
 15   99,0 [C89586C9] [7D0C3374]   CRC32
 16   99,4 [79DD6C11] [E19F7686]   CRC32
#777Треклист:
Wolfgang Petry - "Einfach geil!" (1998)
Tracks: 20
Total time: 73:13
Year: 1998
Disc-ID: rock / 3d113214
1. So ein Schwein... 3:35
2. Geil, Geil, Geil (Wir sind die Größten) 3:41
3. Na dann, gute Nacht 3:41
4. Ich will das alles nicht mehr 3:28
5. Du mit mir 3:41
6. Nichts wie weg - und Schluß mit Liebe 3:46
7. Schwarz oder Weiß 4:17
8. Mal wieder voll daneben 3:34
9. Das erste Mal im Leben 3:29
10. Gott sei Dank 3:42
11. Alles kein Problem 3:29
12. Ballermann 3:29
13. Himmel, Arsch und Zwirn 3:09
14. Müll 3:39
15. Guten Morgen, Süße 3:34
16. Einfach geil 3:27
17. Ich will Dich nicht wiederseh'n 3:35
18. Ich bin so froh, daß es Dich gibt 4:03
19. Auf Deinem weiten Weg 4:12
20. Tage vorher 3:42
Код:
Exact Audio Copy V1.0 beta 3 from 29. August 2011
EAC extraction logfile from 23. July 2014, 20:41
Wolfgang Petry / Einfach geil!
Used drive  : PLEXTOR CD-R   PX-W4012A   Adapter: 2  ID: 0
Read mode               : Secure
Utilize accurate stream : Yes
Defeat audio cache      : Yes
Make use of C2 pointers : No
Read offset correction                      : 98
Overread into Lead-In and Lead-Out          : No
Fill up missing offset samples with silence : Yes
Delete leading and trailing silent blocks   : No
Null samples used in CRC calculations       : Yes
Used interface                              : Native Win32 interface for Win NT & 2000
Gap handling                                : Appended to previous track
Used output format              : User Defined Encoder
Selected bitrate                : 1024 kBit/s
Quality                         : High
Add ID3 tag                     : No
Command line compressor         : C:\Program Files (x86)\Exact Audio Copy\Flac\flac.exe
Additional command line options : -V -8 -T "Genre=%genre%" -T "Artist=%artist%" -T "Title=%title%" -T "Album=%albumtitle%" -T "Date=%year%" -T "Tracknumber=%tracknr%" -T "Comment=%comment%" %source%
TOC of the extracted CD
     Track |   Start  |  Length  | Start sector | End sector
    ---------------------------------------------------------
        1  |  0:00.32 |  3:35.63 |        32    |    16219
        2  |  3:36.20 |  3:41.12 |     16220    |    32806
        3  |  7:17.32 |  3:41.05 |     32807    |    49386
        4  | 10:58.37 |  3:28.53 |     49387    |    65039
        5  | 14:27.15 |  3:41.60 |     65040    |    81674
        6  | 18:09.00 |  3:46.07 |     81675    |    98631
        7  | 21:55.07 |  4:17.13 |     98632    |   117919
        8  | 26:12.20 |  3:34.40 |    117920    |   134009
        9  | 29:46.60 |  3:29.15 |    134010    |   149699
       10  | 33:16.00 |  3:42.20 |    149700    |   166369
       11  | 36:58.20 |  3:29.70 |    166370    |   182114
       12  | 40:28.15 |  3:29.30 |    182115    |   197819
       13  | 43:57.45 |  3:09.35 |    197820    |   212029
       14  | 47:07.05 |  3:39.27 |    212030    |   228481
       15  | 50:46.32 |  3:34.53 |    228482    |   244584
       16  | 54:21.10 |  3:27.72 |    244585    |   260181
       17  | 57:49.07 |  3:35.20 |    260182    |   276326
       18  | 61:24.27 |  4:03.18 |    276327    |   294569
       19  | 65:27.45 |  4:12.60 |    294570    |   313529
       20  | 69:40.30 |  3:42.02 |    313530    |   330181
Track  1
     Filename C:\H\Wolfgang Petry\Wolfgang Petry - Einfach geil! [FLAC] {1998}\01 So ein Schwein....wav
     Pre-gap length  0:00:02.32
     Peak level 99.7 %
     Extraction speed 7.2 X
     Track quality 100.0 %
     Test CRC 632EA06A
     Copy CRC 632EA06A
     Accurately ripped (confidence 16)  [99DBC897]  (AR v2)
     Copy OK
Track  2
     Filename C:\H\Wolfgang Petry\Wolfgang Petry - Einfach geil! [FLAC] {1998}\02 Geil, Geil, Geil (Wir sind die Groessten).wav
     Pre-gap length  0:00:01.38
     Peak level 100.0 %
     Extraction speed 7.8 X
     Track quality 100.0 %
     Test CRC 3FB4D4D2
     Copy CRC 3FB4D4D2
     Accurately ripped (confidence 16)  [16B84BD5]  (AR v2)
     Copy OK
Track  3
     Filename C:\H\Wolfgang Petry\Wolfgang Petry - Einfach geil! [FLAC] {1998}\03 Na dann, gute Nacht.wav
     Pre-gap length  0:00:01.17
     Peak level 99.0 %
     Extraction speed 7.5 X
     Track quality 99.9 %
     Test CRC 48054090
     Copy CRC 48054090
     Accurately ripped (confidence 16)  [13F7BC52]  (AR v2)
     Copy OK
Track  4
     Filename C:\H\Wolfgang Petry\Wolfgang Petry - Einfach geil! [FLAC] {1998}\04 Ich will das alles nicht mehr.wav
     Pre-gap length  0:00:01.12
     Peak level 99.0 %
     Extraction speed 8.9 X
     Track quality 100.0 %
     Test CRC 3AEFAEC0
     Copy CRC 3AEFAEC0
     Accurately ripped (confidence 16)  [8F9DB11F]  (AR v2)
     Copy OK
Track  5
     Filename C:\H\Wolfgang Petry\Wolfgang Petry - Einfach geil! [FLAC] {1998}\05 Du mit mir.wav
     Pre-gap length  0:00:01.28
     Peak level 99.3 %
     Extraction speed 9.2 X
     Track quality 100.0 %
     Test CRC 58E9D5C0
     Copy CRC 58E9D5C0
     Accurately ripped (confidence 16)  [7CFF3C3C]  (AR v2)
     Copy OK
Track  6
     Filename C:\H\Wolfgang Petry\Wolfgang Petry - Einfach geil! [FLAC] {1998}\06 Nichts wie weg - und Schluss mit Liebe.wav
     Pre-gap length  0:00:01.13
     Peak level 99.2 %
     Extraction speed 8.7 X
     Track quality 99.9 %
     Test CRC 79A90982
     Copy CRC 79A90982
     Accurately ripped (confidence 16)  [DD723815]  (AR v2)
     Copy OK
Track  7
     Filename C:\H\Wolfgang Petry\Wolfgang Petry - Einfach geil! [FLAC] {1998}\07 Schwarz oder Weiss.wav
     Pre-gap length  0:00:00.67
     Peak level 99.0 %
     Extraction speed 10.3 X
     Track quality 100.0 %
     Test CRC 9831E6FA
     Copy CRC 9831E6FA
     Accurately ripped (confidence 16)  [C7949635]  (AR v2)
     Copy OK
Track  8
     Filename C:\H\Wolfgang Petry\Wolfgang Petry - Einfach geil! [FLAC] {1998}\08 Mal wieder voll daneben.wav
     Pre-gap length  0:00:01.23
     Peak level 99.8 %
     Extraction speed 10.7 X
     Track quality 100.0 %
     Test CRC B4AADA7F
     Copy CRC B4AADA7F
     Accurately ripped (confidence 16)  [8DCB0C34]  (AR v2)
     Copy OK
Track  9
     Filename C:\H\Wolfgang Petry\Wolfgang Petry - Einfach geil! [FLAC] {1998}\09 Das erste Mal im Leben.wav
     Pre-gap length  0:00:02.03
     Peak level 99.5 %
     Extraction speed 11.1 X
     Track quality 100.0 %
     Test CRC 6F6CD916
     Copy CRC 6F6CD916
     Accurately ripped (confidence 15)  [71458E2A]  (AR v2)
     Copy OK
Track 10
     Filename C:\H\Wolfgang Petry\Wolfgang Petry - Einfach geil! [FLAC] {1998}\10 Gott sei Dank.wav
     Pre-gap length  0:00:01.25
     Peak level 99.0 %
     Extraction speed 11.5 X
     Track quality 100.0 %
     Test CRC 0D6F5CA9
     Copy CRC 0D6F5CA9
     Accurately ripped (confidence 15)  [EBBC7C0D]  (AR v2)
     Copy OK
Track 11
     Filename C:\H\Wolfgang Petry\Wolfgang Petry - Einfach geil! [FLAC] {1998}\11 Alles kein Problem.wav
     Pre-gap length  0:00:01.43
     Peak level 99.2 %
     Extraction speed 11.8 X
     Track quality 100.0 %
     Test CRC 14B92EC2
     Copy CRC 14B92EC2
     Accurately ripped (confidence 15)  [08DC204A]  (AR v2)
     Copy OK
Track 12
     Filename C:\H\Wolfgang Petry\Wolfgang Petry - Einfach geil! [FLAC] {1998}\12 Ballermann.wav
     Pre-gap length  0:00:01.25
     Peak level 100.0 %
     Extraction speed 12.2 X
     Track quality 100.0 %
     Test CRC 2E3B77B8
     Copy CRC 2E3B77B8
     Accurately ripped (confidence 15)  [B02DDAF7]  (AR v2)
     Copy OK
Track 13
     Filename C:\H\Wolfgang Petry\Wolfgang Petry - Einfach geil! [FLAC] {1998}\13 Himmel, Arsch und Zwirn.wav
     Pre-gap length  0:00:00.60
     Peak level 99.9 %
     Extraction speed 12.4 X
     Track quality 100.0 %
     Test CRC DE62CCF1
     Copy CRC DE62CCF1
     Accurately ripped (confidence 15)  [6B7A57FC]  (AR v2)
     Copy OK
Track 14
     Filename C:\H\Wolfgang Petry\Wolfgang Petry - Einfach geil! [FLAC] {1998}\14 Muell.wav
     Pre-gap length  0:00:01.10
     Peak level 99.0 %
     Extraction speed 12.7 X
     Track quality 100.0 %
     Test CRC 7D86F8A7
     Copy CRC 7D86F8A7
     Accurately ripped (confidence 14)  [B68E4A82]  (AR v2)
     Copy OK
Track 15
     Filename C:\H\Wolfgang Petry\Wolfgang Petry - Einfach geil! [FLAC] {1998}\15 Guten Morgen, Suesse.wav
     Pre-gap length  0:00:01.25
     Peak level 99.3 %
     Extraction speed 13.1 X
     Track quality 100.0 %
     Test CRC A42F74CD
     Copy CRC A42F74CD
     Accurately ripped (confidence 14)  [A04B6E0E]  (AR v2)
     Copy OK
Track 16
     Filename C:\H\Wolfgang Petry\Wolfgang Petry - Einfach geil! [FLAC] {1998}\16 Einfach geil.wav
     Pre-gap length  0:00:01.30
     Peak level 100.0 %
     Extraction speed 13.3 X
     Track quality 100.0 %
     Test CRC 76F0B716
     Copy CRC 76F0B716
     Accurately ripped (confidence 15)  [AB625CB8]  (AR v2)
     Copy OK
Track 17
     Filename C:\H\Wolfgang Petry\Wolfgang Petry - Einfach geil! [FLAC] {1998}\17 Ich will Dich nicht wiederseh'n.wav
     Pre-gap length  0:00:01.55
     Peak level 99.0 %
     Extraction speed 13.7 X
     Track quality 100.0 %
     Test CRC C19FD6FC
     Copy CRC C19FD6FC
     Accurately ripped (confidence 15)  [7D715561]  (AR v2)
     Copy OK
Track 18
     Filename C:\H\Wolfgang Petry\Wolfgang Petry - Einfach geil! [FLAC] {1998}\18 Ich bin so froh, dass es Dich gibt.wav
     Pre-gap length  0:00:01.32
     Peak level 99.7 %
     Extraction speed 14.0 X
     Track quality 100.0 %
     Test CRC AE626572
     Copy CRC AE626572
     Accurately ripped (confidence 15)  [AE1E5842]  (AR v2)
     Copy OK
Track 19
     Filename C:\H\Wolfgang Petry\Wolfgang Petry - Einfach geil! [FLAC] {1998}\19 Auf Deinem weiten Weg.wav
     Pre-gap length  0:00:01.33
     Peak level 99.0 %
     Extraction speed 14.3 X
     Track quality 100.0 %
     Test CRC 3CF53A22
     Copy CRC 3CF53A22
     Accurately ripped (confidence 14)  [B5F50597]  (AR v2)
     Copy OK
Track 20
     Filename C:\H\Wolfgang Petry\Wolfgang Petry - Einfach geil! [FLAC] {1998}\20 Tage vorher.wav
     Pre-gap length  0:00:01.55
     Peak level 99.0 %
     Extraction speed 12.7 X
     Track quality 100.0 %
     Test CRC 55342665
     Copy CRC 55342665
     Accurately ripped (confidence 14)  [8340CE16]  (AR v2)
     Copy OK
All tracks accurately ripped
No errors occurred
End of status report
==== Log checksum 0E9694D0F77DB950333D622C20F6C31C8519B3EDBD7AE871D5A5B24CD77DAE42 ====
Код:
REM GENRE Pop
REM DATE 1998
REM DISCID 3D113214
REM COMMENT "ExactAudioCopy v1.0b3"
PERFORMER "Wolfgang Petry"
TITLE "Einfach geil!"
FILE "01 So ein Schwein....wav" WAVE
  TRACK 01 AUDIO
    TITLE "So ein Schwein..."
    PERFORMER "Wolfgang Petry"
    PREGAP 00:00:32
    INDEX 01 00:00:00
  TRACK 02 AUDIO
    TITLE "Geil, Geil, Geil (Wir sind die Groessten)"
    PERFORMER "Wolfgang Petry"
    INDEX 00 03:34:25
FILE "02 Geil, Geil, Geil (Wir sind die Groessten).wav" WAVE
    INDEX 01 00:00:00
  TRACK 03 AUDIO
    TITLE "Na dann, gute Nacht"
    PERFORMER "Wolfgang Petry"
    INDEX 00 03:39:70
FILE "03 Na dann, gute Nacht.wav" WAVE
    INDEX 01 00:00:00
  TRACK 04 AUDIO
    TITLE "Ich will das alles nicht mehr"
    PERFORMER "Wolfgang Petry"
    INDEX 00 03:39:68
FILE "04 Ich will das alles nicht mehr.wav" WAVE
    INDEX 01 00:00:00
  TRACK 05 AUDIO
    TITLE "Du mit mir"
    PERFORMER "Wolfgang Petry"
    INDEX 00 03:27:25
FILE "05 Du mit mir.wav" WAVE
    INDEX 01 00:00:00
  TRACK 06 AUDIO
    TITLE "Nichts wie weg - und Schluss mit Liebe"
    PERFORMER "Wolfgang Petry"
    INDEX 00 03:40:47
FILE "06 Nichts wie weg - und Schluss mit Liebe.wav" WAVE
    INDEX 01 00:00:00
  TRACK 07 AUDIO
    TITLE "Schwarz oder Weiss"
    PERFORMER "Wolfgang Petry"
    INDEX 00 03:45:15
FILE "07 Schwarz oder Weiss.wav" WAVE
    INDEX 01 00:00:00
  TRACK 08 AUDIO
    TITLE "Mal wieder voll daneben"
    PERFORMER "Wolfgang Petry"
    INDEX 00 04:15:65
FILE "08 Mal wieder voll daneben.wav" WAVE
    INDEX 01 00:00:00
  TRACK 09 AUDIO
    TITLE "Das erste Mal im Leben"
    PERFORMER "Wolfgang Petry"
    INDEX 00 03:32:37
FILE "09 Das erste Mal im Leben.wav" WAVE
    INDEX 01 00:00:00
  TRACK 10 AUDIO
    TITLE "Gott sei Dank"
    PERFORMER "Wolfgang Petry"
    INDEX 00 03:27:65
FILE "10 Gott sei Dank.wav" WAVE
    INDEX 01 00:00:00
  TRACK 11 AUDIO
    TITLE "Alles kein Problem"
    PERFORMER "Wolfgang Petry"
    INDEX 00 03:40:52
FILE "11 Alles kein Problem.wav" WAVE
    INDEX 01 00:00:00
  TRACK 12 AUDIO
    TITLE "Ballermann"
    PERFORMER "Wolfgang Petry"
    INDEX 00 03:28:45
FILE "12 Ballermann.wav" WAVE
    INDEX 01 00:00:00
  TRACK 13 AUDIO
    TITLE "Himmel, Arsch und Zwirn"
    PERFORMER "Wolfgang Petry"
    INDEX 00 03:28:45
FILE "13 Himmel, Arsch und Zwirn.wav" WAVE
    INDEX 01 00:00:00
  TRACK 14 AUDIO
    TITLE "Muell"
    PERFORMER "Wolfgang Petry"
    INDEX 00 03:08:25
FILE "14 Muell.wav" WAVE
    INDEX 01 00:00:00
  TRACK 15 AUDIO
    TITLE "Guten Morgen, Suesse"
    PERFORMER "Wolfgang Petry"
    INDEX 00 03:38:02
FILE "15 Guten Morgen, Suesse.wav" WAVE
    INDEX 01 00:00:00
  TRACK 16 AUDIO
    TITLE "Einfach geil"
    PERFORMER "Wolfgang Petry"
    INDEX 00 03:33:23
FILE "16 Einfach geil.wav" WAVE
    INDEX 01 00:00:00
  TRACK 17 AUDIO
    TITLE "Ich will Dich nicht wiederseh'n"
    PERFORMER "Wolfgang Petry"
    INDEX 00 03:26:17
FILE "17 Ich will Dich nicht wiederseh'n.wav" WAVE
    INDEX 01 00:00:00
  TRACK 18 AUDIO
    TITLE "Ich bin so froh, dass es Dich gibt"
    PERFORMER "Wolfgang Petry"
    INDEX 00 03:33:63
FILE "18 Ich bin so froh, dass es Dich gibt.wav" WAVE
    INDEX 01 00:00:00
  TRACK 19 AUDIO
    TITLE "Auf Deinem weiten Weg"
    PERFORMER "Wolfgang Petry"
    INDEX 00 04:01:60
FILE "19 Auf Deinem weiten Weg.wav" WAVE
    INDEX 01 00:00:00
  TRACK 20 AUDIO
    TITLE "Tage vorher"
    PERFORMER "Wolfgang Petry"
    INDEX 00 04:11:05
FILE "20 Tage vorher.wav" WAVE
    INDEX 01 00:00:00
Код:
[CUETools log; Date: 23.07.2014 20:44:52; Version: 2.1.5]
Pregap length 00:00:32.
[CTDB TOCID: FU3qh4f90QjyrB1t6lsBv5mgmT4-] found.
Track | CTDB Status
  1   | (4/4) Accurately ripped
  2   | (4/4) Accurately ripped
  3   | (4/4) Accurately ripped
  4   | (4/4) Accurately ripped
  5   | (4/4) Accurately ripped
  6   | (4/4) Accurately ripped
  7   | (4/4) Accurately ripped
  8   | (4/4) Accurately ripped
  9   | (4/4) Accurately ripped
 10   | (4/4) Accurately ripped
 11   | (4/4) Accurately ripped
 12   | (4/4) Accurately ripped
 13   | (4/4) Accurately ripped
 14   | (4/4) Accurately ripped
 15   | (4/4) Accurately ripped
 16   | (4/4) Accurately ripped
 17   | (4/4) Accurately ripped
 18   | (4/4) Accurately ripped
 19   | (4/4) Accurately ripped
 20   | (4/4) Accurately ripped
[AccurateRip ID: 0034aae0-0303b645-3d113214] found.
Track   [  CRC   |   V2   ] Status
 01     [34f87287|99dbc897] (23+16/39) Accurately ripped
 02     [b957be7f|16b84bd5] (24+16/40) Accurately ripped
 03     [35d443a9|13f7bc52] (24+16/40) Accurately ripped
 04     [ede323e5|8f9db11f] (24+16/40) Accurately ripped
 05     [6b25c47e|7cff3c3c] (24+16/40) Accurately ripped
 06     [03e9df23|dd723815] (24+16/40) Accurately ripped
 07     [9c31c984|c7949635] (24+16/40) Accurately ripped
 08     [74b7f1e0|8dcb0c34] (24+16/40) Accurately ripped
 09     [383dd0ad|71458e2a] (24+15/39) Accurately ripped
 10     [99956e31|ebbc7c0d] (23+15/38) Accurately ripped
 11     [641984b3|08dc204a] (23+15/38) Accurately ripped
 12     [1400886c|b02ddaf7] (24+15/39) Accurately ripped
 13     [db03e7dd|6b7a57fc] (24+15/39) Accurately ripped
 14     [0f0bacb3|b68e4a82] (24+14/38) Accurately ripped
 15     [34eac33c|a04b6e0e] (24+14/38) Accurately ripped
 16     [c8fa1089|ab625cb8] (24+15/39) Accurately ripped
 17     [e9808c07|7d715561] (24+15/39) Accurately ripped
 18     [4166d562|ae1e5842] (24+15/39) Accurately ripped
 19     [e99f2e35|b5f50597] (24+14/38) Accurately ripped
 20     [a0de33e5|8340ce16] (23+14/37) Accurately ripped
Track Peak [ CRC32  ] [W/O NULL] [  LOG   ]
 --  100,0 [2C079DD9] [B507BCA4]
 01   99,7 [632EA06A] [BDF36C58]   CRC32
 02  100,0 [3FB4D4D2] [36B55663]   CRC32
 03   99,0 [48054090] [D0464F50]   CRC32
 04   99,0 [3AEFAEC0] [4CAB6C14]   CRC32
 05   99,3 [58E9D5C0] [A78C83FF]   CRC32
 06   99,2 [79A90982] [34E42D8A]   CRC32
 07   99,0 [9831E6FA] [0F7F337B]   CRC32
 08   99,8 [B4AADA7F] [A92C2EB5]   CRC32
 09   99,5 [6F6CD916] [DB386023]   CRC32
 10   99,0 [0D6F5CA9] [C30C2667]   CRC32
 11   99,2 [14B92EC2] [86849399]   CRC32
 12  100,0 [2E3B77B8] [917B843F]   CRC32
 13   99,9 [DE62CCF1] [6C305416]   CRC32
 14   99,0 [7D86F8A7] [A95B6A5C]   CRC32
 15   99,3 [A42F74CD] [A2B2FCA7]   CRC32
 16  100,0 [76F0B716] [4BED09A9]   CRC32
 17   99,0 [C19FD6FC] [232E027B]   CRC32
 18   99,7 [AE626572] [E305D384]   CRC32
 19   99,0 [3CF53A22] [3A30E1A9]   CRC32
 20   99,0 [55342665] [0F137523]   CRC32
#777Треклист:
Wolfgang Petry - "Nie genug" (1997)
Tracks: 18
Total time: 74:10
Year: 1997
Disc-ID: rock / 11116a12
1. Augen zu und durch (Radio Version) 3:25
2. Weiber (Single Version) 3:46
3. Hab' noch lange nicht genug 3:37
4. Weiss' der Geier (Radio Version) 3:42
5. Alles würd' ich tun für Dich 3:34
6. Bis irgendwann 3:30
7. Es kommt sowieso ganz anders 3:56
8. Millionär 3:16
9. Das darf doch nicht wahr sein 3:34
10. Der Sommer von damals 3:41
11. Pass' gut auf Dich auf 3:49
12. Doch ich will Dich 4:06
13. Wieder zurück 3:43
14. Dieses Lied ist für Euch 4:07
15. Ich schaff' das schon 4:37
16. Du bist fort 3:56
17. Wie beim ersten Mal 4:38
18. Der "Nie genug" Hitmix 9:13
Код:
Exact Audio Copy V1.0 beta 3 from 29. August 2011
EAC extraction logfile from 11. December 2013, 21:23
Wolfgang Petry / Nie genug
Used drive  : PLEXTOR CD-R   PX-W4012A   Adapter: 2  ID: 0
Read mode               : Secure
Utilize accurate stream : Yes
Defeat audio cache      : Yes
Make use of C2 pointers : No
Read offset correction                      : 98
Overread into Lead-In and Lead-Out          : No
Fill up missing offset samples with silence : Yes
Delete leading and trailing silent blocks   : No
Null samples used in CRC calculations       : Yes
Used interface                              : Native Win32 interface for Win NT & 2000
Gap handling                                : Appended to previous track
Used output format              : User Defined Encoder
Selected bitrate                : 1024 kBit/s
Quality                         : High
Add ID3 tag                     : No
Command line compressor         : C:\Program Files (x86)\Exact Audio Copy\Flac\flac.exe
Additional command line options : -V -8 -T "Genre=%genre%" -T "Artist=%artist%" -T "Title=%title%" -T "Album=%albumtitle%" -T "Date=%year%" -T "Tracknumber=%tracknr%" -T "Comment=%comment%" %source%
TOC of the extracted CD
     Track |   Start  |  Length  | Start sector | End sector
    ---------------------------------------------------------
        1  |  0:00.32 |  3:25.60 |        32    |    15466
        2  |  3:26.17 |  3:46.08 |     15467    |    32424
        3  |  7:12.25 |  3:37.07 |     32425    |    48706
        4  | 10:49.32 |  3:42.43 |     48707    |    65399
        5  | 14:32.00 |  3:34.12 |     65400    |    81461
        6  | 18:06.12 |  3:30.58 |     81462    |    97269
        7  | 21:36.70 |  3:56.40 |     97270    |   115009
        8  | 25:33.35 |  3:16.02 |    115010    |   129711
        9  | 28:49.37 |  3:34.15 |    129712    |   145776
       10  | 32:23.52 |  3:41.03 |    145777    |   162354
       11  | 36:04.55 |  3:49.50 |    162355    |   179579
       12  | 39:54.30 |  4:06.15 |    179580    |   198044
       13  | 44:00.45 |  3:43.70 |    198045    |   214839
       14  | 47:44.40 |  4:07.72 |    214840    |   233436
       15  | 51:52.37 |  4:37.48 |    233437    |   254259
       16  | 56:30.10 |  3:56.65 |    254260    |   272024
       17  | 60:27.00 |  4:38.32 |    272025    |   292906
       18  | 65:05.32 |  9:13.25 |    292907    |   334406
Track  1
     Filename C:\H\Wolfgang Petry\Wolfgang Petry - Nie genug [FLAC] {1998}\01 Augen zu und durch (Radio Version).wav
     Pre-gap length  0:00:02.32
     Peak level 99.5 %
     Extraction speed 7.1 X
     Track quality 100.0 %
     Test CRC E0ECF64D
     Copy CRC E0ECF64D
     Accurately ripped (confidence 20)  [792847EA]  (AR v2)
     Copy OK
Track  2
     Filename C:\H\Wolfgang Petry\Wolfgang Petry - Nie genug [FLAC] {1998}\02 Weiber (Single Version).wav
     Pre-gap length  0:00:00.67
     Peak level 100.0 %
     Extraction speed 7.0 X
     Track quality 99.9 %
     Test CRC A068ADC8
     Copy CRC A068ADC8
     Accurately ripped (confidence 19)  [4CBC552A]  (AR v2)
     Copy OK
Track  3
     Filename C:\H\Wolfgang Petry\Wolfgang Petry - Nie genug [FLAC] {1998}\03 Hab' noch lange nicht genug.wav
     Pre-gap length  0:00:00.68
     Peak level 99.0 %
     Extraction speed 7.4 X
     Track quality 99.9 %
     Test CRC F490EAC0
     Copy CRC F490EAC0
     Accurately ripped (confidence 19)  [0333DFD8]  (AR v2)
     Copy OK
Track  4
     Filename C:\H\Wolfgang Petry\Wolfgang Petry - Nie genug [FLAC] {1998}\04 Weiss' der Geier (Radio Version).wav
     Pre-gap length  0:00:01.35
     Peak level 100.0 %
     Extraction speed 8.9 X
     Track quality 100.0 %
     Test CRC D4BE04D8
     Copy CRC D4BE04D8
     Accurately ripped (confidence 19)  [30E16B2B]  (AR v2)
     Copy OK
Track  5
     Filename C:\H\Wolfgang Petry\Wolfgang Petry - Nie genug [FLAC] {1998}\05 Alles wuerd' ich tun fuer Dich.wav
     Pre-gap length  0:00:01.48
     Peak level 99.0 %
     Extraction speed 9.2 X
     Track quality 100.0 %
     Test CRC D01F5740
     Copy CRC D01F5740
     Accurately ripped (confidence 19)  [B65C51BD]  (AR v2)
     Copy OK
Track  6
     Filename C:\H\Wolfgang Petry\Wolfgang Petry - Nie genug [FLAC] {1998}\06 Bis irgendwann.wav
     Pre-gap length  0:00:00.67
     Peak level 99.4 %
     Extraction speed 9.7 X
     Track quality 100.0 %
     Test CRC 607F488A
     Copy CRC 607F488A
     Accurately ripped (confidence 19)  [C5B259BD]  (AR v2)
     Copy OK
Track  7
     Filename C:\H\Wolfgang Petry\Wolfgang Petry - Nie genug [FLAC] {1998}\07 Es kommt sowieso ganz anders.wav
     Pre-gap length  0:00:01.05
     Peak level 100.0 %
     Extraction speed 10.2 X
     Track quality 100.0 %
     Test CRC 6B997DEC
     Copy CRC 6B997DEC
     Accurately ripped (confidence 18)  [544A5CB8]  (AR v2)
     Copy OK
Track  8
     Filename C:\H\Wolfgang Petry\Wolfgang Petry - Nie genug [FLAC] {1998}\08 Millionaer.wav
     Pre-gap length  0:00:01.10
     Peak level 99.1 %
     Extraction speed 10.6 X
     Track quality 100.0 %
     Test CRC 3C344732
     Copy CRC 3C344732
     Accurately ripped (confidence 17)  [D4437A7E]  (AR v2)
     Copy OK
Track  9
     Filename C:\H\Wolfgang Petry\Wolfgang Petry - Nie genug [FLAC] {1998}\09 Das darf doch nicht wahr sein.wav
     Pre-gap length  0:00:00.42
     Peak level 99.0 %
     Extraction speed 11.0 X
     Track quality 100.0 %
     Test CRC 749427CE
     Copy CRC 749427CE
     Accurately ripped (confidence 18)  [EE45BB85]  (AR v2)
     Copy OK
Track 10
     Filename C:\H\Wolfgang Petry\Wolfgang Petry - Nie genug [FLAC] {1998}\10 Der Sommer von damals.wav
     Pre-gap length  0:00:01.67
     Peak level 99.6 %
     Extraction speed 11.4 X
     Track quality 100.0 %
     Test CRC 299F6EC2
     Copy CRC 299F6EC2
     Accurately ripped (confidence 18)  [F5F35F74]  (AR v2)
     Copy OK
Track 11
     Filename C:\H\Wolfgang Petry\Wolfgang Petry - Nie genug [FLAC] {1998}\11 Pass' gut auf Dich auf.wav
     Pre-gap length  0:00:01.50
     Peak level 99.0 %
     Extraction speed 11.8 X
     Track quality 100.0 %
     Test CRC 17D10FAB
     Copy CRC 17D10FAB
     Accurately ripped (confidence 18)  [360DC585]  (AR v2)
     Copy OK
Track 12
     Filename C:\H\Wolfgang Petry\Wolfgang Petry - Nie genug [FLAC] {1998}\12 Doch ich will Dich.wav
     Pre-gap length  0:00:01.33
     Peak level 99.9 %
     Extraction speed 12.2 X
     Track quality 100.0 %
     Test CRC A722D80D
     Copy CRC A722D80D
     Accurately ripped (confidence 18)  [0E02E7CF]  (AR v2)
     Copy OK
Track 13
     Filename C:\H\Wolfgang Petry\Wolfgang Petry - Nie genug [FLAC] {1998}\13 Wieder zurueck.wav
     Pre-gap length  0:00:01.25
     Peak level 99.0 %
     Extraction speed 12.5 X
     Track quality 100.0 %
     Test CRC E52CD59C
     Copy CRC E52CD59C
     Accurately ripped (confidence 16)  [BDD6AAA0]  (AR v2)
     Copy OK
Track 14
     Filename C:\H\Wolfgang Petry\Wolfgang Petry - Nie genug [FLAC] {1998}\14 Dieses Lied ist fuer Euch.wav
     Pre-gap length  0:00:01.38
     Peak level 100.0 %
     Extraction speed 11.3 X
     Track quality 99.9 %
     Test CRC 5CF1BF9A
     Copy CRC 5CF1BF9A
     Accurately ripped (confidence 16)  [2B39BEAF]  (AR v2)
     Copy OK
Track 15
     Filename C:\H\Wolfgang Petry\Wolfgang Petry - Nie genug [FLAC] {1998}\15 Ich schaff' das schon.wav
     Pre-gap length  0:00:01.22
     Peak level 99.2 %
     Extraction speed 13.4 X
     Track quality 100.0 %
     Test CRC F78F794F
     Copy CRC F78F794F
     Accurately ripped (confidence 16)  [FB6D4689]  (AR v2)
     Copy OK
Track 16
     Filename C:\H\Wolfgang Petry\Wolfgang Petry - Nie genug [FLAC] {1998}\16 Du bist fort.wav
     Pre-gap length  0:00:02.00
     Peak level 99.2 %
     Extraction speed 13.6 X
     Track quality 100.0 %
     Test CRC 48FAC4C3
     Copy CRC 48FAC4C3
     Accurately ripped (confidence 16)  [B31466EB]  (AR v2)
     Copy OK
Track 17
     Filename C:\H\Wolfgang Petry\Wolfgang Petry - Nie genug [FLAC] {1998}\17 Wie beim ersten Mal.wav
     Pre-gap length  0:00:01.45
     Peak level 99.3 %
     Extraction speed 14.1 X
     Track quality 100.0 %
     Test CRC ACCA6F3B
     Copy CRC ACCA6F3B
     Accurately ripped (confidence 17)  [38DF61EB]  (AR v2)
     Copy OK
Track 18
     Filename C:\H\Wolfgang Petry\Wolfgang Petry - Nie genug [FLAC] {1998}\18 Der ''Nie genug'' Hitmix.wav
     Pre-gap length  0:00:01.35
     Peak level 99.0 %
     Extraction speed 14.2 X
     Track quality 100.0 %
     Test CRC 2A0C7E12
     Copy CRC 2A0C7E12
     Accurately ripped (confidence 16)  [C6DD08DF]  (AR v2)
     Copy OK
All tracks accurately ripped
No errors occurred
End of status report
==== Log checksum 1AED1FDAAF50AEC427BA6CF2CA8F9B08733A2B1EF7C29BD6C0BA008E7FB40C20 ====
Код:
REM GENRE Pop
REM DATE 1997
REM DISCID 11116A12
REM COMMENT "ExactAudioCopy v1.0b3"
CATALOG 7432151119240
PERFORMER "Wolfgang Petry"
TITLE "Nie genug"
FILE "01 Augen zu und durch (Radio Version).wav" WAVE
  TRACK 01 AUDIO
    TITLE "Augen zu und durch (Radio Version)"
    PERFORMER "Wolfgang Petry"
    ISRC DEH499700082
    PREGAP 00:00:32
    INDEX 01 00:00:00
  TRACK 02 AUDIO
    TITLE "Weiber (Single Version)"
    PERFORMER "Wolfgang Petry"
    ISRC DEH499700005
    INDEX 00 03:24:68
FILE "02 Weiber (Single Version).wav" WAVE
    INDEX 01 00:00:00
  TRACK 03 AUDIO
    TITLE "Hab' noch lange nicht genug"
    PERFORMER "Wolfgang Petry"
    ISRC DEH499700083
    INDEX 00 03:45:15
FILE "03 Hab' noch lange nicht genug.wav" WAVE
    INDEX 01 00:00:00
  TRACK 04 AUDIO
    TITLE "Weiss' der Geier (Radio Version)"
    PERFORMER "Wolfgang Petry"
    ISRC DEH499700084
    INDEX 00 03:35:47
FILE "04 Weiss' der Geier (Radio Version).wav" WAVE
    INDEX 01 00:00:00
  TRACK 05 AUDIO
    TITLE "Alles wuerd' ich tun fuer Dich"
    PERFORMER "Wolfgang Petry"
    ISRC DEH499700085
    INDEX 00 03:40:70
FILE "05 Alles wuerd' ich tun fuer Dich.wav" WAVE
    INDEX 01 00:00:00
  TRACK 06 AUDIO
    TITLE "Bis irgendwann"
    PERFORMER "Wolfgang Petry"
    ISRC DEH499700086
    INDEX 00 03:33:20
FILE "06 Bis irgendwann.wav" WAVE
    INDEX 01 00:00:00
  TRACK 07 AUDIO
    TITLE "Es kommt sowieso ganz anders"
    PERFORMER "Wolfgang Petry"
    ISRC DEH499700087
    INDEX 00 03:29:53
FILE "07 Es kommt sowieso ganz anders.wav" WAVE
    INDEX 01 00:00:00
  TRACK 08 AUDIO
    TITLE "Millionaer"
    PERFORMER "Wolfgang Petry"
    ISRC DEH499700088
    INDEX 00 03:55:30
FILE "08 Millionaer.wav" WAVE
    INDEX 01 00:00:00
  TRACK 09 AUDIO
    TITLE "Das darf doch nicht wahr sein"
    PERFORMER "Wolfgang Petry"
    ISRC DEH499700089
    INDEX 00 03:15:35
FILE "09 Das darf doch nicht wahr sein.wav" WAVE
    INDEX 01 00:00:00
  TRACK 10 AUDIO
    TITLE "Der Sommer von damals"
    PERFORMER "Wolfgang Petry"
    ISRC DEH499700090
    INDEX 00 03:32:23
FILE "10 Der Sommer von damals.wav" WAVE
    INDEX 01 00:00:00
  TRACK 11 AUDIO
    TITLE "Pass' gut auf Dich auf"
    PERFORMER "Wolfgang Petry"
    ISRC DEH499700091
    INDEX 00 03:39:28
FILE "11 Pass' gut auf Dich auf.wav" WAVE
    INDEX 01 00:00:00
  TRACK 12 AUDIO
    TITLE "Doch ich will Dich"
    PERFORMER "Wolfgang Petry"
    ISRC DEH499700092
    INDEX 00 03:48:17
FILE "12 Doch ich will Dich.wav" WAVE
    INDEX 01 00:00:00
  TRACK 13 AUDIO
    TITLE "Wieder zurueck"
    PERFORMER "Wolfgang Petry"
    ISRC DEH499700093
    INDEX 00 04:04:65
FILE "13 Wieder zurueck.wav" WAVE
    INDEX 01 00:00:00
  TRACK 14 AUDIO
    TITLE "Dieses Lied ist fuer Euch"
    PERFORMER "Wolfgang Petry"
    ISRC DEH499700094
    INDEX 00 03:42:32
FILE "14 Dieses Lied ist fuer Euch.wav" WAVE
    INDEX 01 00:00:00
  TRACK 15 AUDIO
    TITLE "Ich schaff' das schon"
    PERFORMER "Wolfgang Petry"
    ISRC DEH499700095
    INDEX 00 04:06:50
FILE "15 Ich schaff' das schon.wav" WAVE
    INDEX 01 00:00:00
  TRACK 16 AUDIO
    TITLE "Du bist fort"
    PERFORMER "Wolfgang Petry"
    ISRC DEH499700096
    INDEX 00 04:35:48
FILE "16 Du bist fort.wav" WAVE
    INDEX 01 00:00:00
  TRACK 17 AUDIO
    TITLE "Wie beim ersten Mal"
    PERFORMER "Wolfgang Petry"
    ISRC DEH499700097
    INDEX 00 03:55:20
FILE "17 Wie beim ersten Mal.wav" WAVE
    INDEX 01 00:00:00
  TRACK 18 AUDIO
    TITLE "Der ''Nie genug'' Hitmix"
    PERFORMER "Wolfgang Petry"
    ISRC DEH499700098
    INDEX 00 04:36:72
FILE "18 Der ''Nie genug'' Hitmix.wav" WAVE
    INDEX 01 00:00:00
Код:
[CUETools log; Date: 11.12.2013 21:24:28; Version: 2.1.5]
Pregap length 00:00:32.
[CTDB TOCID: w9g0IgBlEVjQKMBz.0zeHrg_fJs-] found.
Track | CTDB Status
  1   | (1/3) Accurately ripped
  2   | (2/3) Accurately ripped
  3   | (2/3) Accurately ripped
  4   | (1/3) Accurately ripped
  5   | (2/3) Accurately ripped
  6   | (2/3) Accurately ripped
  7   | (2/3) Accurately ripped
  8   | (2/3) Accurately ripped
  9   | (2/3) Accurately ripped
 10   | (2/3) Accurately ripped
 11   | (2/3) Accurately ripped
 12   | (2/3) Accurately ripped
 13   | (2/3) Accurately ripped
 14   | (2/3) Accurately ripped
 15   | (2/3) Accurately ripped
 16   | (2/3) Accurately ripped
 17   | (2/3) Accurately ripped
 18   | (1/3) Accurately ripped
[AccurateRip ID: 002bd71e-024ea4ae-11116a12] found.
Track   [  CRC   |   V2   ] Status
 01     [c5961514|792847ea] (39+20/59) Accurately ripped
 02     [9dd078d7|4cbc552a] (39+19/58) Accurately ripped
 03     [2e1d98be|0333dfd8] (39+19/58) Accurately ripped
 04     [a8f20999|30e16b2b] (39+19/58) Accurately ripped
 05     [835cea25|b65c51bd] (39+19/58) Accurately ripped
 06     [90b5c6b6|c5b259bd] (39+19/58) Accurately ripped
 07     [82b04744|544a5cb8] (39+18/57) Accurately ripped
 08     [57a4eba7|d4437a7e] (39+17/56) Accurately ripped
 09     [44291e82|ee45bb85] (39+18/57) Accurately ripped
 10     [931db164|f5f35f74] (39+18/57) Accurately ripped
 11     [c66d1226|360dc585] (39+18/57) Accurately ripped
 12     [2ce9eda7|0e02e7cf] (39+18/57) Accurately ripped
 13     [f12899a3|bdd6aaa0] (39+16/55) Accurately ripped
 14     [4b369345|2b39beaf] (39+16/55) Accurately ripped
 15     [5b90c93e|fb6d4689] (39+16/55) Accurately ripped
 16     [1bf1b821|b31466eb] (39+16/55) Accurately ripped
 17     [b9e36d03|38df61eb] (39+17/56) Accurately ripped
 18     [00270d97|c6dd08df] (35+16/51) Accurately ripped
Track Peak [ CRC32  ] [W/O NULL] [  LOG   ]
 --  100,0 [8639B6BE] [E16CBE36]
 01   99,5 [E0ECF64D] [B9D540FA]   CRC32
 02  100,0 [A068ADC8] [D9D9BB0B]   CRC32
 03   99,0 [F490EAC0] [2638BF69]   CRC32
 04  100,0 [D4BE04D8] [27C39D28]   CRC32
 05   99,0 [D01F5740] [3741F7B1]   CRC32
 06   99,4 [607F488A] [F1599B1F]   CRC32
 07  100,0 [6B997DEC] [2112970C]   CRC32
 08   99,1 [3C344732] [560308B8]   CRC32
 09   99,0 [749427CE] [C195BBEE]   CRC32
 10   99,6 [299F6EC2] [B0AB4BE7]   CRC32
 11   99,0 [17D10FAB] [B21D42F0]   CRC32
 12   99,9 [A722D80D] [CC0CA746]   CRC32
 13   99,0 [E52CD59C] [70468CCF]   CRC32
 14   99,9 [5CF1BF9A] [10EF7772]   CRC32
 15   99,2 [F78F794F] [8FBE031C]   CRC32
 16   99,2 [48FAC4C3] [C9E608E3]   CRC32
 17   99,3 [ACCA6F3B] [9C214A4B]   CRC32
 18   99,0 [2A0C7E12] [68F5B85A]   CRC32
#777Треклист:
Wolfgang Petry - "Egal" (1995)
Tracks: 11
Total time: 40:46
Year: 1995
Disc-ID: folk / 8409920b
1. Scheissegal (Radio Version) 3:09
2. Ich will und ich will Dich 3:58
3. Bronze, Silber und Gold (Radio Version) 3:16
4. Nur für Dich will ich da sein 3:45
5. Ohne Dich bin ich verloren 3:10
6. Keine hat mehr wie Du 3:08
7. Einmal noch 3:52
8. Und das alles wegen Dir 4:01
9. So schwer war's noch nie 4:13
10. Verlass' mich nicht 4:45
11. Vielleicht denkst Du nochmal drüber nach 3:29
Код:
Exact Audio Copy V1.0 beta 3 from 29. August 2011
EAC extraction logfile from 30. December 2013, 21:08
Wolfgang Petry / Egal
Used drive  : PLEXTOR CD-R   PX-W4012A   Adapter: 2  ID: 0
Read mode               : Secure
Utilize accurate stream : Yes
Defeat audio cache      : Yes
Make use of C2 pointers : No
Read offset correction                      : 98
Overread into Lead-In and Lead-Out          : No
Fill up missing offset samples with silence : Yes
Delete leading and trailing silent blocks   : No
Null samples used in CRC calculations       : Yes
Used interface                              : Native Win32 interface for Win NT & 2000
Gap handling                                : Appended to previous track
Used output format              : User Defined Encoder
Selected bitrate                : 1024 kBit/s
Quality                         : High
Add ID3 tag                     : No
Command line compressor         : C:\Program Files (x86)\Exact Audio Copy\Flac\flac.exe
Additional command line options : -V -8 -T "Genre=%genre%" -T "Artist=%artist%" -T "Title=%title%" -T "Album=%albumtitle%" -T "Date=%year%" -T "Tracknumber=%tracknr%" -T "Comment=%comment%" %source%
TOC of the extracted CD
     Track |   Start  |  Length  | Start sector | End sector
    ---------------------------------------------------------
        1  |  0:00.32 |  3:09.13 |        32    |    14219
        2  |  3:09.45 |  3:58.15 |     14220    |    32084
        3  |  7:07.60 |  3:16.42 |     32085    |    46826
        4  | 10:24.27 |  3:45.55 |     46827    |    63756
        5  | 14:10.07 |  3:10.35 |     63757    |    78041
        6  | 17:20.42 |  3:08.40 |     78042    |    92181
        7  | 20:29.07 |  3:52.60 |     92182    |   109641
        8  | 24:21.67 |  4:01.15 |    109642    |   127731
        9  | 28:23.07 |  4:13.50 |    127732    |   146756
       10  | 32:36.57 |  4:45.00 |    146757    |   168131
       11  | 37:21.57 |  3:28.50 |    168132    |   183781
Track  1
     Filename C:\H\Wolfgang Petry\Wolfgang Petry - Egal\01 Scheissegal (Radio Version).wav
     Pre-gap length  0:00:02.32
     Peak level 99.0 %
     Extraction speed 7.1 X
     Track quality 100.0 %
     Test CRC 1B553B2F
     Copy CRC 1B553B2F
     Accurately ripped (confidence 4)  [926EFA17]  (AR v2)
     Copy OK
Track  2
     Filename C:\H\Wolfgang Petry\Wolfgang Petry - Egal\02 Ich will und ich will Dich.wav
     Pre-gap length  0:00:01.33
     Peak level 99.0 %
     Extraction speed 7.8 X
     Track quality 100.0 %
     Test CRC 123A3930
     Copy CRC 123A3930
     Accurately ripped (confidence 4)  [F11355CD]  (AR v2)
     Copy OK
Track  3
     Filename C:\H\Wolfgang Petry\Wolfgang Petry - Egal\03 Bronze, Silber und Gold (Radio Version).wav
     Pre-gap length  0:00:01.08
     Peak level 99.0 %
     Extraction speed 7.2 X
     Track quality 99.9 %
     Test CRC 3E89433F
     Copy CRC 3E89433F
     Accurately ripped (confidence 4)  [1BF5130A]  (AR v2)
     Copy OK
Track  4
     Filename C:\H\Wolfgang Petry\Wolfgang Petry - Egal\04 Nur fuer Dich will ich da sein.wav
     Pre-gap length  0:00:01.30
     Peak level 99.0 %
     Extraction speed 7.9 X
     Track quality 99.9 %
     Test CRC AC58B98D
     Copy CRC AC58B98D
     Accurately ripped (confidence 4)  [8D15B7C9]  (AR v2)
     Copy OK
Track  5
     Filename C:\H\Wolfgang Petry\Wolfgang Petry - Egal\05 Ohne Dich bin ich verloren.wav
     Pre-gap length  0:00:01.32
     Peak level 99.0 %
     Extraction speed 9.2 X
     Track quality 100.0 %
     Test CRC 7B4302FA
     Copy CRC 7B4302FA
     Accurately ripped (confidence 4)  [7116A6A5]  (AR v2)
     Copy OK
Track  6
     Filename C:\H\Wolfgang Petry\Wolfgang Petry - Egal\06 Keine hat mehr wie Du.wav
     Pre-gap length  0:00:00.59
     Peak level 99.0 %
     Extraction speed 8.2 X
     Track quality 99.9 %
     Test CRC B4BC308E
     Copy CRC B4BC308E
     Accurately ripped (confidence 4)  [31B8175D]  (AR v2)
     Copy OK
Track  7
     Filename C:\H\Wolfgang Petry\Wolfgang Petry - Egal\07 Einmal noch.wav
     Pre-gap length  0:00:01.59
     Peak level 99.0 %
     Extraction speed 10.1 X
     Track quality 100.0 %
     Test CRC 038132CF
     Copy CRC 038132CF
     Accurately ripped (confidence 4)  [3A7E6AE9]  (AR v2)
     Copy OK
Track  8
     Filename C:\H\Wolfgang Petry\Wolfgang Petry - Egal\08 Und das alles wegen Dir.wav
     Pre-gap length  0:00:01.13
     Peak level 99.0 %
     Extraction speed 10.6 X
     Track quality 100.0 %
     Test CRC BC0414DD
     Copy CRC BC0414DD
     Accurately ripped (confidence 4)  [DA344C4B]  (AR v2)
     Copy OK
Track  9
     Filename C:\H\Wolfgang Petry\Wolfgang Petry - Egal\09 So schwer war's noch nie.wav
     Pre-gap length  0:00:01.65
     Peak level 99.0 %
     Extraction speed 10.9 X
     Track quality 100.0 %
     Test CRC 4A6E645E
     Copy CRC 4A6E645E
     Accurately ripped (confidence 4)  [672E6B15]  (AR v2)
     Copy OK
Track 10
     Filename C:\H\Wolfgang Petry\Wolfgang Petry - Egal\10 Verlass' mich nicht.wav
     Pre-gap length  0:00:01.62
     Peak level 99.0 %
     Extraction speed 11.6 X
     Track quality 100.0 %
     Test CRC E02F6098
     Copy CRC E02F6098
     Accurately ripped (confidence 4)  [FD2A6C26]  (AR v2)
     Copy OK
Track 11
     Filename C:\H\Wolfgang Petry\Wolfgang Petry - Egal\11 Vielleicht denkst Du nochmal drueber nach.wav
     Pre-gap length  0:00:01.58
     Peak level 99.0 %
     Extraction speed 10.1 X
     Track quality 100.0 %
     Test CRC C2596760
     Copy CRC C2596760
     Accurately ripped (confidence 3)  [13AF4055]  (AR v2)
     Copy OK
All tracks accurately ripped
No errors occurred
End of status report
==== Log checksum C147FF3F0ABAF00F9F61E9E4C84DF72B3F871FEB87509D33004850EA47FBE5AF ====
Код:
REM GENRE Pop
REM DATE 1995
REM DISCID 8409920B
REM COMMENT "ExactAudioCopy v1.0b3"
PERFORMER "Wolfgang Petry"
TITLE "Egal"
FILE "01 Scheissegal (Radio Version).wav" WAVE
  TRACK 01 AUDIO
    TITLE "Scheissegal (Radio Version)"
    PERFORMER "Wolfgang Petry"
    PREGAP 00:00:32
    INDEX 01 00:00:00
  TRACK 02 AUDIO
    TITLE "Ich will und ich will Dich"
    PERFORMER "Wolfgang Petry"
    INDEX 00 03:07:55
FILE "02 Ich will und ich will Dich.wav" WAVE
    INDEX 01 00:00:00
  TRACK 03 AUDIO
    TITLE "Bronze, Silber und Gold (Radio Version)"
    PERFORMER "Wolfgang Petry"
    INDEX 00 03:57:07
FILE "03 Bronze, Silber und Gold (Radio Version).wav" WAVE
    INDEX 01 00:00:00
  TRACK 04 AUDIO
    TITLE "Nur fuer Dich will ich da sein"
    PERFORMER "Wolfgang Petry"
    INDEX 00 03:15:12
FILE "04 Nur fuer Dich will ich da sein.wav" WAVE
    INDEX 01 00:00:00
  TRACK 05 AUDIO
    TITLE "Ohne Dich bin ich verloren"
    PERFORMER "Wolfgang Petry"
    INDEX 00 03:44:23
FILE "05 Ohne Dich bin ich verloren.wav" WAVE
    INDEX 01 00:00:00
  TRACK 06 AUDIO
    TITLE "Keine hat mehr wie Du"
    PERFORMER "Wolfgang Petry"
    INDEX 00 03:09:51
FILE "06 Keine hat mehr wie Du.wav" WAVE
    INDEX 01 00:00:00
  TRACK 07 AUDIO
    TITLE "Einmal noch"
    PERFORMER "Wolfgang Petry"
    INDEX 00 03:06:56
FILE "07 Einmal noch.wav" WAVE
    INDEX 01 00:00:00
  TRACK 08 AUDIO
    TITLE "Und das alles wegen Dir"
    PERFORMER "Wolfgang Petry"
    INDEX 00 03:51:47
FILE "08 Und das alles wegen Dir.wav" WAVE
    INDEX 01 00:00:00
  TRACK 09 AUDIO
    TITLE "So schwer war's noch nie"
    PERFORMER "Wolfgang Petry"
    INDEX 00 03:59:25
FILE "09 So schwer war's noch nie.wav" WAVE
    INDEX 01 00:00:00
  TRACK 10 AUDIO
    TITLE "Verlass' mich nicht"
    PERFORMER "Wolfgang Petry"
    INDEX 00 04:11:63
FILE "10 Verlass' mich nicht.wav" WAVE
    INDEX 01 00:00:00
  TRACK 11 AUDIO
    TITLE "Vielleicht denkst Du nochmal drueber nach"
    PERFORMER "Wolfgang Petry"
    INDEX 00 04:43:17
FILE "11 Vielleicht denkst Du nochmal drueber nach.wav" WAVE
    INDEX 01 00:00:00
Код:
[CUETools log; Date: 30.12.2013 21:09:28; Version: 2.1.5]
Pregap length 00:00:32.
[CTDB TOCID: 0qaaJ_hM4TGw4__F04hO_nhBA.Y-] found.
Track | CTDB Status
  1   | (1/1) Accurately ripped
  2   | (1/1) Accurately ripped
  3   | (1/1) Accurately ripped
  4   | (1/1) Accurately ripped
  5   | (1/1) Accurately ripped
  6   | (1/1) Accurately ripped
  7   | (1/1) Accurately ripped
  8   | (1/1) Accurately ripped
  9   | (1/1) Accurately ripped
 10   | (1/1) Accurately ripped
 11   | (1/1) Accurately ripped
[AccurateRip ID: 00103916-008dcea4-8409920b] found.
Track   [  CRC   |   V2   ] Status
 01     [bedd796d|926efa17] (12+04/16) Accurately ripped
 02     [89504cf4|f11355cd] (12+04/16) Accurately ripped
 03     [b6cee8d1|1bf5130a] (11+04/15) Accurately ripped
 04     [3fbe66b9|8d15b7c9] (11+04/15) Accurately ripped
 05     [97910b91|7116a6a5] (11+04/15) Accurately ripped
 06     [9d6c9c56|31b8175d] (11+04/15) Accurately ripped
 07     [27c7a81f|3a7e6ae9] (11+04/15) Accurately ripped
 08     [f258190f|da344c4b] (11+04/15) Accurately ripped
 09     [a8742942|672e6b15] (11+04/15) Accurately ripped
 10     [eca3b376|fd2a6c26] (10+04/14) Accurately ripped
 11     [afcad7ea|13af4055] (11+03/14) Accurately ripped
Track Peak [ CRC32  ] [W/O NULL] [  LOG   ]
 --   99,0 [2349C767] [ACADF4E7]
 01   99,0 [1B553B2F] [78DDB063]   CRC32
 02   99,0 [123A3930] [B300AAE9]   CRC32
 03   99,0 [3E89433F] [3D15DFC4]   CRC32
 04   99,0 [AC58B98D] [F9E3D071]   CRC32
 05   99,0 [7B4302FA] [17644866]   CRC32
 06   99,0 [B4BC308E] [DBABA5BF]   CRC32
 07   99,0 [038132CF] [9D724ECA]   CRC32
 08   99,0 [BC0414DD] [16CCE964]   CRC32
 09   99,0 [4A6E645E] [BA7E803C]   CRC32
 10   99,0 [E02F6098] [2009714A]   CRC32
 11   99,0 [C2596760] [CC7FED78]   CRC32
#777Треклист:
Wolfgang Petry - "Manche mögen's heiss" (1988)
Tracks: 12
Total time: 41:35
Year: 1988
Disc-ID: misc / a409c40c
1. Liebe für eine Nacht 3:46
2. Noah 3:34
3. Früher 3:23
4. Tu was 3:25
5. Einmal mit dir 4:45
6. Manche mögen's heiss 5:08
7. Nur ein kleines Stück Papier 3:36
8. Herzlichen Glückwunsch 3:49
9. Viele kleine Wunder 1:08
10. ... voller Seligkeit 2:59
11. Save The World With Love 2:26
12. Fliegen ist schöner 3:36
Код:
Exact Audio Copy V1.0 beta 3 from 29. August 2011
EAC extraction logfile from 7. December 2013, 17:19
Wolfgang Petry / Manche moegen's heiss
Used drive  : PLEXTOR CD-R   PX-W4012A   Adapter: 2  ID: 0
Read mode               : Secure
Utilize accurate stream : Yes
Defeat audio cache      : Yes
Make use of C2 pointers : No
Read offset correction                      : 98
Overread into Lead-In and Lead-Out          : No
Fill up missing offset samples with silence : Yes
Delete leading and trailing silent blocks   : No
Null samples used in CRC calculations       : Yes
Used interface                              : Native Win32 interface for Win NT & 2000
Gap handling                                : Appended to previous track
Used output format              : User Defined Encoder
Selected bitrate                : 1024 kBit/s
Quality                         : High
Add ID3 tag                     : No
Command line compressor         : C:\Program Files (x86)\Exact Audio Copy\Flac\flac.exe
Additional command line options : -V -8 -T "Genre=%genre%" -T "Artist=%artist%" -T "Title=%title%" -T "Album=%albumtitle%" -T "Date=%year%" -T "Tracknumber=%tracknr%" -T "Comment=%comment%" %source%
TOC of the extracted CD
     Track |   Start  |  Length  | Start sector | End sector
    ---------------------------------------------------------
        1  |  0:00.00 |  3:46.42 |         0    |    16991
        2  |  3:46.42 |  3:34.05 |     16992    |    33046
        3  |  7:20.47 |  3:23.58 |     33047    |    48329
        4  | 10:44.30 |  3:25.47 |     48330    |    63751
        5  | 14:10.02 |  4:45.08 |     63752    |    85134
        6  | 18:55.10 |  5:08.32 |     85135    |   108266
        7  | 24:03.42 |  3:36.53 |    108267    |   124519
        8  | 27:40.20 |  3:49.02 |    124520    |   141696
        9  | 31:29.22 |  1:08.63 |    141697    |   146859
       10  | 32:38.10 |  2:59.45 |    146860    |   160329
       11  | 35:37.55 |  2:26.20 |    160330    |   171299
       12  | 38:04.00 |  3:36.37 |    171300    |   187536
Track  1
     Filename C:\H\Wolfgang Petry\Wolfgang Petry - Manche moegen's heiss [FLAC] {1988}\01 Liebe fuer eine Nacht.wav
     Pre-gap length  0:00:02.00
     Peak level 91.5 %
     Extraction speed 7.1 X
     Track quality 100.0 %
     Test CRC 08842DC6
     Copy CRC 08842DC6
     Accurately ripped (confidence 2)  [5D560AD7]  (AR v2)
     Copy OK
Track  2
     Filename C:\H\Wolfgang Petry\Wolfgang Petry - Manche moegen's heiss [FLAC] {1988}\02 Noah.wav
     Pre-gap length  0:00:00.02
     Peak level 70.2 %
     Extraction speed 7.8 X
     Track quality 100.0 %
     Test CRC 113C6910
     Copy CRC 113C6910
     Accurately ripped (confidence 2)  [A7521476]  (AR v2)
     Copy OK
Track  3
     Filename C:\H\Wolfgang Petry\Wolfgang Petry - Manche moegen's heiss [FLAC] {1988}\03 Frueher.wav
     Pre-gap length  0:00:01.35
     Peak level 86.5 %
     Extraction speed 8.3 X
     Track quality 100.0 %
     Test CRC 2A43F7B6
     Copy CRC 2A43F7B6
     Accurately ripped (confidence 2)  [D77C978A]  (AR v2)
     Copy OK
Track  4
     Filename C:\H\Wolfgang Petry\Wolfgang Petry - Manche moegen's heiss [FLAC] {1988}\04 Tu was.wav
     Pre-gap length  0:00:01.74
     Peak level 74.6 %
     Extraction speed 8.8 X
     Track quality 100.0 %
     Test CRC 3599D18C
     Copy CRC 3599D18C
     Accurately ripped (confidence 2)  [0761AF72]  (AR v2)
     Copy OK
Track  5
     Filename C:\H\Wolfgang Petry\Wolfgang Petry - Manche moegen's heiss [FLAC] {1988}\05 Einmal mit dir.wav
     Pre-gap length  0:00:01.72
     Peak level 78.9 %
     Extraction speed 9.5 X
     Track quality 100.0 %
     Test CRC EE053579
     Copy CRC EE053579
     Accurately ripped (confidence 2)  [80743819]  (AR v2)
     Copy OK
Track  6
     Filename C:\H\Wolfgang Petry\Wolfgang Petry - Manche moegen's heiss [FLAC] {1988}\06 Manche moegen's heiss.wav
     Pre-gap length  0:00:00.73
     Peak level 89.1 %
     Extraction speed 9.2 X
     Track quality 99.9 %
     Test CRC B6264545
     Copy CRC B6264545
     Accurately ripped (confidence 2)  [2307ACB9]  (AR v2)
     Copy OK
Track  7
     Filename C:\H\Wolfgang Petry\Wolfgang Petry - Manche moegen's heiss [FLAC] {1988}\07 Nur ein kleines Stueck Papier.wav
     Pre-gap length  0:00:00.02
     Peak level 82.6 %
     Extraction speed 10.4 X
     Track quality 100.0 %
     Test CRC 86FE89BC
     Copy CRC 86FE89BC
     Accurately ripped (confidence 2)  [F9879866]  (AR v2)
     Copy OK
Track  8
     Filename C:\H\Wolfgang Petry\Wolfgang Petry - Manche moegen's heiss [FLAC] {1988}\08 Herzlichen Glueckwunsch.wav
     Pre-gap length  0:00:00.03
     Peak level 81.1 %
     Extraction speed 11.0 X
     Track quality 100.0 %
     Test CRC 7656BDB1
     Copy CRC 7656BDB1
     Accurately ripped (confidence 2)  [0DBEA456]  (AR v2)
     Copy OK
Track  9
     Filename C:\H\Wolfgang Petry\Wolfgang Petry - Manche moegen's heiss [FLAC] {1988}\09 Viele kleine Wunder.wav
     Pre-gap length  0:00:00.02
     Peak level 66.5 %
     Extraction speed 10.0 X
     Track quality 100.0 %
     Test CRC FEE7F41E
     Copy CRC FEE7F41E
     Accurately ripped (confidence 2)  [B69C7C2E]  (AR v2)
     Copy OK
Track 10
     Filename C:\H\Wolfgang Petry\Wolfgang Petry - Manche moegen's heiss [FLAC] {1988}\10 ... voller Seligkeit.wav
     Pre-gap length  0:00:00.03
     Peak level 67.8 %
     Extraction speed 9.5 X
     Track quality 99.9 %
     Test CRC 49F9C3F7
     Copy CRC 49F9C3F7
     Accurately ripped (confidence 2)  [36DA2556]  (AR v2)
     Copy OK
Track 11
     Filename C:\H\Wolfgang Petry\Wolfgang Petry - Manche moegen's heiss [FLAC] {1988}\11 Save The World With Love.wav
     Pre-gap length  0:00:00.03
     Peak level 62.4 %
     Extraction speed 11.2 X
     Track quality 100.0 %
     Test CRC 0E76F908
     Copy CRC 0E76F908
     Accurately ripped (confidence 2)  [A5727460]  (AR v2)
     Copy OK
Track 12
     Filename C:\H\Wolfgang Petry\Wolfgang Petry - Manche moegen's heiss [FLAC] {1988}\12 Fliegen ist schoener.wav
     Pre-gap length  0:00:00.03
     Peak level 91.9 %
     Extraction speed 8.4 X
     Track quality 99.9 %
     Test CRC A6476536
     Copy CRC A6476536
     Accurately ripped (confidence 2)  [DC8986C1]  (AR v2)
     Copy OK
All tracks accurately ripped
No errors occurred
End of status report
==== Log checksum 9432AA2A7A99AE92BC921FA02E0684F9DBD7E50D2689E8897F12629314738C72 ====
Код:
REM GENRE "Deutscher Schlager"
REM DATE 1988
REM DISCID A409C40C
REM COMMENT "ExactAudioCopy v1.0b3"
PERFORMER "Wolfgang Petry"
TITLE "Manche moegen's heiss"
FILE "01 Liebe fuer eine Nacht.wav" WAVE
  TRACK 01 AUDIO
    TITLE "Liebe fuer eine Nacht"
    PERFORMER "Wolfgang Petry"
    INDEX 01 00:00:00
  TRACK 02 AUDIO
    TITLE "Noah"
    PERFORMER "Wolfgang Petry"
    INDEX 00 03:46:40
FILE "02 Noah.wav" WAVE
    INDEX 01 00:00:00
  TRACK 03 AUDIO
    TITLE "Frueher"
    PERFORMER "Wolfgang Petry"
    INDEX 00 03:32:45
FILE "03 Frueher.wav" WAVE
    INDEX 01 00:00:00
  TRACK 04 AUDIO
    TITLE "Tu was"
    PERFORMER "Wolfgang Petry"
    INDEX 00 03:21:59
FILE "04 Tu was.wav" WAVE
    INDEX 01 00:00:00
  TRACK 05 AUDIO
    TITLE "Einmal mit dir"
    PERFORMER "Wolfgang Petry"
    INDEX 00 03:23:50
FILE "05 Einmal mit dir.wav" WAVE
    INDEX 01 00:00:00
  TRACK 06 AUDIO
    TITLE "Manche moegen's heiss"
    PERFORMER "Wolfgang Petry"
    INDEX 00 04:44:10
FILE "06 Manche moegen's heiss.wav" WAVE
    INDEX 01 00:00:00
  TRACK 07 AUDIO
    TITLE "Nur ein kleines Stueck Papier"
    PERFORMER "Wolfgang Petry"
    INDEX 00 05:08:30
FILE "07 Nur ein kleines Stueck Papier.wav" WAVE
    INDEX 01 00:00:00
  TRACK 08 AUDIO
    TITLE "Herzlichen Glueckwunsch"
    PERFORMER "Wolfgang Petry"
    INDEX 00 03:36:50
FILE "08 Herzlichen Glueckwunsch.wav" WAVE
    INDEX 01 00:00:00
  TRACK 09 AUDIO
    TITLE "Viele kleine Wunder"
    PERFORMER "Wolfgang Petry"
    INDEX 00 03:49:00
FILE "09 Viele kleine Wunder.wav" WAVE
    INDEX 01 00:00:00
  TRACK 10 AUDIO
    TITLE "... voller Seligkeit"
    PERFORMER "Wolfgang Petry"
    INDEX 00 01:08:60
FILE "10 ... voller Seligkeit.wav" WAVE
    INDEX 01 00:00:00
  TRACK 11 AUDIO
    TITLE "Save The World With Love"
    PERFORMER "Wolfgang Petry"
    INDEX 00 02:59:42
FILE "11 Save The World With Love.wav" WAVE
    INDEX 01 00:00:00
  TRACK 12 AUDIO
    TITLE "Fliegen ist schoener"
    PERFORMER "Wolfgang Petry"
    INDEX 00 02:26:17
FILE "12 Fliegen ist schoener.wav" WAVE
    INDEX 01 00:00:00
Код:
[CUETools log; Date: 07.12.2013 17:21:14; Version: 2.1.5]
[CTDB TOCID: CHhetSyfeL3YKxMtNOLsqOGE1qE-] found.
Track | CTDB Status
  1   | (2/2) Accurately ripped
  2   | (2/2) Accurately ripped
  3   | (2/2) Accurately ripped
  4   | (2/2) Accurately ripped
  5   | (2/2) Accurately ripped
  6   | (2/2) Accurately ripped
  7   | (2/2) Accurately ripped
  8   | (2/2) Accurately ripped
  9   | (2/2) Accurately ripped
 10   | (2/2) Accurately ripped
 11   | (2/2) Accurately ripped
 12   | (2/2) Accurately ripped
[AccurateRip ID: 0013a657-00b5bfd9-a409c40c] found.
Track   [  CRC   |   V2   ] Status
 01     [7c29658f|5d560ad7] (3+2/5) Accurately ripped
 02     [c0f9f5ce|a7521476] (3+2/5) Accurately ripped
 03     [fe1fb38f|d77c978a] (4+2/6) Accurately ripped
 04     [a852fd4a|0761af72] (3+2/5) Accurately ripped
 05     [6f00f3d2|80743819] (4+2/6) Accurately ripped
 06     [3b5a2311|2307acb9] (3+2/5) Accurately ripped
 07     [7a78a48f|f9879866] (3+2/5) Accurately ripped
 08     [b53b4929|0dbea456] (4+2/6) Accurately ripped
 09     [dfd13ccd|b69c7c2e] (3+2/5) Accurately ripped
 10     [d9d1df1e|36da2556] (3+2/5) Accurately ripped
 11     [531ad0d7|a5727460] (3+2/5) Accurately ripped
 12     [7048a33f|dc8986c1] (3+2/5) Accurately ripped
Track Peak [ CRC32  ] [W/O NULL] [  LOG   ]
 --   91,9 [54740BD6] [3229203E]
 01   91,5 [08842DC6] [6E1A1953]   CRC32
 02   70,2 [113C6910] [AA97C56E]   CRC32
 03   86,5 [2A43F7B6] [FCB8D544]   CRC32
 04   74,6 [3599D18C] [E0C03AC7]   CRC32
 05   78,9 [EE053579] [F849FCB7]   CRC32
 06   89,1 [B6264545] [8FD4E9A7]   CRC32
 07   82,6 [86FE89BC] [F9258578]   CRC32
 08   81,1 [7656BDB1] [60AAC43E]   CRC32
 09   66,5 [FEE7F41E] [B565D867]   CRC32
 10   67,8 [49F9C3F7] [44385D9F]   CRC32
 11   62,4 [0E76F908] [AACE95F5]   CRC32
 12   91,9 [A6476536] [EDEF39AA]   CRC32
Продолжение ниже
Правила, инструкции, FAQ!!!
Торрент  Добавлен [26 мар 2019, 20:50] Скачать торрент Магнет ссылка
Скачать торрент
[ Размер 117.93 КБ / Просмотров 0 ]

Статус
Проверен 
 
Размер  8.99 ГБ
Приватный: Нет (DHT включён)
.torrent скачан  0
 


     Отправить личное сообщение
   
Страница 1 из 1
Показать сообщения за:  Поле сортировки  
Начать новую тему Ответить на тему


Сейчас этот форум просматривают: нет зарегистрированных пользователей и гости: 0


Вы не можете начинать темы
Вы не можете отвечать на сообщения
Вы не можете редактировать свои сообщения
Вы не можете удалять свои сообщения
Вы не можете добавлять вложения

Перейти:  
cron