Начать новую тему Ответить на тему
Статистика раздачи
Размер: 355.52 МБ | Добавлен: 01 янв 2020, 22:54 | Скачали: 0
Сидеров: 0  [0 байт/сек]    Личеров: 1  [0 байт/сек]
Пред. тема | След. тема 

Автор
Сообщение

СообщениеДобавлено: 01 янв 2020, 22:54 

Ответить с цитатой 

Salvatore Adamo - La Part De L`ange (Polydor)
Жанр: Pop
Год выпуска диска: 2007
Производитель диска: France
Аудио кодек: APE
Тип рипа: image+.cue
Битрейт аудио: lossless
Продолжительность: 00:58:13
Трэклист:
01. Fleur
02. La Part De L'ange
03. Au Cafe Du Temps Perdu
04. Le Bien Que Tu Me Fais
05. Ce George(S) (En Duo Avec Olivia Ruiz)
06. Le Feminin Sacre
07. La Couleur Du Vent
08. Mille Ans Deja
09. On N'peut Pas S'quitter
10. Mon Agenda (Comment Veux-Tu Que Je T'oublie)
11. Lache Pas Ton Reve
12. Vers Toi
13. Toutes Seules
14. La Ou Mon Cur Me Porte
Exact Audio Copy V0.99 prebeta 4 from 23. January 2008
Отчёт EAC об извлечении, выполненном 7. сентября 2008, 15:34
Salvatore Adamo / La Part de l'Ange
Дисковод: Optiarc DVD RW AD-7170S Adapter: 3 ID: 2
Режим чтения : Достоверность
Использование точного потока : Да
Отключение кэша аудио : Да
Использование указателей C2 : Нет
Коррекция смещения при чтении : 48
Способность читать области Lead-in и Lead-out : Нет
Заполнение пропущенных сэмплов тишиной : Да
Удаление блоков с тишиной в начале и конце : Нет
При вычислениях CRC использовались нулевые сэмплы : Да
Интерфейс : Встроенный Win32-интерфейс для Win NT/2000
Выходной формат : Внутренние WAV-операции
Формат сэмплов : 44.100 Гц; 16 бит; стерео
TOC извлечённого CD
Трек | Старт | Длительность | Начальный сектор | Конечный сектор
---------------------------------------------------------------------
1 | 0:00.00 | 4:58.20 | 0 | 22369
2 | 4:58.20 | 3:20.46 | 22370 | 37415
3 | 8:18.66 | 4:23.65 | 37416 | 57205
4 | 12:42.56 | 3:24.73 | 57206 | 72578
5 | 16:07.54 | 3:26.07 | 72579 | 88035
6 | 19:33.61 | 3:38.71 | 88036 | 104456
7 | 23:12.57 | 3:33.56 | 104457 | 120487
8 | 26:46.38 | 3:36.38 | 120488 | 136725
9 | 30:23.01 | 4:39.46 | 136726 | 157696
10 | 35:02.47 | 4:27.13 | 157697 | 177734
11 | 39:29.60 | 3:04.42 | 177735 | 191576
12 | 42:34.27 | 4:57.31 | 191577 | 213882
13 | 47:31.58 | 5:47.38 | 213883 | 239945
14 | 53:19.21 | 4:53.57 | 239946 | 261977
Характеристики диапазона извлечения и сообщения об ошибках
Выбранный диапазон
Имя файла D:\Salvatore Adamo - La Part de l'Ange.wav
Пиковый уровень 100.0 %
Качество диапазона 100.0 %
CRC копии 8FCD4C15
Копирование... OK
Ошибок не произошло
Конец отчёта
Правила, инструкции, FAQ!!!
Торрент  Добавлен [01 янв 2020, 22:54] Скачать торрент Магнет ссылка
Скачать торрент
[ Размер 28.39 КБ / Просмотров 4 ]

Статус
Проверен 
 
Размер  355.52 МБ
Приватный: Нет (DHT включён)
.torrent скачан  0
 


     Отправить личное сообщение
   
Страница 1 из 1
Показать сообщения за:  Поле сортировки  
Начать новую тему Ответить на тему


Сейчас этот форум просматривают: нет зарегистрированных пользователей и гости: 0


Вы не можете начинать темы
Вы не можете отвечать на сообщения
Вы не можете редактировать свои сообщения
Вы не можете удалять свои сообщения
Вы не можете добавлять вложения

Перейти:  
cron