Начать новую тему Ответить на тему
Статистика раздачи
Размер: 126.36 МБ | Добавлен: 26 мар 2019, 20:49 | Скачали: 0
Сидеров: 4  [0 байт/сек]    Личеров: 1  [0 байт/сек]
Пред. тема | След. тема 

Автор
Сообщение

СообщениеДобавлено: 26 мар 2019, 20:49 

Ответить с цитатой 

Roxette - Spending My Time (UK CDM)
Жанр: Pop
Год выпуска диска: 1991
Производитель диска: UK
Аудио кодек: APE
Тип рипа: image+.cue
Битрейт аудио: lossless
Продолжительность: 00:19:02
Трэклист:
1 Spending My Time
2 The Sweet Hello, The Sad Goodbye
3 Spending My Time (Electric Dance Remix)
4 Listen To Your Heart (7" Edit)
Доп. информация:
Копия фирменного диска из моей коллекции.
Полная подборка сканов внутри раздачи.
Код:
Exact Audio Copy V0.99 prebeta 3 from 28. July 2007
Отчёт EAC об извлечении, выполненном 26. мая 2009, 21:23
Roxette / Spending My Time (Single)
Дисковод: PIONEER DVD-RW  DVR-112D   Adapter: 1  ID: 0
Режим чтения                 : Достоверность
Использование точного потока : Да
Отключение кэша аудио        : Да
Использование указателей C2  : Нет
Коррекция смещения при чтении                     : 48
Способность читать области Lead-in и Lead-out     : Нет
Заполнение пропущенных сэмплов тишиной            : Да
Удаление блоков с тишиной в начале и конце        : Нет
При вычислениях CRC использовались нулевые сэмплы : Да
Интерфейс                                         : Встроенный Win32-интерфейс для Win NT/2000
Выходной формат : Внутренние WAV-операции
Формат сэмплов  : 44.100 Гц; 16 бит; стерео
TOC извлечённого CD
     Трек |   Старт  | Длительность | Начальный сектор | Конечный сектор
    ---------------------------------------------------------------------
       1  |  0:00.33 |    4:37.17   |          33      |      20824
       2  |  4:37.50 |    4:50.48   |       20825      |      42622
       3  |  9:28.23 |    5:28.00   |       42623      |      67222
       4  | 14:56.23 |    4:06.25   |       67223      |      85697
Характеристики диапазона извлечения и сообщения об ошибках
Выбранный диапазон
     Имя файла J:\0000000000003\Roxette - 1991 - Spending My Time CD5\CDImage.wav
     Пиковый уровень 100.0 %
     Качество диапазона 99.9 %
     CRC копии 32CC37EA
     Копирование... OK
Ошибок не произошло
AccurateRip: сводка
Трек  1  нет в базе данных
Трек  2  нет в базе данных
Трек  3  нет в базе данных
Трек  4  нет в базе данных
Ни одного трека нет в базе AccurateRip
Конец отчёта
Не забываем нажать на "сказать "спасибо", а можно просто + поставить - и только после этого скачивать
и я постараюсь еще чем-нибудь вас удивить из своей коллекции фирменных дисков
Правила, инструкции, FAQ!!!
Торрент  Добавлен [26 мар 2019, 20:49] Скачать торрент Магнет ссылка
Скачать торрент
[ Размер 20.43 КБ / Просмотров 4 ]

Статус
Проверен 
 
Размер  126.36 МБ
Приватный: Нет (DHT включён)
.torrent скачан  0
 


     Отправить личное сообщение
   
Страница 1 из 1
Показать сообщения за:  Поле сортировки  
Начать новую тему Ответить на тему


Сейчас этот форум просматривают: нет зарегистрированных пользователей и гости: 0


Вы не можете начинать темы
Вы не можете отвечать на сообщения
Вы не можете редактировать свои сообщения
Вы не можете удалять свои сообщения
Вы не можете добавлять вложения

Перейти:  
cron