Начать новую тему Ответить на тему
Статистика раздачи
Размер: 223.25 МБ | Добавлен: 26 мар 2019, 19:56 | Скачали: 0
Сидеров: 0  [0 байт/сек]    Личеров: 0  [0 байт/сек]
Пред. тема | След. тема 

Автор
Сообщение

СообщениеДобавлено: 26 мар 2019, 19:56 

Ответить с цитатой 

Rúzsa Magdolna / Nélküled
(2014)

Жанр: Pop/Rock
Носитель: CD
Страна-производитель диска (релиза): Hungary
Год издания: 2014
Издатель (лейбл): Magneoton
Номер по каталогу: 5999886038915
Страна исполнителя (группы): Hungary
Аудиокодек: FLAC (*.flac)
Тип рипа: tracks+.cue
Битрейт аудио: lossless
Продолжительность: 00:33:58
Источник (релизер): Naftamusic
Наличие сканов в содержимом раздачи: да
Корректность рипа: В оригинале не было применено сжатие при конвертировании во Флак (FLAC Level 0). Для приведения в соответствие правилам пережато во FLAC Level 5 с сохранением тэгов

01 - Szerelem (00:04:04)
02 - Gábriel (00:03:57)
03 - Vigyázz a madárra (00:03:37)
04 - Most élsz (00:02:15)
05 - Nekem nem szabad (00:03:34)
06 - Csak a bolond remél (00:03:42)
07 - Aprócska blues (00:03:00)
08 - Nélküled (00:03:25)
09 - Egyszer (00:03:42)
10 - Ederlezi (00:02:41)
Код:
Exact Audio Copy V1.0 beta 3 from 29. August 2011
EAC extraction logfile from 31. July 2014, 21:56
Rúzsa Magdolna / Nélküled
Used drive  : PLEXTOR DVDR   PX-891SA   Adapter: 0  ID: 0
Read mode               : Secure
Utilize accurate stream : Yes
Defeat audio cache      : Yes
Make use of C2 pointers : No
Read offset correction                      : 6
Overread into Lead-In and Lead-Out          : No
Fill up missing offset samples with silence : Yes
Delete leading and trailing silent blocks   : No
Null samples used in CRC calculations       : Yes
Used interface                              : Native Win32 interface for Win NT & 2000
Gap handling                                : Appended to previous track
Used output format : Internal WAV Routines
Sample format      : 44.100 Hz; 16 Bit; Stereo
TOC of the extracted CD
     Track |   Start  |  Length  | Start sector | End sector
    ---------------------------------------------------------
        1  |  0:00.00 |  4:04.26 |         0    |    18325
        2  |  4:04.26 |  3:57.30 |     18326    |    36130
        3  |  8:01.56 |  3:36.44 |     36131    |    52374
        4  | 11:38.25 |  2:14.72 |     52375    |    62496
        5  | 13:53.22 |  3:34.15 |     62497    |    78561
        6  | 17:27.37 |  3:41.64 |     78562    |    95200
        7  | 21:09.26 |  2:59.64 |     95201    |   108689
        8  | 24:09.15 |  3:25.35 |    108690    |   124099
        9  | 27:34.50 |  3:42.18 |    124100    |   140767
       10  | 31:16.68 |  2:40.47 |    140768    |   152814
Track  1
     Filename E:\Nafta Releases\Rúzsa Magdolna - Nélküled (2014)[FLAC] - Naftamusic\01 - Szerelem.wav
     Pre-gap length  0:00:02.00
     Peak level 98.0 %
     Extraction speed 1.4 X
     Track quality 99.9 %
     Test CRC 265389B2
     Copy CRC 265389B2
     Track not present in AccurateRip database
     Copy OK
Track  2
     Filename E:\Nafta Releases\Rúzsa Magdolna - Nélküled (2014)[FLAC] - Naftamusic\02 - Gábriel.wav
     Pre-gap length  0:00:02.00
     Peak level 97.7 %
     Extraction speed 1.5 X
     Track quality 99.9 %
     Test CRC 7933A20A
     Copy CRC 7933A20A
     Track not present in AccurateRip database
     Copy OK
Track  3
     Filename E:\Nafta Releases\Rúzsa Magdolna - Nélküled (2014)[FLAC] - Naftamusic\03 - Vigyázz a madárra.wav
     Pre-gap length  0:00:00.62
     Peak level 99.8 %
     Extraction speed 2.2 X
     Track quality 100.0 %
     Test CRC 3FCB383C
     Copy CRC 3FCB383C
     Track not present in AccurateRip database
     Copy OK
Track  4
     Filename E:\Nafta Releases\Rúzsa Magdolna - Nélküled (2014)[FLAC] - Naftamusic\04 - Most élsz.wav
     Pre-gap length  0:00:02.00
     Peak level 100.0 %
     Extraction speed 2.1 X
     Track quality 100.0 %
     Test CRC AF03BF46
     Copy CRC AF03BF46
     Track not present in AccurateRip database
     Copy OK
Track  5
     Filename E:\Nafta Releases\Rúzsa Magdolna - Nélküled (2014)[FLAC] - Naftamusic\05 - Nekem nem szabad.wav
     Pre-gap length  0:00:02.00
     Peak level 100.0 %
     Extraction speed 2.5 X
     Track quality 100.0 %
     Test CRC E26E4502
     Copy CRC E26E4502
     Track not present in AccurateRip database
     Copy OK
Track  6
     Filename E:\Nafta Releases\Rúzsa Magdolna - Nélküled (2014)[FLAC] - Naftamusic\06 - Csak a bolond remél.wav
     Pre-gap length  0:00:02.00
     Peak level 98.0 %
     Extraction speed 2.6 X
     Track quality 100.0 %
     Test CRC 014EF0B0
     Copy CRC 014EF0B0
     Track not present in AccurateRip database
     Copy OK
Track  7
     Filename E:\Nafta Releases\Rúzsa Magdolna - Nélküled (2014)[FLAC] - Naftamusic\07 - Aprócska blues.wav
     Pre-gap length  0:00:01.59
     Peak level 100.0 %
     Extraction speed 2.6 X
     Track quality 100.0 %
     Test CRC 2CA46F39
     Copy CRC 2CA46F39
     Track not present in AccurateRip database
     Copy OK
Track  8
     Filename E:\Nafta Releases\Rúzsa Magdolna - Nélküled (2014)[FLAC] - Naftamusic\08 - Nélküled.wav
     Pre-gap length  0:00:02.00
     Peak level 97.2 %
     Extraction speed 2.8 X
     Track quality 100.0 %
     Test CRC 2C434A82
     Copy CRC 2C434A82
     Track not present in AccurateRip database
     Copy OK
Track  9
     Filename E:\Nafta Releases\Rúzsa Magdolna - Nélküled (2014)[FLAC] - Naftamusic\09 - Egyszer.wav
     Pre-gap length  0:00:02.00
     Peak level 98.0 %
     Extraction speed 3.0 X
     Track quality 100.0 %
     Test CRC 53666AD8
     Copy CRC 53666AD8
     Track not present in AccurateRip database
     Copy OK
Track 10
     Filename E:\Nafta Releases\Rúzsa Magdolna - Nélküled (2014)[FLAC] - Naftamusic\10 - Ederlezi.wav
     Pre-gap length  0:00:02.00
     Peak level 98.8 %
     Extraction speed 2.9 X
     Track quality 100.0 %
     Test CRC 813D3A54
     Copy CRC 813D3A54
     Track not present in AccurateRip database
     Copy OK
None of the tracks are present in the AccurateRip database
No errors occurred
End of status report
==== Log checksum 4478450E3A2806F3ED7D1835F5178265E73F90F53EBC40CC8C0EBEF066C7C5D4 ====
Код:
REM GENRE Pop
REM DATE 2014
REM DISCID 8207F50A
REM COMMENT "ExactAudioCopy v1.0b3"
FILE "01 - Szerelem.wav" WAVE
  TRACK 01 AUDIO
    INDEX 01 00:00:00
  TRACK 02 AUDIO
    INDEX 00 04:02:26
FILE "02 - Gábriel.wav" WAVE
    INDEX 01 00:00:00
  TRACK 03 AUDIO
    INDEX 00 03:56:43
FILE "03 - Vigyázz a madárra.wav" WAVE
    INDEX 01 00:00:00
  TRACK 04 AUDIO
    INDEX 00 03:34:44
FILE "04 - Most élsz.wav" WAVE
    INDEX 01 00:00:00
  TRACK 05 AUDIO
    INDEX 00 02:12:72
FILE "05 - Nekem nem szabad.wav" WAVE
    INDEX 01 00:00:00
  TRACK 06 AUDIO
    INDEX 00 03:32:15
FILE "06 - Csak a bolond remél.wav" WAVE
    INDEX 01 00:00:00
  TRACK 07 AUDIO
    INDEX 00 03:40:05
FILE "07 - Aprócska blues.wav" WAVE
    INDEX 01 00:00:00
  TRACK 08 AUDIO
    INDEX 00 02:57:64
FILE "08 - Nélküled.wav" WAVE
    INDEX 01 00:00:00
  TRACK 09 AUDIO
    INDEX 00 03:23:35
FILE "09 - Egyszer.wav" WAVE
    INDEX 01 00:00:00
  TRACK 10 AUDIO
    INDEX 00 03:40:18
FILE "10 - Ederlezi.wav" WAVE
    INDEX 01 00:00:00
Код:
[url=https://fastpic.ru/view/108/2018/1214/516f58ad70670f963dfed669acd37e9b.png.html][img]https://i108.fastpic.ru/thumb/2018/1214/9b/516f58ad70670f963dfed669acd37e9b.jpeg[/img][/url]
Код:
foobar2000 1.2.2 / Dynamic Range Meter 1.1.1
log date: 2014-07-31 22:21:26
--------------------------------------------------------------------------------
Analyzed: Rúzsa Magdolna / Nélküled
--------------------------------------------------------------------------------
DR         Peak         RMS     Duration Track
--------------------------------------------------------------------------------
DR9       -0.18 dB   -10.00 dB      4:04 01-Szerelem
DR6       -0.20 dB    -7.53 dB      3:57 02-Gábriel
DR5       -0.01 dB    -8.24 dB      3:37 03-Vigyázz a madárra
DR9        0.00 dB   -11.58 dB      2:15 04-Most élsz
DR6        0.00 dB   -11.39 dB      3:34 05-Nekem nem szabad
DR8       -0.18 dB   -10.40 dB      3:42 06-Csak a bolond remél
DR6        0.00 dB    -8.94 dB      3:00 07-Aprócska blues
DR7       -0.25 dB    -9.90 dB      3:25 08-Nélküled
DR13      -0.18 dB   -16.51 dB      3:42 09-Egyszer
DR8       -0.10 dB   -11.49 dB      2:41 10-Ederlezi
--------------------------------------------------------------------------------
Number of tracks:  10
Official DR value: DR8
Samplerate:        44100 Hz
Channels:          2
Bits per sample:   16
Bitrate:           982 kbps
Codec:             FLAC
================================================================================
Правила, инструкции, FAQ!!!
Торрент  Добавлен [26 мар 2019, 19:56] Скачать торрент Магнет ссылка
Скачать торрент
[ Размер 18.79 КБ / Просмотров 3 ]

Статус
Проверен 
 
Размер  223.25 МБ
Приватный: Нет (DHT включён)
.torrent скачан  0
 


     Отправить личное сообщение
   
Страница 1 из 1
Показать сообщения за:  Поле сортировки  
Начать новую тему Ответить на тему


Сейчас этот форум просматривают: нет зарегистрированных пользователей и гости: 0


Вы не можете начинать темы
Вы не можете отвечать на сообщения
Вы не можете редактировать свои сообщения
Вы не можете удалять свои сообщения
Вы не можете добавлять вложения

Перейти:  
cron